#TITLE:A Minha Amiga Fran;
#SUBTITLE:;
#ARTIST:Mc Jair da Rocha;
#TITLETRANSLIT:;
#SUBTITLETRANSLIT:;
#ARTISTTRANSLIT:;
#GENRE:;
#CREDIT:Destrier75;
#MUSIC:A Minha Amiga Fran.ogg;
#BANNER:A Minha Amiga Fran.png;
#BACKGROUND:A Minha Amiga Fran-bg.png;
#CDTITLE:;
#SAMPLESTART:57.467;
#SAMPLELENGTH:14.760;
#SELECTABLE:YES;
#OFFSET:1.600;
#BPMS:0.000=130.000;
#STOPS:;
#BGCHANGES:;
#FGCHANGES:;

//--------------- dance-single - Destrier75 ----------------
#NOTES:
     dance-single:
     Destrier75:
     Beginner:
     3:
     0,0,0,0,0:
0000
0000
0000
0000
,
0000
0000
0000
0000
,
0000
0000
0000
0000
,
0000
0000
0000
0000
,
0000
0000
0000
0000
,
1000
0000
1000
0000
,
1000
1000
1000
0000
,
0001
0000
0001
0000
,
0001
0001
0001
0000
,
0100
0000
0100
0000
,
0100
0100
0100
0000
,
0010
0000
0010
0000
,
0010
0010
0010
0000
,
1000
0000
1000
0000
,
1000
1000
1000
0000
,
0001
0000
0001
0000
,
0001
0001
0001
0000
,
2000
0000
0000
3000
,
0001
0000
0001
0000
,
0001
0001
0001
0000
,
1000
0000
1000
0000
,
1000
1000
1000
0000
,
0100
0000
0100
0000
,
0100
0100
0100
0000
,
0010
0000
0010
0000
,
0010
0010
0010
0000
,
1000
1000
1000
0000
,
0001
0001
0001
0000
,
1001
0000
1001
0000
,
1001
0000
2002
0000
,
3003
0000
0000
0000
,
0000
0000
0000
0000
,
0100
0100
0100
0000
,
0010
0010
0010
0000
,
1000
1000
1000
0000
,
0001
0001
0001
0000
,
1001
0000
0000
0000
,
0000
0000
0000
0000
,
1000
1000
1000
0000
,
0001
0001
0001
0000
,
0100
0100
0100
0000
,
0010
0010
0010
0000
,
1000
1000
1000
0000
,
0001
0001
0001
0000
,
0100
0100
0100
0000
,
0010
0010
0010
0000
,
0200
0000
0000
0300
,
1000
0000
1000
0000
,
1000
1000
1000
0000
,
0010
0000
0010
0000
,
0010
0010
0010
0000
,
0100
0000
0100
0000
,
0100
0100
0100
0000
,
0001
0000
0001
0000
,
0001
0001
0001
0000
,
1000
1000
1000
0000
,
0001
0001
0001
0000
,
0110
0000
1001
0000
,
0110
0000
2002
0000
,
3003
0000
0000
0000
,
0000
0000
0000
0000
,
0100
0100
0100
0000
,
0010
0010
0010
0000
,
1000
1000
1000
0000
,
0001
0001
0001
0000
,
1001
0000
0000
0000
,
0000
0000
0000
0000
,
0100
0100
0100
0000
,
0010
0010
0010
0000
,
1000
1000
1000
0000
,
0001
0001
0001
0000
,
0100
0100
0100
0000
,
0010
0010
0010
0000
,
1000
1000
1000
0000
,
0001
0000
1000
0000
,
1001
0000
0000
0000
;

//--------------- dance-single - Destrier75 ----------------
#NOTES:
     dance-single:
     Destrier75:
     Easy:
     6:
     0,0,0,0,0:
0000
0000
0000
0000
,
0000
0000
0000
0000
,
0000
0000
0000
0000
,
0000
0000
0000
0000
,
0000
0000
0000
0000
,
0100
0100
0010
0010
,
1000
1000
0001
0001
,
1000
1000
0010
0010
,
2000
0000
0000
0000
0002
0000
0000
3003
,
1000
1000
0001
0001
,
0100
0100
0010
0010
,
1000
1000
0001
0001
,
0100
0100
0010
0010
,
1000
1000
0001
0001
,
0100
0100
0010
0010
,
1000
1000
0001
0001
,
1000
1000
0001
0001
,
2002
0000
0000
0000
0000
0000
0000
3003
,
1000
0010
1000
0010
,
0100
0001
0100
0001
,
1000
0001
1000
0001
,
0100
0001
0100
0001
,
1000
0010
1000
0010
,
0100
0001
0100
0001
,
1000
0001
1000
0001
,
0100
0001
0100
0001
,
1000
1000
0010
0100
,
0001
0001
0100
0010
,
1000
1000
0000
0000
0001
0001
0000
0000
,
0100
0100
0000
0000
0220
0000
0000
0330
,
2002
0000
0000
0000
,
0000
0000
0000
0000
0000
0000
0000
3003
,
1000
0010
1000
0010
,
0100
0001
0100
0001
,
1000
0001
1000
0001
,
0100
0010
0100
0010
,
2002
0000
0000
0000
,
0000
0000
0000
0000
0000
0000
0000
3003
,
1000
1000
0010
0010
,
0100
0100
0001
0001
,
1000
1000
0001
0001
,
0100
0100
0010
0010
,
1000
1000
0001
0001
,
0100
0100
0010
0010
,
1000
1000
0001
0001
,
0100
0100
0010
0100
,
0220
0000
0000
0000
0000
0000
0000
0330
,
1000
0010
1000
0010
,
0100
0001
0100
0001
,
1000
0001
1000
0001
,
0100
0001
0100
0001
,
1000
0010
1000
0010
,
0100
0010
0100
0010
,
0001
0100
0001
0100
,
0001
1000
0001
1000
,
1000
0010
1000
0010
,
0100
0010
0100
0010
,
0001
0001
0000
0000
1000
1000
0000
0000
,
0010
0010
0000
0000
2002
0000
0000
3003
,
0220
0000
0000
0000
,
0000
0000
0000
0000
0000
0000
0000
0330
,
1000
0001
1000
0001
,
0100
0010
0100
0010
,
1000
0010
1000
0010
,
0100
0001
0100
0001
,
2002
0000
0000
0000
,
0000
0000
0000
0000
0000
0000
0000
3003
,
1000
0010
0100
0001
,
1000
0010
0100
0001
,
1000
0010
0100
0001
,
1000
0010
0100
0001
,
1000
0001
1000
0001
,
0100
0010
1000
0010
,
0100
0001
1000
0001
,
0100
0000
0010
0000
,
1001
0000
0000
0000
;

//--------------- dance-single - Destrier75 ----------------
#NOTES:
     dance-single:
     Destrier75:
     Medium:
     9:
     0,0,0,0,0:
0000
0000
0000
0000
,
0000
0000
0000
0000
,
0000
0000
0000
0000
,
0000
0000
0000
0000
,
0000
0000
0000
0000
,
0010
0000
0100
0001
0100
0000
0010
1000
,
0010
0000
1000
0010
1000
0001
1000
0001
,
1000
0000
0001
0100
0001
0000
1000
0010
,
1000
0001
1000
0001
2002
0000
0000
3003
,
1000
0000
0010
1000
0010
0000
0100
0001
,
0100
0000
0010
0100
0010
1000
0001
1000
,
0001
0000
0100
0001
0100
0000
0010
1000
,
0010
0000
0100
0001
0100
0001
1000
0001
,
1000
0000
0100
0010
0100
0000
1000
0001
,
1000
0000
0001
0100
0001
1000
0001
1000
,
0001
0000
0100
0010
0100
0000
0001
0100
,
0001
0000
1000
0010
1000
0100
0001
0100
,
0002
0000
0000
0000
,
1003
0010
1000
0010
1000
0000
0100
0000
,
0001
0100
0001
0100
0001
0000
0010
0000
,
1000
1010
0010
0011
,
0001
1001
1000
1010
,
1000
0001
1000
0001
1000
0000
0010
0000
,
0100
0010
0100
0010
0100
0000
0010
0000
,
1000
1100
0100
0101
,
0001
0011
0001
1001
,
1000
0010
1000
0010
1000
0000
0100
0000
,
0001
0100
0001
0100
0001
0000
0100
0000
,
1000
1010
0000
0000
0001
0101
0000
0000
,
1000
0001
1000
0001
1000
0001
1000
0001
,
2000
0000
0000
0000
,
3002
0000
0000
0000
,
1003
0010
1000
0001
0100
0001
1000
0010
,
1000
0001
0100
0001
1000
0010
1000
0001
,
0100
0001
0100
0010
0100
0010
1000
0010
,
0100
0001
0100
0010
1000
0010
1000
0010
,
2000
0000
0000
0000
0000
0000
0000
0000
0000
0000
0000
0000
0000
0000
0000
0000
0000
0000
0000
0000
0000
0000
0000
0000
0000
0000
0000
0000
0000
0000
0000
0000
0000
0000
0000
0000
0000
0000
0000
0000
0000
0000
0000
0000
0000
0000
0000
0000
0000
0000
0000
0000
0000
0000
0000
0000
0000
0000
0000
0000
0000
0000
0000
3000
,
0002
0000
0000
0000
,
1003
0000
0000
1000
0000
0000
0010
0000
1000
0000
0010
0000
0100
0000
0001
0000
,
0100
0000
0000
0100
0000
0000
0010
0000
1000
0000
0010
0000
0100
0000
0001
0000
,
0100
0000
0000
0100
0000
0000
0001
0000
1000
0000
0001
0000
1000
0000
0001
0000
,
1000
0000
0000
1000
0000
0000
0001
0000
0100
0000
0001
0000
1000
0000
0010
0000
,
1000
0000
0000
1000
0000
0000
0010
0000
0100
0000
0010
0000
1000
0000
0001
0000
,
1000
0000
0000
1000
0000
0000
0001
0000
0100
0000
0001
0000
0100
0000
0010
0000
,
1000
0000
0000
1000
0000
0000
0001
0000
0100
0000
0001
0000
1000
0000
0010
0000
,
1000
0000
0000
1000
0000
0000
0001
0000
0100
0000
0001
0000
1000
0000
0001
0000
,
2000
0000
0000
0000
,
3001
1000
0001
1000
0001
0000
0100
0000
,
0010
0100
0010
0100
0010
0000
1000
0000
,
0001
0101
0100
0110
,
0010
1010
1000
1001
,
0001
0100
0001
0100
0001
0000
0010
0000
,
1000
0010
1000
0010
1000
0000
0010
0000
,
1000
1010
0010
0011
,
0001
1001
1000
1010
,
1000
0001
1000
0001
1000
0000
0010
0000
,
0100
0010
0100
0010
0100
0000
0010
0000
,
1000
1001
0000
0000
0001
0101
0000
0000
,
1000
0001
1000
0001
1000
0001
1000
0001
,
2000
0000
0000
0000
,
3002
0000
0000
0000
,
1003
0010
1000
0001
0100
0001
0010
1000
,
0010
0100
0001
0100
0010
0100
0001
0100
,
1000
0010
1000
0100
0001
0100
0010
0100
,
1000
0001
0100
0010
1000
0010
0100
0001
,
2000
0000
0000
0000
,
3002
0000
0000
0000
,
1003
0000
0000
1000
0000
0000
0001
0000
0100
0000
0001
0000
1000
0000
0010
0000
,
1000
0000
0000
1000
0000
0000
0010
0000
0100
0000
0010
0000
1000
0000
0001
0000
,
1000
0000
0000
1000
0000
0000
0001
0000
0100
0000
0001
0000
1000
0000
0010
0000
,
1000
0000
0000
1000
0000
0000
0100
0000
0010
0000
0100
0000
0001
0000
0100
0000
,
0001
0000
0000
0001
0000
0000
1000
0000
0010
0000
1000
0000
0100
0000
0001
0000
,
0100
0000
0000
0100
0000
0000
0001
0000
1000
0000
0001
0000
0100
0000
0010
0000
,
1000
0000
0000
1000
0000
0000
0001
0000
0100
0000
0010
0000
1000
0000
0001
0000
,
1000
0000
0000
1000
0000
0000
0010
0000
0100
0000
0010
0000
0100
0000
0010
0000
;

//--------------- dance-single - Destrier75 ----------------
#NOTES:
     dance-single:
     Destrier75:
     Hard:
     13:
     0,0,0,0,0:
0000
0000
0000
0000
,
0000
0000
0000
0000
,
0000
0000
0000
0000
,
0000
0000
0000
0000
,
0000
0000
0000
0000
,
1000
0000
0000
0001
0100
0000
0001
0000
1000
0000
0000
1000
0010
0000
0100
0000
,
0001
0000
0000
0001
1000
0000
0010
0000
1000
0000
0010
1000
0010
0000
0100
0000
,
0001
0000
0000
0001
0100
0000
0010
0000
1000
0000
0000
0010
0100
0000
0010
0000
,
1000
0000
1000
0000
0001
0000
0001
0000
1000
0001
1000
0001
1000
0001
1000
0001
,
1000
0000
0000
0001
1000
0000
0010
0000
0100
0000
0000
0001
0100
0000
0010
0000
,
1000
0000
0000
1000
0010
0000
0100
0000
0001
0000
1000
0001
1000
0000
0001
0000
,
1000
0000
0000
0010
0100
0000
0010
0000
1000
0000
0000
0001
0100
0000
0010
0000
,
0100
0000
0000
0100
0001
0000
0010
0000
1000
0000
0010
0100
0010
0000
0001
0000
,
1000
0000
0000
0001
0100
0000
0010
0000
1000
0000
0000
0100
0010
0000
0100
0000
,
0001
0000
0000
1000
0010
0000
0100
0000
0010
0000
1000
0001
1000
0000
0001
0000
,
0100
0000
0000
0001
1000
0000
0010
0000
1000
0000
0000
0100
0001
0000
0100
0000
,
0010
0000
0000
0001
1000
0000
0010
0000
1000
0000
0001
1000
0001
0000
0010
0000
,
0100
0010
0100
0010
0100
0010
0100
0010
0100
0010
0100
0010
0100
0000
0010
0000
,
2000
0000
3002
0000
0000
0100
0103
0010
,
2000
0000
0000
0000
3002
0000
0000
0000
0103
0000
0001
1000
0001
0000
0100
0000
,
0010
0000
1000
0010
1000
0000
0100
0000
0010
0000
0001
0100
0001
0000
0010
0000
,
0100
0000
1000
0010
1000
0000
0100
0000
0010
0000
1000
0000
0001
0000
1000
0000
,
0002
0000
2003
0000
0000
0010
3010
0100
,
0002
0000
0000
0000
2003
0000
0000
0000
3001
0000
0100
0001
0100
0000
0001
0000
,
1000
0000
0010
1000
0010
0000
0100
0000
0010
0000
0100
0001
0100
0000
0001
0000
,
0100
0000
1000
0010
1000
0000
0010
0000
1000
0000
0001
0000
0100
0000
0010
0000
,
1000
0010
0100
0001
0100
0010
1000
0010
,
0100
0001
0100
0010
1000
0010
0100
0010
,
1000
1001
0000
0000
0001
0101
0000
0000
,
1000
0000
1000
0000
0001
0000
0001
0000
0001
1000
0001
1000
0001
1000
0001
1000
,
0002
0000
0000
0000
,
2000
0000
0000
0000
0000
0000
0000
0000
3003
0000
0000
1000
0001
0000
0100
0000
,
1000
0000
0000
0001
0100
0000
0010
0000
1000
0000
0000
0100
0010
0000
0001
0000
,
1000
0000
0000
0001
0100
0000
0001
0000
1000
0000
0001
1000
0001
0000
0010
0000
,
1000
0000
0000
0010
0100
0000
0010
0000
1000
0000
0000
0100
0010
0000
0100
0000
,
0001
0000
0000
1000
0001
0000
0100
0000
0010
0000
0100
0010
0100
0000
0010
0000
,
0200
0000
0000
0000
,
0020
0000
0000
0330
,
1000
0000
0000
1001
0000
0000
1000
0000
0100
0000
0010
0000
0001
0000
0100
0000
,
0010
0000
0000
1010
0000
0000
0100
0000
0010
0000
0100
0001
0100
0000
0001
0000
,
1000
0000
0000
0110
0000
0000
0001
0000
0100
0000
0010
0000
1000
0000
0010
0000
,
1000
0000
0000
1001
0000
0000
0100
0000
0001
0000
0100
0001
0100
0000
0010
0000
,
0100
0000
0000
0110
0000
0000
1000
0000
0001
0000
0100
0000
0010
0000
0100
0000
,
0010
0000
0000
1010
0000
0000
0001
0000
0100
0000
0001
1000
0001
0000
0100
0000
,
0010
0000
0000
1001
0000
0000
1000
0000
0001
0000
0100
0000
0010
0000
1000
0000
,
0001
0000
0000
0101
0000
0000
0010
0000
1000
0000
0001
1000
0001
0000
0100
0000
,
1000
0001
1000
0001
1000
0001
1000
0001
1000
0001
1000
0001
1000
0000
0100
0000
,
2000
0000
3002
0000
0000
1000
1003
0100
,
2000
0000
0000
0000
3002
0000
0000
0000
0103
0000
0010
0100
0010
0000
0100
0000
,
0010
0000
0001
1000
0001
0000
1000
0000
0010
0000
0100
0010
0100
0000
0001
0000
,
0100
0000
0001
1000
0001
0000
0010
0000
1000
0000
0001
0000
0100
0000
0010
0000
,
2000
0000
3002
0000
0000
0100
0103
0010
,
2000
0000
0000
0000
3002
0000
0000
0000
0103
0000
0001
0100
0001
0000
0010
0000
,
1000
0000
0001
0100
0001
0000
0010
0000
0001
0000
1000
0010
1000
0000
0100
0000
,
0010
0000
0001
0100
0001
0000
1000
0000
0100
0000
0010
0000
0001
0000
0100
0000
,
1000
0001
1000
0001
0100
0001
1000
0010
,
1000
0100
0001
0100
0001
1000
0001
0100
,
1000
1010
0000
0000
0001
0101
0000
0000
,
0001
0000
0001
0000
1000
0000
1000
0000
1000
0001
1000
0001
1000
0001
1000
0001
,
2000
0000
0000
0000
,
0002
0000
0000
0000
0000
0000
0000
0000
3003
0000
0000
0001
1000
0000
0010
0000
,
1000
0000
0000
0010
1000
0000
0010
0000
0100
0000
0000
0001
0100
0000
0010
0000
,
1000
0000
0000
1000
0010
0000
1000
0000
0001
0000
1000
0001
1000
0000
0010
0000
,
0001
0000
0000
0001
0100
0000
0010
0000
1000
0000
0000
1000
0010
0000
0100
0000
,
0001
0000
0000
0001
0100
0000
0001
0000
1000
0000
0001
1000
0001
0000
1000
0000
,
0020
0000
0000
0000
,
0200
0000
0000
0330
,
1000
0000
0000
1010
0000
0000
0001
0000
0010
0000
0100
0000
1000
0000
0001
0000
,
1000
0000
0000
1010
0000
0000
0001
0000
0100
0000
0001
0100
0001
0000
0010
0000
,
0100
0000
0000
0101
0000
0000
0100
0000
0010
0000
1000
0000
0100
0000
0001
0000
,
0100
0000
0000
0101
0000
0000
0001
0000
1000
0000
0001
1000
0001
0000
0100
0000
,
0010
0000
0000
1001
0000
0000
1000
0000
0010
0000
0100
0000
0001
0000
0100
0000
,
1000
0000
0000
1010
0000
0000
0100
0000
0001
0000
0100
0001
0100
0000
0001
0000
,
1000
0000
0000
1001
0000
0000
1000
0000
0001
0000
1000
0000
0010
0000
0001
0000
,
0100
0000
0000
1010
0000
0000
1000
0000
0001
0000
1000
0001
1000
0000
0001
0000
,
1000
0000
0000
0000
;
