#TITLE:34+35 (Min Remix);
#SUBTITLE:;
#ARTIST:Ariana Grande;
#TITLETRANSLIT:;
#SUBTITLETRANSLIT:;
#ARTISTTRANSLIT:;
#GENRE:;
#CREDIT:Destrier75;
#MUSIC:34+35 (Min Remix).ogg;
#BANNER:34+35 (Min Remix).png;
#BACKGROUND:34+35 (Min Remix)-bg.png;
#CDTITLE:;
#SAMPLESTART:64.980;
#SAMPLELENGTH:15.000;
#SELECTABLE:YES;
#OFFSET:0.920;
#BPMS:0.000=120.000;
#STOPS:;
#BGCHANGES:1.833=34+35 (Min Remix).avi=1.000=1=0=0=StretchNoLoop==CrossFade==,
99999.000=-nosongbg-=1.000=0=0=0=StretchNoLoop====
;
#FGCHANGES:;

//--------------- dance-single - Destrier75 ----------------
#NOTES:
     dance-single:
     Destrier75:
     Beginner:
     2:
     0,0,0,0,0:
0000
0000
0000
0000
,
0000
0000
0000
0000
,
0000
0000
0000
0000
,
0000
0000
0000
0000
,
0000
0000
0000
0000
,
0000
1000
0000
1000
,
0000
0001
0000
0001
,
0000
0100
0000
0100
,
0000
0010
0000
0010
,
0000
1000
1000
1000
,
0000
0001
0001
0001
,
0000
0100
0100
0100
,
0000
0010
0010
0010
,
0000
1000
1000
1000
,
0000
0001
0001
0001
,
0000
0100
0100
0100
,
0000
0010
0010
0010
,
0000
1000
0000
1000
,
0000
1000
0000
1000
,
0000
1000
0000
1000
,
0000
1000
0000
1000
,
0000
0001
0001
0001
,
0000
1000
1000
1000
,
0000
1001
0000
1001
,
0000
1001
0000
1001
,
0000
1000
1000
1000
,
0000
0001
0001
0001
,
0000
0100
0100
0100
,
0000
0010
0010
0010
,
0000
1000
1000
1000
,
0000
0001
0001
0001
,
0000
0100
0100
0100
,
0000
0010
0010
0010
,
0000
1000
1000
1000
,
0000
0001
0001
0001
,
0000
0100
0100
0100
,
0000
0010
0010
0010
,
0000
1000
1000
1000
,
0000
0001
0001
0001
,
0000
0100
0100
0100
,
0000
0010
0010
0010
,
0000
0100
0000
0100
,
0000
0100
0000
0100
,
0000
0100
0000
0100
,
0000
0100
0000
0100
,
0000
0100
0100
0100
,
0000
0010
0010
0010
,
0000
1001
0000
1001
,
0000
1001
0000
1001
,
0000
1000
1000
1000
,
0000
0001
0001
0001
,
0000
1000
1000
1000
,
0000
0001
0001
0001
,
0000
0100
0100
0100
,
0000
0010
0010
0010
,
0000
0100
0100
0100
,
0000
0010
0010
0010
,
0000
1000
1000
1000
,
0000
0001
0001
0001
,
0000
1000
1000
1000
,
0000
0001
0001
0001
,
0000
0100
0100
0100
,
0000
0010
0010
0010
,
0000
0100
0100
0100
,
0000
0010
0010
0010
;

//--------------- dance-single - Destrier75 ----------------
#NOTES:
     dance-single:
     Destrier75:
     Easy:
     5:
     0,0,0,0,0:
0000
0000
0000
0000
,
0000
0000
0000
0000
,
0000
0000
0000
0000
,
0000
0000
0000
0000
,
0000
0000
0000
0000
,
0000
1000
1000
1000
,
1000
0001
0001
0001
,
0001
0100
0100
0100
,
0100
0010
0010
0010
,
0010
1000
1000
1000
,
1000
0001
0001
0001
,
0001
0100
0100
0100
,
0100
0010
0010
0010
,
0010
1000
1000
1000
,
1000
0001
0001
0001
,
0001
0100
0100
0100
,
0100
0010
0010
0010
,
0002
0000
0000
0000
,
0000
2003
0000
0000
,
0000
3002
0000
0000
,
0000
2003
0000
0000
,
0000
3000
0001
0001
,
0001
0001
1000
1000
,
1000
1000
0010
0010
,
0010
0010
0100
0010
,
0100
1000
1000
0100
,
0100
0010
0010
0001
,
0001
0010
0010
0100
,
0100
1000
1000
1000
,
1001
1000
0001
1000
,
0001
1000
0010
1000
,
0010
0100
0001
0100
,
0001
0000
0001
0010
,
1001
1000
0010
1000
,
0010
0100
0001
0100
,
0001
0100
0010
0100
,
0010
1000
0010
1000
,
0010
0100
0001
0100
,
0001
1000
0001
1000
,
0001
0100
0001
0100
,
0001
1000
0010
1000
,
2000
0000
0000
0000
,
3002
0000
0000
0000
,
2003
0000
0000
0000
,
3002
0000
0000
0000
,
1003
1000
1000
1000
,
1000
1000
1000
1000
,
0001
0001
0001
0001
,
1000
0001
1000
0001
,
1000
1000
1000
0100
,
0100
0010
0010
0001
,
0001
1000
1000
0100
,
0100
0010
0010
0001
,
0001
1000
0010
1000
,
0010
0100
0001
0100
,
0001
1000
0001
1000
,
0001
0001
0001
0001
,
1001
1000
0010
1000
,
0010
0100
0001
0100
,
0001
1000
0001
1000
,
0001
0100
0001
0100
,
0001
1000
0010
1000
,
0010
0100
0001
0100
,
0001
1000
0001
1000
,
0001
0100
0001
0100
,
0101
0000
0000
0000
;

//--------------- dance-single - Destrier75 ----------------
#NOTES:
     dance-single:
     Destrier75:
     Medium:
     8:
     0,0,0,0,0:
0000
0000
0000
0000
,
0000
0000
0000
0000
,
0000
0000
0000
0000
,
0000
0000
0000
0000
,
0000
0000
0000
0000
,
0000
0000
1000
0010
1000
0000
0010
0000
,
0001
0000
0100
0001
0100
0000
0010
0000
,
1000
0000
0001
1000
0001
0000
1000
0001
,
2000
3002
2003
3002
,
1003
0000
0001
1000
0001
0000
0100
0000
,
0010
0000
1000
0010
1000
0000
0100
0000
,
0001
0000
1000
0010
1000
0000
0100
0000
,
0010
0000
0001
0100
0001
0000
0010
0000
,
1000
0000
0100
0001
0100
0000
0010
0000
,
1000
0000
0100
0010
0100
0000
0001
0000
,
0100
0000
0001
0010
0001
0000
1000
0000
,
0010
0000
1000
0001
1000
0000
0001
0000
,
2000
0001
0001
0001
,
0001
3002
0100
0100
,
0100
0203
0010
0010
,
0010
0000
0320
0000
1000
0000
1000
0030
,
1000
0001
1000
0000
0001
1000
0001
0000
,
1000
0001
1000
0000
0001
1000
0001
0000
,
1000
0001
1000
0001
1000
0001
1000
0001
,
2002
0000
3003
1000
,
1001
2000
3002
2003
,
3002
2003
3002
2003
,
3001
0200
0302
0203
,
0302
0203
0302
0103
,
1000
0010
1000
0000
0100
0000
0010
0000
,
0001
0100
0001
0000
0010
0000
0100
0000
,
0000
0000
1000
0010
1000
0000
0100
0010
,
0200
0302
0203
0302
,
0103
0010
0100
0000
0100
0000
0010
0000
,
1000
0010
1000
0000
0100
0000
0010
0000
,
0001
0100
0001
0000
0010
0000
0100
0000
,
1000
0010
1000
0000
0100
0000
0010
0000
,
0001
0100
0001
0000
0010
0000
0100
0000
,
1000
0001
1000
0000
0100
0000
0010
0000
,
1000
0010
1000
0000
0100
0000
0010
0000
,
0001
0100
0001
0000
0010
0000
1000
0000
,
2000
0010
0010
0010
,
0010
3020
0001
0001
,
0001
0032
0100
0100
,
0100
0000
0203
0000
0010
0000
0010
0300
,
0010
0100
0010
0000
1000
0001
1000
0000
,
0001
0100
0001
0000
1000
0010
1000
0000
,
0100
0010
0100
0010
0100
0010
0100
0010
,
0220
0000
0330
1000
,
1001
2000
3200
2300
,
3200
2300
3200
2300
,
3100
0002
0203
0302
,
0203
0302
0203
0302
,
0103
0000
1000
0001
1000
0000
0100
0000
,
0010
0000
0001
0100
0001
0000
1000
0000
,
0010
0000
1000
0010
1000
0000
0001
0100
,
0002
2003
3002
2003
,
3001
0000
1000
0010
1000
0000
0100
0000
,
0010
0000
0001
0100
0001
0000
0010
0000
,
0100
0000
1000
0010
1000
0000
0100
0000
,
0010
0000
0001
0100
0001
0000
1000
0000
,
0001
0000
1000
0001
1000
0000
0010
0000
,
0100
0000
0001
0100
0001
0000
0010
0000
,
1000
0000
1000
0010
1000
0000
0100
0000
,
0010
0000
0001
0100
0001
0000
1000
0000
,
1001
0000
0000
0000
;

//--------------- dance-single - Destrier75 ----------------
#NOTES:
     dance-single:
     Destrier75:
     Hard:
     12:
     0.531,0.513,0.203,0.18,0.154:
0000
0000
0000
0000
,
0000
0000
0000
0000
,
0000
0000
0000
0000
,
0000
0000
0000
0000
,
0000
0000
0000
0000
,
1000
0001
1000
0010
1000
0001
1000
0000
,
1001
0000
0001
0100
0001
0100
0001
0000
,
0101
0000
1000
0001
1000
0001
1000
0000
,
1001
0000
0100
0010
0100
0010
0100
0000
,
0110
0000
1000
0010
1000
0001
1000
0010
,
1000
0000
0100
0001
0100
0010
1000
0001
,
0100
0000
0010
0001
1000
0001
0100
0010
,
1000
0000
0100
0001
0100
1000
0001
0100
,
0001
0000
1000
0010
1000
0001
1000
0010
,
1000
0000
0100
0001
0100
0010
1000
0001
,
0100
0000
0010
1000
0001
0100
0010
0001
,
0101
1001
0101
0110
,
2000
0001
3002
0100
,
0203
0010
0320
1000
,
2030
0001
3002
0100
,
0203
0001
0302
0100
,
0103
0101
0011
0011
,
1001
1001
0101
0101
,
1000
0000
1000
0000
0001
0000
0001
0000
0001
0100
0001
0000
1000
0010
1000
0000
,
1000
0001
1000
0001
1000
0001
1000
0001
1000
0000
0010
0000
1000
0000
0001
0000
,
1000
0010
1000
0001
1000
0010
1000
0010
,
1000
0001
1000
0000
0010
0000
0100
0000
0001
0100
0001
0000
1000
0000
0010
0000
,
1000
0100
1000
0001
1000
0010
1000
0001
,
1000
0001
1000
0000
0001
0000
0100
0000
0001
0100
0001
0000
1000
0000
0010
0000
,
1000
0000
0001
0000
1000
0000
0010
0000
1000
0000
0010
1000
0010
0000
0100
0000
,
0001
0000
0100
0000
0010
0000
0100
0000
1000
0000
0001
0100
0001
0000
0010
0000
,
1000
0000
0010
0000
1000
0000
0010
0000
0100
0000
0001
0100
0001
0000
0010
0000
,
2000
3002
0203
0302
,
0103
0000
0001
0000
1000
0010
1000
0000
0100
0000
0010
0000
1000
0000
0001
0000
,
0100
0000
0010
0000
0001
0010
0001
0000
1000
0000
0010
0000
1000
0000
0001
0000
,
0100
0000
0010
0000
0001
0010
0001
0000
1000
0000
0010
0000
1000
0000
0010
0000
,
0100
0000
0010
0000
0100
0001
0100
0000
0010
0000
0100
0000
1000
0000
0010
0000
,
0100
0000
0001
0000
0100
0001
0100
0000
0010
0000
0100
0000
1000
0000
0010
0000
,
0100
0000
0001
0000
0100
0001
0100
0000
0010
0000
0100
0000
1000
0000
0010
0000
,
0100
0000
0010
0000
0100
0001
0100
0000
0010
0000
1000
0000
0001
0000
1000
0000
,
1001
1010
1100
1001
,
2000
0001
3002
0100
,
0203
0010
0320
1000
,
2030
0001
3002
0010
,
0023
1000
2030
0001
,
0001
3000
0000
0000
1001
0000
0000
0000
1010
0000
0000
0000
1010
0000
0000
0000
,
1100
1100
1001
1001
,
0001
0000
0001
0000
1000
0000
1000
0000
0001
1000
0001
0000
1000
0001
1000
0000
,
0001
0100
0001
0100
0001
0100
0001
0100
0001
0000
0100
0000
0001
0000
0100
0000
,
1000
0010
1000
0010
1000
0001
0100
0010
,
0100
0001
0100
0000
0010
0000
0100
0000
1000
0001
1000
0000
0100
0000
0010
0000
,
1000
0010
1000
0001
0100
0010
0100
0001
,
0100
0001
0100
0000
0010
0000
0100
0000
1000
0010
1000
0000
0100
0000
0010
0000
,
1000
0000
0100
0000
0010
0000
0001
0000
1000
0000
0001
1000
0001
0000
0100
0000
,
1000
0000
0010
0000
1000
0000
0001
0000
0100
0000
0001
0100
0001
0000
0010
0000
,
1000
0000
0001
0000
0100
0000
0010
0000
0100
0000
0010
0100
0010
0000
0100
0000
,
2000
3002
0203
0302
,
0103
0000
0010
0000
0100
0001
0100
0000
0010
0000
1000
0000
0001
0000
0100
0000
,
0010
0000
1000
0000
0100
0010
0100
0000
1000
0000
0001
0000
1000
0000
0010
0000
,
0100
0000
0010
0000
0100
0001
0100
0000
1000
0000
0010
0000
0100
0000
0010
0000
,
0100
0000
0001
0000
0100
0001
0100
0000
0010
0000
0100
0000
1000
0000
0001
0000
,
0100
0000
0010
0000
0100
0010
0100
0000
0001
0000
0100
0000
1000
0000
0010
0000
,
0100
0000
0010
0000
0001
0010
0001
0000
1000
0000
0010
0000
1000
0000
0001
0000
,
0100
0000
0010
0000
1000
0001
1000
0000
0100
0000
0010
0000
1000
0000
0001
0000
,
0100
0000
0001
0000
0100
0001
0100
0000
0001
0000
1000
0000
0001
0000
1000
0000
,
1001
0000
0000
0000
;
