#TITLE:Wicked Wonderland;
#SUBTITLE:;
#ARTIST:Martin Tungevaag;
#TITLETRANSLIT:;
#SUBTITLETRANSLIT:;
#ARTISTTRANSLIT:;
#CREDIT:;
#BANNER:Wicked Wonderland.png;
#BACKGROUND:Wicked Wonderland-bg.png;
#LYRICSPATH:;
#CDTITLE:;
#MUSIC:Wicked Wonderland.ogg;
#OFFSET:0.240;
#SAMPLESTART:31.640;
#SAMPLELENGTH:15.000;
#SELECTABLE:YES;
#BPMS:0.000=128.000;
#STOPS:;
#BGCHANGES:0.500=Wicked Wonderland.avi=1.000=1=1=0,
99999=-nosongbg-=1.000=0=0=0 // don't automatically add -songbackground-
;

//---------------dance-single - Destrier75----------------
#NOTES:
     dance-single:
     Destrier75:
     Challenge:
     14:
     0.598,0.541,0.000,0.000,0.234:
0000
0000
0000
0000
,
0000
0000
0000
0000
,
0000
0000
0000
0000
,
0000
0000
0000
0000
,
0000
0000
0000
0000
,
1000
0010
1000
0001
1000
0001
1000
0010
,
1000
0010
0000
0100
1000
0100
1000
0100
,
1000
0100
0010
0001
0100
0001
0100
0001
,
0100
0000
0000
0001
1000
0001
1000
0001
,
1000
0000
0010
0000
1000
0000
0010
0000
1000
0000
0100
0010
0100
0000
0010
0000
,
1000
0000
0001
0000
0100
0000
0010
0000
0100
0000
0010
0100
0010
0000
1000
0000
,
0001
0000
1000
0000
0010
0000
1000
0000
0010
0000
1000
0001
1000
0000
0100
0000
,
0010
0000
0100
0000
0001
0000
0100
0000
1000
0000
0001
0010
0001
0000
1000
0000
,
0010
0000
1000
0000
0010
0000
1000
0000
0100
0000
0001
0100
0001
0000
0100
0000
,
0010
0000
1000
0000
0010
0000
0100
0000
0001
0000
0100
0010
0100
0000
0010
0000
,
1000
1000
0100
0100
0010
0010
0001
0001
,
1000
0001
1000
0000
0100
0001
0100
0000
0100
0000
0001
0000
0100
0000
0001
0000
,
0100
0000
0010
0000
1000
0000
0001
0000
0100
0010
0100
0010
0100
0000
0010
0000
,
1000
0000
0001
0000
0100
0000
0001
0000
1000
0010
1000
0010
1000
0000
0100
0000
,
0010
0000
0100
0000
0001
0000
0100
0000
0001
0100
0001
0100
0001
0000
0010
0000
,
0100
0000
0010
0000
0100
0000
0001
0100
0001
0000
0010
0000
1000
0000
0001
0000
,
1000
0000
0010
0000
1000
0000
0010
0000
0010
0100
0010
0100
0010
0000
0100
0000
,
0001
0000
0100
0000
1000
0000
0001
0000
1000
0001
1000
0001
1000
0000
0010
0000
,
1000
0000
0001
0000
0100
0000
0010
0000
0100
0010
0100
0010
0100
0000
0001
0000
,
0010
0000
0100
0000
1000
0000
0001
1000
0001
0000
1000
0000
0010
0000
1000
0000
,
0001
0000
0010
0000
1000
0000
0010
1000
0010
0000
0100
0000
0001
0000
1000
0000
,
0000
0000
0010
0000
1000
0000
0001
0100
0001
0000
0100
0000
0010
0000
1000
0000
,
0000
0000
0010
0000
0100
0000
0001
0100
0001
0000
0010
0000
1000
0000
0010
0000
,
0100
0000
1000
0100
1000
0000
0100
0000
0010
0000
0100
0000
0001
0000
0100
0000
,
0001
0000
0010
0000
1000
0000
0010
0000
0100
0000
0010
0100
0010
0000
0100
0000
,
0001
0000
1000
0000
0001
0000
1000
0000
0010
0000
1000
0010
1000
0000
0100
0000
,
0001
0000
1000
0000
0010
0000
0100
0000
0010
0000
0001
0100
0001
0000
0010
0000
,
1000
0000
0001
0000
0100
0000
0010
0100
0010
0000
0100
0000
0001
0000
0100
0000
,
0010
0000
0000
0000
,
0000
1000
0010
1000
0001
1000
0100
0010
,
0001
0100
0001
0100
0001
1000
0010
0100
,
0001
0100
0001
0010
0100
1000
0100
0010
,
0001
0100
0001
1000
0001
0100
0001
0100
,
0010
0100
1000
0010
1000
0010
1000
0100
,
0010
0001
1000
0001
1000
0001
0100
0001
,
0100
0001
0100
0010
0100
0001
0100
0001
,
0100
0010
1000
0001
0100
0010
1000
0001
,
1000
0000
0010
0000
1000
0000
0010
0000
1000
0000
0010
0001
0010
0000
0100
0000
,
1000
0000
0010
0000
1000
0000
0010
0000
0001
0000
1000
0001
1000
0000
0010
0000
,
1000
0000
0001
0000
0010
0000
0100
0000
0010
0000
1000
0010
1000
0000
0100
0000
,
0010
0000
0100
0000
0001
0000
1000
0000
0001
0000
0100
0001
0100
0000
0010
0000
,
0100
0000
0010
0000
0100
0000
0001
0000
0100
0000
0010
0001
0010
0000
0100
0000
,
1000
0000
0100
0000
0010
0000
0001
0000
0100
0000
0001
0100
0001
0000
0010
0000
,
1000
0000
0001
0000
0100
0000
0001
0000
0100
0000
0010
0100
0010
0000
0001
0000
,
0100
0000
0001
0000
1000
0000
0001
0000
0100
0000
0010
0100
0010
0000
0001
0000
,
1000
0000
0001
0000
1000
0000
0010
0000
1000
0100
1000
0100
1000
0000
0100
0000
,
0001
0000
0100
0000
1000
0000
0001
0000
1000
0010
1000
0010
1000
0000
0100
0000
,
0001
0000
0100
0000
0010
0000
1000
0000
0010
0001
0010
0001
0010
0000
1000
0000
,
0001
0000
0100
0000
0001
0000
0100
0001
0100
0000
0010
0000
1000
0000
0010
0000
,
0100
0000
0010
0000
1000
0000
0001
0000
0100
0001
0100
0001
0100
0000
0010
0000
,
1000
0000
0100
0000
0010
0000
0001
0000
0100
1000
0100
1000
0100
0000
0010
0000
,
0100
0000
0001
0000
0100
0000
0001
0000
0100
0010
0100
0010
0100
0000
0001
0000
,
1000
0000
0001
0000
0100
0000
0001
0010
0001
0000
0001
0000
0100
0000
0001
0000
,
1000
0000
0001
0000
1000
0000
0001
0000
1000
0000
0100
0010
0100
0000
0001
0000
,
0100
0000
0001
0000
0100
0000
0001
0000
0010
0000
1000
0001
1000
0000
0100
0000
,
0010
0000
0100
0000
0001
0000
0010
0000
0100
0000
1000
0100
1000
0000
0010
0000
,
0001
0000
0100
0000
0001
0000
0100
0000
0001
0000
0100
0001
0100
0000
0001
0000
,
0100
0000
0001
0000
0100
0000
0001
0000
0100
0000
0100
0010
0100
0000
1000
0000
,
0100
0000
0001
0000
0100
0000
0001
0000
0100
0000
0001
1000
0001
0000
0100
0000
,
1000
0000
0100
0000
1000
0000
0100
0000
1000
0000
0100
0010
0100
0000
0001
0000
,
0010
0000
0100
0000
0010
0000
0100
0000
0010
0000
0100
0010
0100
0000
0100
0000
,
0010
0000
0000
0000
;

//---------------dance-single - Destrier75----------------
#NOTES:
     dance-single:
     Destrier75:
     Hard:
     12:
     0.445,0.411,0.008,0.000,0.000:
0000
0000
0000
0000
,
0000
0000
0000
0000
,
0000
0000
0000
0000
,
0000
0000
0000
0000
,
0000
0000
0000
0000
,
1000
0100
1000
0010
1000
0000
0010
0000
,
0100
0010
0100
0010
0100
0000
0010
0000
,
0010
0100
0010
0100
0010
0000
0100
0000
,
1000
0001
1000
0001
1000
0000
0001
0000
,
1000
0010
1000
0010
1000
0100
0010
0000
,
0001
0100
0001
0100
0001
0010
0100
0000
,
1000
0001
1000
0001
1000
0100
0010
0000
,
0001
0100
0001
0100
0001
0010
0100
0000
,
1000
0001
1000
0001
1000
0100
0010
0000
,
0001
0100
0001
0100
0001
0010
0100
0000
,
1000
0010
1000
0100
1000
0010
1000
0001
,
1000
0001
1000
0100
0010
0001
0010
0100
,
1000
0010
1000
0001
1000
0000
1000
0000
,
0100
0010
0100
0010
0100
0000
0001
0000
,
0001
0100
0001
0100
0001
0000
1000
0000
,
0100
0010
0100
0010
0100
0000
1000
0000
,
1000
0001
1000
0010
1000
0000
0010
0000
,
0100
0001
0100
0001
0100
0000
0001
0000
,
0100
0001
0100
0001
0100
0000
0100
0000
,
1000
0100
1000
0100
1000
0000
0010
0000
,
1010
1000
0100
1000
0100
1000
0010
1000
,
0000
0100
0001
0100
0001
0010
0100
0001
,
0000
1000
0001
1000
0001
0100
0010
0100
,
0010
1000
0001
0100
0001
0100
0001
0100
,
0001
1000
0001
0100
0010
0100
0010
0100
,
0000
1000
0010
1000
0001
0100
0010
0100
,
0000
1000
0001
0100
0010
0001
0100
0001
,
0100
0001
0100
0010
0100
0010
1000
0010
,
0000
0000
0000
0000
,
0100
0010
0100
0010
0100
0000
0001
0000
,
1000
0001
1000
0001
1000
0000
0100
0000
,
0100
0001
0100
0001
0100
0000
0010
0000
,
1000
0010
1000
0010
1000
0000
0100
0000
,
0100
0001
0100
0001
0100
0000
0010
0000
,
1000
0010
1000
0010
1000
0000
0100
0000
,
0010
0100
0010
0100
0010
0000
0001
0000
,
0100
0001
0100
0001
0100
0000
0001
0000
,
1000
0001
1000
0001
1000
0100
0010
0000
,
1000
0010
1000
0010
1000
0100
0010
0000
,
0100
0010
0100
0010
0100
0010
0001
0000
,
1000
0001
1000
0001
1000
0100
0010
0000
,
0001
0100
0001
0100
0001
0010
0100
0000
,
1000
0010
1000
0010
1000
0100
0010
0000
,
0001
0100
0001
0100
0001
0010
0100
0000
,
1000
0010
1000
0010
1000
0100
0010
0000
,
1000
0001
1000
0001
1000
0000
0001
0000
,
0100
0010
0100
0010
0100
0000
0010
0000
,
1000
0010
1000
0010
1000
0000
0001
0000
,
0100
0001
0100
0001
0100
0000
0010
0000
,
1000
0010
1000
0010
1000
0000
0001
0000
,
0100
0001
0100
0001
0100
0000
0010
0000
,
0100
0010
0100
0010
0100
0000
0010
0000
,
1000
0010
1000
0010
1000
0000
0010
0000
,
1000
0001
1000
0001
1000
0100
0010
0000
,
0001
0100
0001
0100
0001
0010
0100
0000
,
1000
0010
1000
0010
1000
0100
0010
0000
,
0001
0100
0001
0100
0001
0010
0100
0000
,
1000
0010
1000
0010
1000
0100
0010
0000
,
0001
0100
0001
0100
0001
0010
0100
0000
,
1000
0010
1000
0010
1000
0100
0010
0000
,
0001
0100
0001
0100
0001
0010
0100
0000
;

//---------------dance-single - Destrier75----------------
#NOTES:
     dance-single:
     Destrier75:
     Medium:
     8:
     0.355,0.361,0.016,0.023,0.000:
0000
0000
0000
0000
,
0000
0000
0000
0000
,
0000
0000
0000
0000
,
0000
0000
0000
0000
,
0000
0000
0000
0000
,
0001
0100
0001
0000
0010
0000
1000
0000
,
0010
0100
0010
0000
0100
0000
0001
0000
,
0100
0001
0100
0000
0010
0000
1000
0000
,
2002
0000
0000
3003
,
1000
0010
1000
0000
0001
0000
0100
0000
,
0001
0100
0001
0000
0010
0000
1000
0000
,
0010
0100
0010
0000
0100
0000
0001
0000
,
0100
0010
0100
0000
1000
0000
0001
0000
,
1000
0001
1000
0000
0001
0000
0100
0000
,
0010
0100
0010
0000
1000
0000
0010
0000
,
1000
0010
1000
0000
0100
0000
0001
0000
,
0100
0001
0100
0000
0100
0000
0001
0000
,
0010
0100
0010
0000
1000
0000
0001
0000
,
1000
0001
1000
0000
0001
0000
0100
0000
,
1000
0001
1000
0000
0100
0000
0010
0000
,
1000
0010
1000
0000
0100
0000
0001
0000
,
0100
0001
0100
0000
0010
0000
1000
0000
,
0010
1000
0010
0000
0100
0000
0001
0000
,
0100
0010
0100
0000
1000
0000
0010
0000
,
0100
0010
0100
0000
0001
0000
0100
0000
,
0000
1000
0010
1000
0000
0010
1000
0010
,
0000
0100
0001
0100
0000
0001
0100
0001
,
0000
0100
0010
0100
0000
0010
0100
0010
,
0000
1000
0001
1000
0000
0001
1000
0001
,
0000
0100
0001
0100
0000
0001
0100
0001
,
0000
1000
0010
1000
0000
0010
1000
0010
,
0000
0100
0010
0100
0000
0001
0100
0001
,
0000
1000
0001
1000
0000
0001
1000
0001
,
2000
0000
0000
0000
,
3001
0100
0001
0000
0100
0000
0010
0000
,
1000
0010
1000
0000
0010
0000
0100
0000
,
0001
0100
0001
0000
0010
0000
1000
0000
,
0100
0001
0100
0000
0010
0000
1000
0000
,
0100
0010
0100
0000
0100
0000
0001
0000
,
0100
0001
0100
0000
0001
0000
1000
0000
,
0001
0100
0001
0000
0100
0000
0010
0000
,
1000
0010
1000
0000
0100
0000
0001
0000
,
0100
0001
0100
0000
0010
0000
1000
0000
,
0010
0100
0010
0000
0001
0000
0100
0000
,
1000
0001
1000
0000
0100
0000
0001
0000
,
1000
0010
1000
0000
0010
0000
0100
0000
,
1000
0010
1000
0000
0100
0000
0001
0000
,
1000
0001
1000
0000
0100
0000
0001
0000
,
1000
0001
1000
0000
0100
0000
0010
0000
,
1000
0001
1000
0001
,
1000
0001
1000
0000
0010
0000
0100
0000
,
1000
0010
1000
0000
0100
0000
0001
0000
,
0100
0001
0100
0000
0010
0000
1000
0000
,
0010
0100
0010
0000
0100
0000
0001
0000
,
0100
0001
0100
0000
1000
0000
0001
0000
,
0100
0001
0100
0000
0010
0000
1000
0000
,
0010
1000
0010
0000
0100
0000
0001
0000
,
0010
0100
0010
0000
0100
0000
0001
0000
,
1000
0010
1000
0010
1000
0000
0001
0000
,
0100
0001
0100
0001
0100
0000
0001
0000
,
0100
0010
0100
0010
0100
0000
0010
0000
,
1000
0010
1000
0010
1000
0000
0001
0000
,
0100
0001
0100
0001
0100
0000
0001
0000
,
0100
0010
0100
0010
0100
0000
0010
0000
,
1000
0010
1000
0010
1000
0000
0001
0000
,
0100
0001
0100
0001
0100
0000
0001
0000
,
1001
0000
0000
0000
;

//---------------dance-single - Destrier75----------------
#NOTES:
     dance-single:
     Destrier75:
     Easy:
     5:
     0.268,0.257,0.016,0.031,0.000:
0000
0000
0000
0000
,
0000
0000
0000
0000
,
0000
0000
0000
0000
,
0000
0000
0000
0000
,
0000
0000
0000
0000
,
1000
0100
0010
0100
,
0001
0100
0001
1000
,
0001
1000
0001
0100
,
0001
0100
0010
0100
,
1000
0001
1000
0001
,
0100
0001
0100
0001
,
0010
1000
0010
1000
,
0100
0010
0100
0010
,
0100
0001
0100
0001
,
1000
0001
1000
0001
,
0100
0001
0100
0001
,
2002
0000
0000
3003
,
1000
0010
1000
0010
,
1000
0001
1000
0001
,
0100
0001
0100
0001
,
0100
0010
0100
0010
,
0100
0001
0100
0001
,
0100
1000
0010
1000
,
0010
0100
0010
0100
,
0001
0100
0001
0100
,
0001
1000
0001
1000
,
0100
0001
0100
0001
,
0010
1000
0010
1000
,
0100
0010
0100
0010
,
0100
0001
0100
0001
,
1000
0010
1000
0010
,
0100
0001
0100
0001
,
1000
0001
1000
0001
,
0000
0000
0000
0000
,
1000
0010
1000
0010
,
1000
0001
1000
0001
,
1000
0100
0100
1000
,
0100
0001
0100
0001
,
0100
0010
0100
0010
,
0100
1000
0100
1000
,
0100
0001
0100
0001
,
0100
0010
0100
0010
,
0100
0001
0100
0001
,
1000
0010
1000
0010
,
0100
0010
0100
0010
,
0100
0001
0100
0001
,
1000
0010
1000
0010
,
1000
0001
1000
0001
,
0100
0001
0100
0001
,
2002
0000
0000
3003
,
1000
0010
1000
0010
,
0100
0010
0100
0010
,
0100
0001
0100
0001
,
1000
0001
1000
0001
,
0100
0001
0100
0001
,
1000
0010
1000
0010
,
0100
0010
0100
0010
,
0100
0001
0100
0001
,
1000
0010
1000
0010
,
0100
0001
0100
0001
,
1000
0010
1000
0010
,
0100
0001
0100
0001
,
0100
0010
0100
0010
,
1000
0001
1000
0001
,
0100
0001
0100
0001
,
1000
0001
1000
0001
;

//---------------dance-single - Destrier75----------------
#NOTES:
     dance-single:
     Destrier75:
     Beginner:
     2:
     0.163,0.179,0.008,0.000,0.000: // measure 1
0000
0000
0000
0000
,  // measure 2
0000
0000
0000
0000
,  // measure 3
0000
0000
0000
0000
,  // measure 4
0000
0000
0000
0000
,  // measure 5
0000
0000
0000
0000
,  // measure 6
1000
0000
1000
0000
,  // measure 7
0001
0000
0001
0000
,  // measure 8
1000
0000
1000
0000
,  // measure 9
0010
0000
0010
0000
,  // measure 10
0100
0100
0100
0000
,  // measure 11
0010
0010
0010
0000
,  // measure 12
1000
1000
1000
0000
,  // measure 13
0001
0001
0001
0000
,  // measure 14
1000
1000
1000
0000
,  // measure 15
0001
0001
0001
0000
,  // measure 16
1000
1000
1000
0000
,  // measure 17
0001
0001
0001
0000
,  // measure 18
0100
0000
0100
0000
,  // measure 19
0010
0000
0010
0000
,  // measure 20
0100
0000
0100
0000
,  // measure 21
1000
0000
1000
0000
,  // measure 22
0001
0000
0001
0000
,  // measure 23
1000
0000
1000
0000
,  // measure 24
0010
0000
0010
0000
,  // measure 25
1000
0000
1000
0000
,  // measure 26
0001
0000
0001
0000
,  // measure 27
1000
0000
1000
0000
,  // measure 28
0010
0000
0010
0000
,  // measure 29
1000
0000
1000
0000
,  // measure 30
0001
0000
0001
0000
,  // measure 31
0100
0000
0100
0000
,  // measure 32
0010
0000
0010
0000
,  // measure 33
1000
0000
1000
0000
,  // measure 34
1001
0000
0000
0000
,  // measure 35
0100
0000
0100
0000
,  // measure 36
0100
0000
0010
0000
,  // measure 37
0010
0000
1000
0000
,  // measure 38
1000
0000
0001
0000
,  // measure 39
0001
0000
1000
0000
,  // measure 40
1000
0000
0001
0000
,  // measure 41
0001
0000
1000
0000
,  // measure 42
1000
0000
0001
0000
,  // measure 43
0001
0001
0001
0000
,  // measure 44
1000
1000
1000
0000
,  // measure 45
0001
0001
0001
0000
,  // measure 46
1000
1000
1000
0000
,  // measure 47
0010
0010
0010
0000
,  // measure 48
0100
0100
0100
0000
,  // measure 49
0010
0010
0010
0000
,  // measure 50
0100
0100
0100
0000
,  // measure 51
0100
0000
0100
0000
,  // measure 52
0010
0000
0010
0000
,  // measure 53
1000
0000
1000
0000
,  // measure 54
0001
0000
0001
0000
,  // measure 55
1000
0000
1000
0000
,  // measure 56
0001
0000
0001
0000
,  // measure 57
1000
0000
1000
0000
,  // measure 58
0010
0000
0010
0000
,  // measure 59
1000
1000
1000
0000
,  // measure 60
0001
0001
0001
0000
,  // measure 61
0100
0100
0100
0000
,  // measure 62
0010
0010
0010
0000
,  // measure 63
0100
0100
0100
0000
,  // measure 64
0001
0001
0001
0000
,  // measure 65
1000
1000
1000
0000
,  // measure 66
0001
0001
0001
0000
;
