#TITLE:Villain;
#SUBTITLE:;
#ARTIST:Stella Jang;
#TITLETRANSLIT:;
#SUBTITLETRANSLIT:;
#ARTISTTRANSLIT:;
#CREDIT:;
#BANNER:Villain.png;
#BACKGROUND:Villain-bg.png;
#LYRICSPATH:;
#CDTITLE:;
#MUSIC:Villain.ogg;
#OFFSET:1.400;
#SAMPLESTART:48.020;
#SAMPLELENGTH:15.000;
#SELECTABLE:YES;
#BPMS:0.000=109.000;
#STOPS:;
#BGCHANGES:2.563=Villain.avi=1.000=1=1=0,
99999=-nosongbg-=1.000=0=0=0 // don't automatically add -songbackground-
;

//---------------dance-single - Destrier75----------------
#NOTES:
     dance-single:
     Destrier75:
     Hard:
     10:
     0.363,0.382,0.085,0.154,0.030:
0000
0000
0000
0000
,
0000
0000
0000
0000
,
0000
0000
0000
0000
,
1000
0010
1000
0000
0100
0000
0010
0000
,
0100
0010
0100
0000
0001
0000
0100
0000
,
1000
0001
1000
0000
0100
0000
0001
0000
,
0100
0001
0100
0000
0010
0000
0100
0000
,
1000
0000
0100
0001
0100
0001
0100
0000
,
0010
0000
0100
0010
0100
0010
0100
0000
,
0010
0000
1000
0010
1000
0010
1000
0000
,
0100
0000
0001
0100
0001
0100
0001
0000
,
0010
0000
0100
0010
0100
0010
0100
0000
,
1000
0000
0010
1000
0010
1000
0010
0000
,
0100
0000
0001
0100
0001
0100
0001
0000
,
0010
0100
0010
0110
,
2001
0001
0010
0010
,
3002
0100
0100
0010
,
2003
0010
0001
0100
,
3002
0100
1000
0100
,
0023
0001
0100
0001
,
2030
0010
0001
0100
,
3020
0100
0001
1000
,
0031
1001
0002
0203
,
1300
0010
1000
0010
1000
0000
0001
0000
,
0100
0010
0100
0010
0100
0000
0001
0000
,
1000
0010
1000
0010
1000
0000
0001
0000
,
0100
0010
0001
0100
0001
0000
0010
0000
,
1000
0001
1000
0001
1000
0000
0010
0000
,
1000
0001
1000
0001
1000
0000
0010
0000
,
1000
0001
1000
0001
1000
0000
0010
0000
,
0100
0010
0100
0010
0100
0000
0002
0000
,
1003
0010
1000
0010
1000
0000
0001
0000
,
0100
0010
0100
0010
0100
0000
0001
0000
,
1000
0010
1000
0010
1000
0000
0100
0000
,
0001
0100
0001
0100
0001
0000
0010
0000
,
0100
0010
0100
0010
0100
0000
1000
0000
,
0001
1000
0001
1000
0001
0000
0100
0000
,
0001
0100
0001
0100
0001
0000
0010
0000
,
0010
0220
0000
0330
,
2001
0010
0100
0010
,
3002
0010
0100
0010
,
2003
0010
0001
0100
,
3020
0000
0100
0000
0001
0000
1000
1000
,
0031
0000
0000
0000
1000
0000
0000
0000
0001
0000
0000
0100
0010
0000
0100
0000
,
0001
0100
0010
0100
0001
1000
0000
1000
,
0001
1000
0000
0010
0000
0000
0010
0000
1000
0000
0001
0000
0100
0000
0010
0000
,
0100
0101
0000
2002
0000
0000
3003
1000
,
0010
0000
0000
0000
0100
0000
0000
0000
0001
0000
0000
1000
0010
0000
0100
0000
,
0001
0100
0010
0100
0010
1010
0000
0100
,
0001
0100
0000
0001
0000
0000
1000
0000
0001
0000
1000
0000
0010
0000
1000
0000
,
0100
0010
0000
1001
0000
0000
0000
0100
,
0010
0000
0000
0000
0100
0000
0000
0000
0001
0000
0000
1000
0001
0000
0100
0000
,
0010
0001
0100
0001
0100
0101
0000
0000
;

//---------------dance-single - Destrier75----------------
#NOTES:
     dance-single:
     Destrier75:
     Medium:
     6:
     0.275,0.248,0.009,0.103,0.000:
0000
0000
0000
0000
,
0000
0000
0000
0000
,
0000
0000
0000
0000
,
1000
0001
1000
0000
0010
0000
0100
0000
,
0001
0100
0001
0000
1000
0000
0010
0000
,
1000
0010
1000
0000
0100
0000
0001
0000
,
0100
0001
0100
0000
0010
0000
0100
0000
,
0001
1000
0001
0000
0100
0000
0001
0000
,
1000
0010
1000
0000
0100
0000
0001
0000
,
0100
0001
0100
0000
0010
0000
1000
0000
,
0100
0010
0100
0000
0001
0000
0100
0000
,
0001
0100
0001
0000
0010
0000
1000
0000
,
0100
0001
0100
0000
0010
0000
0100
0000
,
0001
0100
0001
0000
1000
0000
0001
0000
,
0100
0010
0100
0000
0001
0000
0010
0000
,
0020
0000
1000
0000
,
2030
0000
0001
0000
,
3002
0000
0100
0000
,
0203
0000
0010
0000
,
0320
0000
1000
0000
,
2030
0000
0001
0000
,
3002
0000
0100
0000
,
0103
0000
0100
0010
,
0100
0001
0100
0000
0001
0000
1000
0000
,
0001
0100
0001
0000
1000
0000
0010
0000
,
1000
0001
1000
0000
0100
0000
0001
0000
,
0100
0001
0100
0000
0001
0000
0010
0000
,
1000
0010
1000
0000
0100
0000
0010
0000
,
0100
0001
0100
0000
0010
0000
1000
0000
,
0010
0100
0010
0000
0100
0000
0001
0000
,
0100
0010
0100
0000
0010
0000
1000
0000
,
0010
1000
0010
0000
0100
0000
0001
0000
,
0100
0001
0100
0000
0001
0000
1000
0000
,
0001
1000
0001
0000
0100
0000
0001
0000
,
0100
0001
0100
0000
0010
0000
1000
0000
,
0010
1000
0010
0000
0100
0000
0001
0000
,
0100
0010
0100
0000
0001
0000
0100
0000
,
0010
1000
0010
0000
1000
0000
0001
0000
,
1000
1002
0000
0000
,
2003
0000
0010
0000
,
3020
0000
0001
0000
,
0032
0000
1000
0000
,
2003
0000
0010
0000
,
3001
0100
0001
0000
0100
0000
0010
0000
,
1000
0001
1000
0000
0010
0000
0100
0000
,
0001
1000
0001
0000
0100
0000
0010
0000
,
0100
0001
0100
0000
0010
0000
1000
0000
,
0010
0100
0010
0000
0001
0000
0100
0000
,
0001
0100
0001
0000
1000
0000
0010
0000
,
1000
0010
1000
0000
0100
0000
0001
0000
,
0100
0010
0100
0000
0010
0000
0100
0000
,
0100
0010
0100
0000
0001
0000
1000
0000
,
0001
0100
0001
0000
0100
0000
0010
0000
;

//---------------dance-single - Destrier75----------------
#NOTES:
     dance-single:
     Destrier75:
     Easy:
     3:
     0.198,0.203,0.000,0.094,0.000:
0000
0000
0000
0000
,
0000
0000
0000
0000
,
0000
0000
0000
0000
,
1000
0010
1000
0000
,
0100
0001
0100
0000
,
0010
1000
0010
0000
,
0100
0001
0100
0000
,
1000
0001
1000
0000
,
0001
0100
0001
0000
,
1000
0010
1000
0000
,
0100
0010
0100
0000
,
0001
0100
0001
0000
,
1000
0010
1000
0000
,
0001
0100
0001
0000
,
1000
0010
1000
0000
,
2000
0000
0000
0000
,
3002
0000
0000
0000
,
2003
0000
0000
0000
,
3020
0000
0000
0000
,
0230
0000
0000
0000
,
0320
0000
0000
0000
,
0230
0000
0000
0000
,
0310
0000
1000
1000
,
1000
0001
1000
0001
,
1000
0010
1000
0010
,
0100
0001
0100
0001
,
0010
0100
0010
0100
,
0001
0100
0001
0100
,
1000
0010
1000
0010
,
0100
0001
0100
0001
,
0010
1000
0010
1000
,
0100
0010
0100
0010
,
0100
0001
0100
0001
,
1000
0010
1000
0010
,
0100
0001
0100
0001
,
0010
0100
0010
0100
,
1000
0010
1000
0010
,
0100
0001
0100
0001
,
0001
0000
0000
0000
,
2000
0000
0000
0000
,
3002
0000
0000
0000
,
2003
0000
0000
0000
,
3002
0000
0000
0000
,
1003
0001
1000
0001
,
1000
0001
1000
0001
,
0100
0010
0100
0010
,
0100
0010
0100
0010
,
1000
0001
1000
0001
,
1000
0001
1000
0001
,
0100
0010
0100
0010
,
0100
0010
0100
0010
,
1000
0001
1000
0001
,
1000
0001
1000
0001
;

//---------------dance-single - Destrier75----------------
#NOTES:
     dance-single:
     Destrier75:
     Beginner:
     1:
     0.126,0.179,0.009,0.000,0.000: // measure 1
0000
0000
0000
0000
,  // measure 2
0000
0000
0000
0000
,  // measure 3
0000
0000
0000
0000
,  // measure 4
1000
0000
1000
0000
,  // measure 5
0001
0000
0001
0000
,  // measure 6
1000
0000
1000
0000
,  // measure 7
0001
0000
0001
0000
,  // measure 8
0100
0000
0100
0000
,  // measure 9
0010
0000
0010
0000
,  // measure 10
0100
0000
0100
0000
,  // measure 11
0010
0000
0010
0000
,  // measure 12
0100
0000
0100
0000
,  // measure 13
0010
0000
0010
0000
,  // measure 14
0100
0000
0100
0000
,  // measure 15
0010
0000
0010
0000
,  // measure 16
1000
0000
0000
0000
,  // measure 17
0001
0000
0000
0000
,  // measure 18
1000
0000
0000
0000
,  // measure 19
0001
0000
0000
0000
,  // measure 20
0100
0000
0000
0000
,  // measure 21
0010
0000
0000
0000
,  // measure 22
0100
0000
0000
0000
,  // measure 23
0010
0000
0000
0000
,  // measure 24
1000
1000
1000
0000
,  // measure 25
0001
0001
0001
0000
,  // measure 26
1000
1000
1000
0000
,  // measure 27
0001
0001
0001
0000
,  // measure 28
1000
1000
1000
0000
,  // measure 29
0001
0001
0001
0000
,  // measure 30
1000
1000
1000
0000
,  // measure 31
0001
0001
0001
0000
,  // measure 32
0100
0100
0100
0000
,  // measure 33
0010
0010
0010
0000
,  // measure 34
0100
0100
0100
0000
,  // measure 35
0010
0010
0010
0000
,  // measure 36
0100
0100
0100
0000
,  // measure 37
0010
0010
0010
0000
,  // measure 38
0100
0100
0100
0000
,  // measure 39
0110
0000
0000
0000
,  // measure 40
1000
0000
0000
0000
,  // measure 41
0001
0000
0000
0000
,  // measure 42
1000
0000
0000
0000
,  // measure 43
0001
0000
0000
0000
,  // measure 44
0010
0000
0010
0000
,  // measure 45
0100
0000
0100
0000
,  // measure 46
0010
0000
0010
0000
,  // measure 47
0100
0000
0100
0000
,  // measure 48
0001
0000
0001
0000
,  // measure 49
1000
0000
1000
0000
,  // measure 50
0001
0000
0001
0000
,  // measure 51
1000
0000
1000
0000
,  // measure 52
0001
0000
0001
0000
,  // measure 53
1000
0000
1000
0000
;
