#TITLE:Take You Dancing;
#SUBTITLE:;
#ARTIST:Jason Derulo;
#TITLETRANSLIT:;
#SUBTITLETRANSLIT:;
#ARTISTTRANSLIT:;
#CREDIT:;
#BANNER:Take You Dancing BN.png;
#BACKGROUND:Take You Dancing BG.png;
#LYRICSPATH:;
#CDTITLE:CDTITLE.png;
#MUSIC:Take You Dancing.ogg;
#OFFSET:0.300;
#SAMPLESTART:62.840;
#SAMPLELENGTH:15.000;
#SELECTABLE:YES;
#BPMS:0.000=113.000;
#STOPS:;
#BGCHANGES:0.563=Take You Dancing.avi=1.000=1=1=0,
99999=-nosongbg-=1.000=0=0=0 // don't automatically add -songbackground-
;

//---------------dance-single - Destrier75----------------
#NOTES:
     dance-single:
     Destrier75:
     Hard:
     12:
     0.414,0.456,0.133,0.058,0.275: // measure 1
0000
0000
0000
0000
,  // measure 2
0000
0000
0000
0000
,  // measure 3
0000
0000
0000
0000
,  // measure 4
0000
0000
0000
0000
,  // measure 5
0000
0000
0000
0000
0000
0000
0000
0000
0000
0000
0100
0010
0000
0100
0000
0001
,  // measure 6
0000
1000
0001
0000
0100
0000
0010
0000
0000
0000
0010
1000
0000
0100
0000
0001
,  // measure 7
0000
0100
0010
0000
0001
0000
0100
0000
0000
0000
0001
0000
0100
0000
0001
0000
,  // measure 8
0000
0000
1000
0010
1000
0000
0010
0000
0000
0000
0100
0000
0010
0000
0100
0000
,  // measure 9
0001
0000
0100
0000
0001
0000
0100
0000
0000
0100
0010
0100
0000
0001
0000
1000
,  // measure 10
0000
0010
0100
0000
0001
0000
0010
0000
0100
0000
0001
1000
0000
0001
0000
1000
,  // measure 11
0000
0010
0100
0000
0001
0000
0010
0000
0000
0000
0001
0000
0100
0000
0001
0000
,  // measure 12
0000
1000
0010
1000
0000
0100
0010
0100
,  // measure 13
0001
0000
0100
0000
0001
0000
0100
0000
0000
0000
0001
0100
0001
0000
0100
0010
,  // measure 14
0100
0000
1000
0010
1000
0000
0100
0001
0100
0000
0010
0000
1000
0000
0010
0000
,  // measure 15
1000
0000
0002
0000
0000
0000
0000
0000
1003
0000
1000
0010
1000
0000
0100
0010
,  // measure 16
0100
0000
0001
0100
0001
0000
0010
1000
0010
0000
1000
0000
0002
0000
0000
0000
,  // measure 17
0000
0000
0200
0000
0000
0000
0000
0000
0303
0000
1000
0010
1000
0000
0100
0001
,  // measure 18
0000
0000
0001
1000
0001
0000
0001
0000
0100
0000
0010
1000
0010
0000
0100
0000
,  // measure 19
0001
0000
0100
0010
0100
0000
0001
0000
1000
0000
0001
0000
1000
0000
0001
1000
,  // measure 20
0000
0010
1000
0100
0001
0020
0000
0000
,  // measure 21
0200
0000
0000
0000
0330
0000
1000
0001
,  // measure 22
1000
0000
0010
0000
1000
0000
0000
0001
0000
0000
0000
0000
0001
0000
0010
0000
,  // measure 23
0100
0000
1000
0000
0001
0000
0000
1000
0000
0000
0000
0000
0001
0000
0100
0000
,  // measure 24
0010
0000
1000
0000
0010
0000
0000
0100
0000
0000
0000
0000
0001
0000
1000
0000
,  // measure 25
0010
0000
0100
0000
0001
0000
0000
1000
0000
0000
0000
0000
0001
0000
0100
0000
,  // measure 26
0001
0000
0100
0000
0010
0000
0000
1000
0000
0000
0000
0000
0100
0000
0001
0000
,  // measure 27
0100
0000
0010
0000
0100
0000
0000
0010
0000
0000
0000
0000
1000
0000
0001
0000
,  // measure 28
1000
0000
0010
0000
0001
0000
0000
1000
0000
0000
0000
0000
0001
0000
0100
0000
,  // measure 29
0001
0000
0100
0000
0001
0000
0000
1000
0000
0000
0010
0000
0100
0000
0010
0000
,  // measure 30
1000
0000
0001
0000
0010
0000
0000
0010
0000
0000
0000
0000
0010
0000
0100
0000
,  // measure 31
1000
0000
0001
0000
1000
0000
0000
1001
0000
0000
0000
0000
0001
0000
0100
0000
,  // measure 32
0010
0000
1000
0000
0001
0000
0000
1001
0000
0000
0000
0000
1000
0000
0010
0000
,  // measure 33
1000
0000
0001
0000
0100
0000
0000
0110
0000
0000
0000
0000
0001
0000
0100
0000
,  // measure 34
0001
0000
1000
0000
0010
0000
0000
0110
0000
0000
0000
0000
0001
0000
0010
0000
,  // measure 35
1000
0000
0001
0000
1000
0000
0000
1001
0000
0000
0000
0000
0100
0000
0010
0000
,  // measure 36
0001
0000
1000
0000
0001
0000
0000
0101
0000
0000
0000
0000
0001
0000
1000
0000
,  // measure 37
0010
0000
0100
0000
0001
0000
0000
0101
0000
0000
0000
0000
0010
0000
1000
0000
,  // measure 38
0010
0000
0100
0000
0010
0000
0000
1010
0000
0000
0000
0000
1000
0000
0100
0000
,  // measure 39
0010
0000
0001
0000
1000
0000
0000
0001
0000
0000
0000
0000
0100
0000
0010
0000
,  // measure 40
1000
0000
0001
0000
0100
0000
0000
0001
0000
0000
0000
0000
1000
0000
0010
0000
,  // measure 41
1000
0000
0100
0000
0010
0000
0000
0100
0000
0000
0000
0000
0001
0000
0100
0001
,  // measure 42
0000
0100
0000
0010
0000
0000
0100
0010
,  // measure 43
0100
0000
0001
0100
0000
0001
0000
0000
0000
0000
0000
0000
1000
0000
0010
0000
,  // measure 44
1000
0000
0001
1000
0000
0000
0001
0000
0000
0000
0000
0000
0100
0000
0010
0000
,  // measure 45
0100
0000
0010
0000
0100
0000
0000
0001
0000
0000
0000
0000
1000
0000
0010
0000
,  // measure 46
1000
0000
0001
0000
2000
0000
0000
0002
0000
0000
0000
0000
0000
0000
0000
0000
,  // measure 47
0000
0000
3003
0000
0000
0010
1000
0010
,  // measure 48
1000
0000
0001
0000
1000
0000
0000
0010
0000
0000
0000
0000
0100
0000
0010
0000
,  // measure 49
0001
0000
0100
0000
0001
0000
0000
0101
0000
0000
0000
0000
0001
0000
0100
0000
,  // measure 50
0001
0000
0100
0000
0010
0000
0000
0011
0000
0000
0000
0000
1000
0000
0010
0000
,  // measure 51
0100
0000
0001
0000
0100
0000
0000
1010
0000
0000
0000
0000
1000
0000
0001
0000
,  // measure 52
0100
0000
0010
0000
1000
0000
0000
0101
0000
0000
0000
0000
0100
0000
0010
0000
,  // measure 53
0001
0000
1000
0000
0001
0000
0000
0101
0000
0000
0000
0000
1000
0000
0010
0000
,  // measure 54
1000
0000
0001
0000
1000
0000
0000
1010
0000
0000
0000
0000
1000
0000
0001
0000
,  // measure 55
0100
0000
0010
0000
0001
0000
0000
1001
0000
0000
1000
0000
1001
0000
0000
0000
;

//---------------dance-single - Destrier75----------------
#NOTES:
     dance-single:
     Destrier75:
     Medium:
     8:
     0.323,0.295,0.175,0.025,0.000:
0000
0000
0000
0000
,
0000
0000
0000
0000
,
0000
0000
0000
0000
,
0000
0000
0000
0000
,
0000
0000
0000
0000
0000
1000
0010
1000
,
0000
0001
0100
0001
0000
0100
0010
0100
,
0000
0001
1000
0001
0000
1000
0010
1000
,
0000
0001
0100
0001
0000
1000
0100
0010
,
0000
0001
0010
0100
0000
0000
1000
0010
,
1000
0000
0010
0000
1000
0000
0001
0100
,
0001
0000
0100
0000
0001
0000
1000
0010
,
1000
0000
1000
0000
0010
0000
0100
0010
,
0100
0000
0010
0000
0000
0001
0100
0001
,
0000
0100
0010
0100
0000
1000
0010
1000
,
0000
0001
0100
0001
0000
1000
0010
1000
,
0000
0100
0010
0100
0000
0001
0100
0001
,
0000
1000
0000
0000
0000
1000
0010
1000
,
0000
0001
0100
0001
0000
0010
0100
0010
,
0000
1000
0010
1000
0000
0010
0100
0010
,
0100
0001
0100
0001
0100
0001
0200
0000
,
0000
0000
0000
0000
0300
0000
0010
1000
,
0010
0000
0010
0000
1000
0000
0001
0100
,
0001
0000
0100
0000
0001
0000
1000
0010
,
1000
0000
0010
0000
1000
0000
0100
0010
,
0100
0000
0100
0000
0010
0000
0001
0100
,
0001
0000
0100
0000
0001
0000
1000
0001
,
1000
0000
0001
0000
1000
0000
0010
0100
,
0010
0000
0100
0000
0010
0000
1000
0001
,
1000
0000
0001
0000
1000
0000
0100
0001
,
0100
0000
0001
0000
0100
0000
0100
0010
,
0100
0000
0110
0000
0000
0000
1000
0001
,
1000
0000
1001
0000
0000
0000
0001
0100
,
0001
0000
0101
0000
0000
0000
1000
0001
,
1000
0000
1001
0000
0000
0000
0010
1000
,
0010
0000
1010
0000
0000
0000
0100
0001
,
0100
0000
0001
0000
0100
0000
0001
0010
,
0001
0000
0001
0000
1000
0000
1000
0010
,
1000
0000
1000
0000
0010
0000
1000
0100
,
0010
0000
0010
0000
1010
0000
0001
0010
,
0100
0000
0100
0000
0101
0000
1000
0100
,
0010
0000
0010
0000
1010
0000
0100
0010
,
0001
0000
0001
0000
0101
0000
1000
0100
,
0010
0000
0010
0000
1010
0000
0010
0001
,
0100
0000
0100
0000
0101
0000
0100
0010
,
1000
0000
1000
0000
1010
0000
0100
0010
,
1000
1000
2020
0000
,
0000
0000
0000
0000
3030
0000
1000
0001
,
1000
0000
0001
0000
1001
0000
0100
0001
,
0100
0000
0001
0000
0101
0000
1000
0010
,
1000
0000
0010
0000
1010
0000
0100
0010
,
0100
0000
0010
0000
0110
0000
0001
1000
,
0001
0000
0001
0000
1001
0000
1000
0100
,
1000
0000
1000
0000
1100
0000
0001
0100
,
0001
0000
0001
0000
0101
0000
0100
0010
,
0100
0010
0110
0000
;

//---------------dance-single - Destrier75----------------
#NOTES:
     dance-single:
     Destrier75:
     Easy:
     5:
     0.192,0.203,0.017,0.075,0.000:
0000
0000
0000
0000
,
0000
0000
0000
0000
,
0000
0000
0000
0000
,
0000
0000
0000
0000
,
0000
0000
0000
1000
,
0001
1001
0000
0001
,
0100
0101
0000
1000
,
1000
0001
0001
1000
,
0001
1000
0001
0001
,
0100
0001
1000
0010
,
1000
0010
0100
0001
,
0100
0001
1000
0001
,
0100
0010
1000
0001
,
0000
0010
0000
1000
,
0000
0001
0000
1000
,
0000
0010
0000
0001
,
0000
0100
0000
0001
,
0000
0010
0000
1000
,
0000
0001
0000
0100
,
0000
0010
0000
0200
,
0000
0000
0000
0000
0000
0300
0000
0000
,
0000
1000
0010
1000
,
0001
1000
0010
1000
,
0001
1000
0010
1000
,
0001
1000
0010
0001
,
0100
0001
1000
0001
,
0100
0001
1000
0001
,
0100
0001
1000
0001
,
0100
0001
1000
0001
,
0100
0010
0000
1000
,
0100
1000
0000
1000
,
0001
1000
0000
0100
,
0001
0100
0000
0010
,
1000
0010
0000
0100
,
1000
0100
0000
0001
,
0100
0001
0000
1000
,
0001
1000
0000
0001
,
0100
0001
0000
0100
,
0010
0200
0000
0301
,
1000
0002
0000
1003
,
0010
2000
0000
3010
,
0001
0020
0000
1030
,
0010
2000
0000
3001
,
0100
0002
0000
1003
,
0010
2000
0000
3001
,
0100
0002
0000
0000
,
0000
0003
0000
1000
,
0010
1000
0000
0100
,
0010
0100
0000
0001
,
0100
0001
0000
1000
,
0010
1000
0000
0100
,
0010
0100
0000
0001
,
0100
0001
0000
1000
,
0010
1000
0000
0100
,
0001
0100
0000
0000
;

//---------------dance-single - Destrier75----------------
#NOTES:
     dance-single:
     Destrier75:
     Beginner:
     2:
     0.140,0.158,0.017,0.017,0.000:
0000
0000
0000
0000
,
0000
0000
0000
0000
,
0000
0000
0000
0000
,
0000
0000
0000
0000
,
0000
0000
0000
0100
,
0000
0100
0000
0001
,
0000
0001
0000
1000
,
0000
1000
0000
0001
,
0000
0001
0000
0100
,
0100
0100
0000
0010
,
0010
0010
0000
1000
,
1000
1000
0000
0001
,
0001
0001
0000
1000
,
0000
1000
0000
1000
,
0000
1000
0000
0001
,
0000
0001
0000
0001
,
0000
0001
0000
0100
,
0000
0100
0000
0100
,
0000
0100
0000
0010
,
0000
0010
0000
0010
,
0000
0010
0000
0000
,
0000
1000
0000
1000
,
0000
1000
0000
0001
,
0000
0001
0000
0001
,
0000
1000
0000
1000
,
0000
1000
0000
0001
,
0000
0001
0000
0001
,
0000
0100
0000
0100
,
0000
0100
0000
0010
,
0000
0010
0000
0010
,
0000
1000
1000
1000
,
0000
0001
0001
0001
,
0000
1000
1000
1000
,
0000
0001
0001
0001
,
0000
0100
0100
0100
,
0000
0010
0010
0010
,
0000
0100
0100
0100
,
0000
0010
0000
0010
,
0000
0010
0000
0010
,
0000
1000
0000
1000
,
0000
1000
0000
0001
,
0000
0001
0000
0001
,
0000
1000
0000
1000
,
0000
0010
0000
0010
,
0000
1000
0000
1000
,
0000
2002
0000
0000
,
0000
3003
0000
0000
,
0000
1000
1000
1000
,
0000
0001
0001
0001
,
0000
1000
1000
1000
,
0000
0010
0010
0010
,
0000
0100
0100
0100
,
0000
0010
0010
0010
,
0000
0100
0100
0100
,
0000
1001
0000
0000
;
