#TITLE:Synaptic;
#SUBTITLE:;
#ARTIST:2ToneDisco;
#TITLETRANSLIT:;
#SUBTITLETRANSLIT:;
#ARTISTTRANSLIT:;
#CREDIT:;
#BANNER:Synaptic.png;
#BACKGROUND:Synaptic-bg.png;
#LYRICSPATH:;
#CDTITLE:;
#MUSIC:Synaptic.ogg;
#OFFSET:0.060;
#SAMPLESTART:52.180;
#SAMPLELENGTH:15.000;
#SELECTABLE:YES;
#BPMS:0.000=160.000;
#STOPS:;
#BGCHANGES:;

//---------------dance-single - Destrier75----------------
#NOTES:
     dance-single:
     Destrier75:
     Hard:
     15:
     0.757,0.926,0.297,0.070,0.433:
0000
0000
0000
0000
,
0000
0000
0000
0000
,
0000
0000
0000
0000
,
0000
0000
0000
0000
,
0000
0000
0000
0000
,
0000
0000
0000
0000
,
0000
0000
0000
0000
,
0000
0000
0000
0000
,
0000
0000
0000
0000
,
0000
0000
1000
0010
1000
0100
0010
0001
,
0100
0001
0100
0000
0010
0000
1000
0000
0010
0000
0100
0000
0010
0000
0100
0000
,
0010
0100
0010
0000
1000
0000
0010
0000
1000
0000
0001
0000
0100
0000
0010
0000
,
0001
0100
0001
0000
0010
0000
1000
0000
0001
0000
0100
0000
0010
0000
0001
0000
,
0100
0001
0100
0000
0010
0000
1000
0000
0001
0000
0100
0000
0010
0000
1000
0000
,
0010
1000
0010
0000
0001
0000
0100
0000
0001
0000
0100
0000
0010
0000
1000
0000
,
0100
0001
0100
0000
0010
0000
1000
0000
0001
0000
0100
0000
0010
0000
0001
0000
,
0100
0001
0100
0000
0010
0000
0000
0000
0001
0100
0001
0100
0001
0000
0000
0000
,
1001
0000
1000
0010
1000
0100
0010
0001
,
0100
0001
0100
0001
0100
0000
0010
0000
1000
0000
0010
0000
0100
0000
0010
0000
,
1000
0001
1000
0001
1000
0000
0100
0000
0001
0000
1000
0000
0010
0000
0100
0000
,
0001
0010
0001
0010
0001
0000
1000
0000
0010
0000
1000
0000
0010
0000
0001
0000
,
1000
0010
1000
0010
1000
0000
0100
0000
0001
0000
1000
0000
0001
0000
0100
0000
,
0010
0001
0010
0001
0010
0000
1000
0000
0010
0000
0100
0000
0001
0000
0100
0000
,
1000
0010
1000
0010
1000
0000
0100
0000
0001
0000
1000
0000
0001
0000
0100
0000
,
0010
1000
0010
0100
0001
1000
0010
0100
,
0001
0010
0001
0000
0001
1000
0001
0000
1000
0010
1000
0000
0100
0001
0100
0000
,
0001
0100
0001
0000
1000
0010
1000
0000
0100
0010
0100
0000
0001
0010
0001
0000
,
1000
0010
1000
0000
0100
0001
0100
0000
0010
1000
0010
0000
0100
0001
0100
0000
,
0001
0100
0001
0000
0100
0010
0100
0000
1000
0001
1000
0000
0100
0001
0100
0000
,
0010
1000
0010
0000
1000
0000
1000
0000
0001
0000
0001
0000
1000
0000
1000
0000
,
0010
0010
1000
1000
0100
0100
1000
1000
,
0001
0000
0001
0000
1000
0100
1000
0100
1000
0001
1000
0001
1000
0010
1000
0010
,
1000
0001
1000
0001
2000
0000
0000
0000
3002
0000
0000
0000
0203
0000
0000
0000
,
0320
0000
0030
2020
0000
3030
1000
0001
,
1000
0001
1000
0000
0202
0000
0303
0100
,
0010
0100
1000
0010
1000
0010
0100
0001
,
0100
0001
0100
0000
0010
0000
1000
0000
0010
0000
0100
0000
0001
0000
0100
0000
,
1000
0010
1000
0000
0100
0000
0010
0000
1000
0000
0001
0000
1000
0000
0001
0000
,
0100
0001
0100
0000
0010
0000
1000
0000
0010
0000
0100
0000
0001
0000
0100
0000
,
0001
0100
0001
0000
1000
0000
0001
0000
1000
0000
0010
0000
1000
0000
0010
0000
,
1000
0010
1000
0000
0100
0000
0010
0000
1000
0000
0001
0000
1000
0000
0001
0000
,
1000
0001
1000
0000
0001
0100
0001
0000
0010
1000
0010
0000
0100
0001
0100
0000
,
1000
0001
1000
0000
1000
0010
1000
0010
1000
0010
1000
0000
0100
0001
0100
0001
,
0100
0001
0100
0000
1000
0010
1000
0010
1000
0010
1000
0000
0001
1000
0001
1000
,
0001
1000
0001
0000
0001
0000
0010
0000
1000
0000
0001
0000
1000
0000
0010
0000
,
1000
0010
1000
0010
1000
0001
1000
0001
,
1000
0001
1000
0000
0100
0000
0010
0000
1000
0000
0001
0000
0100
0000
0010
0000
,
0100
0010
0100
0000
0001
0000
0100
0000
0010
0000
1000
0000
0001
0000
0100
0000
,
1000
0010
1000
0000
0100
0000
0001
0000
0100
0000
1000
0000
0010
0000
1000
0000
,
0100
0001
0100
0000
0000
0000
0000
0000
1000
0000
0100
0000
0010
0000
1000
0000
,
0010
1000
0010
1000
0010
0000
0100
0000
0001
0000
0100
0000
0010
0000
1000
0000
,
0001
1000
0001
1000
0001
0000
0100
0000
1000
0000
0001
0000
1000
0000
0100
0000
,
0010
0001
1000
0001
1000
0010
1000
0010
,
0001
0100
0001
0000
0010
0000
1000
0000
0001
0000
0100
0000
0010
0000
1000
0000
,
0010
1000
0010
1000
0010
0000
0100
0000
0001
0000
1000
0000
0010
0000
0100
0000
,
0001
0100
0001
0100
0001
0000
0010
0000
0001
0000
1000
0000
0001
0000
0100
0000
,
0010
0100
1000
0001
1000
0010
1000
0010
,
1000
0010
1000
0000
0010
0000
0100
0000
1000
0000
0001
0000
0100
0000
0001
0000
,
0100
0001
0100
0001
0100
0000
0010
0000
1000
0000
0010
0000
0100
0000
0001
0000
,
0100
0001
0100
0001
0100
0000
0010
0000
1000
0000
0010
0000
1000
0000
0100
0000
,
0010
0001
1000
0001
1000
0010
1000
0010
,
0100
0001
0100
0000
0001
0000
1000
0000
0001
0000
0100
0000
0010
0000
0100
0000
,
0010
0100
0010
0100
0010
0000
1000
0000
0001
0000
0100
0000
0010
0000
0001
0000
,
0100
0001
0100
0001
0100
0000
0100
0000
0010
0000
0010
0000
1000
0000
1000
0000
,
0001
0000
0001
0000
1000
0100
0010
0001
1000
0100
0010
0001
1000
0100
0010
0001
,
1000
0100
0010
0001
1000
0000
0000
0000
1010
0000
0000
0000
0110
0000
0000
0000
,
0101
1010
0110
0101
,
1010
0110
0101
1001
,
1010
0110
0101
1010
,
0110
1001
0110
0101
,
0011
1010
1100
1001
,
0101
1010
0110
0101
,
0011
1010
0110
1010
,
1001
0000
0000
0000
;

//---------------dance-single - Destrier75----------------
#NOTES:
     dance-single:
     Destrier75:
     Medium:
     11:
     0.597,0.673,0.114,0.376,0.039:
0000
0000
0000
0000
,
0000
0000
0000
0000
,
0000
0000
0000
0000
,
0000
0000
0000
0000
,
0000
0000
0000
0000
,
0000
0000
0000
0000
,
0000
0000
0000
0000
,
0000
0000
0000
0000
,
0000
0000
0000
0000
,
0000
0000
1000
0010
1000
0100
0010
0000
,
0110
0000
1000
0010
1000
0100
0010
0000
,
0110
0000
0001
1000
0001
0100
0010
0000
,
0110
0000
1000
0010
1000
0010
1000
0000
,
1010
0000
0100
0010
0100
0001
0100
0000
,
0101
0000
0001
1000
0001
1000
0001
0000
,
1001
0000
1000
0010
1000
0010
1000
0000
,
1010
0010
1000
0001
,
1001
0000
1000
0001
1000
0100
1000
0010
,
1000
0000
0100
0001
0100
0010
0100
0001
,
0100
0000
0010
1000
0010
1000
0010
0100
,
0010
0000
1000
0100
1000
0001
1000
0001
,
1000
0000
0100
0010
0100
0001
0100
0001
,
1000
0000
0100
0010
0100
0010
0100
0001
,
0100
0000
0001
1000
0001
1000
0001
1000
,
0001
0000
1000
0010
1000
0010
1000
0010
,
1000
0000
1000
0100
1000
0100
1000
0001
,
1000
0001
1000
0100
1000
0100
1000
0010
,
1000
0010
1000
0001
1000
0001
1000
0100
,
1000
0100
1000
0001
1000
0100
1000
0001
,
1000
0000
1000
0100
0010
0001
1000
0001
,
1000
0001
1000
0100
0010
0001
0100
0001
,
0100
0001
0010
0100
1000
0100
1000
0100
,
1000
0100
1001
0000
0110
0000
2001
0000
,
3010
0000
0000
2002
0000
3003
1000
0000
,
0010
0100
0220
0330
,
0100
0000
0000
0000
1000
0001
1000
0000
0100
0000
0010
0000
1000
0000
0001
0000
,
0100
0010
0100
0001
1000
0010
0100
0010
,
0001
0000
0100
0000
0001
0010
0001
0000
1000
0000
0010
0000
1000
0000
0001
0000
,
0100
0010
1000
0010
0100
0001
0100
0010
,
0100
0000
0010
0000
1000
0010
1000
0000
0100
0000
0010
0000
0100
0000
0001
0000
,
0100
0001
0100
0010
1000
0010
0100
0010
,
0100
0000
0001
0000
1000
0000
0010
0000
1000
0010
1000
0000
0100
0000
0010
0000
,
0001
0100
0001
0000
1000
0000
0010
0000
0100
0010
0100
0000
0001
0000
0100
0000
,
0001
0100
0001
0000
0010
0000
1000
0000
0010
1000
0010
0000
0100
0000
0001
0000
,
0100
0001
0100
0000
2000
0000
0000
0000
3002
0000
0000
0000
2003
0000
0000
0000
,
3002
0000
0103
0010
1000
0001
0100
0010
,
1000
0001
0100
0010
0001
1000
0001
0100
,
0001
0100
0010
0001
1000
0100
0010
0001
,
1000
0010
0002
0000
2000
0000
0000
0000
,
3003
0000
1000
0010
1000
0010
1000
0010
,
1000
0000
0100
0010
0100
0010
0100
0010
,
0100
0000
0001
1000
0001
0100
0001
0010
,
0001
0000
1000
0010
1000
0001
1000
0100
,
1000
0000
0100
0010
0100
0001
0100
0010
,
0001
0000
1000
0010
1000
0001
1000
0001
,
1000
0000
0100
0010
0100
0001
0100
0001
,
0100
0000
0010
1000
0010
0100
0010
0100
,
0010
0000
0010
0100
0010
0001
0010
0100
,
0010
0000
0100
0001
0100
1000
0100
0010
,
0100
0000
1000
0100
1000
0001
1000
0010
,
1000
0000
0001
1000
0001
0100
0001
0010
,
0001
0000
1000
0010
1000
0100
1000
0001
,
1000
0000
0100
0001
0100
0010
0100
1000
,
0100
0000
0001
1000
0001
0100
0001
0010
,
0001
0000
1000
0010
1000
0100
1000
0010
,
1000
2000
3002
0023
,
0230
2300
3200
0320
,
0032
2003
3002
0203
,
0320
2030
3002
0203
,
0320
2030
3002
0203
,
0320
2030
3002
0203
,
0320
2030
3002
0203
,
0320
2030
3200
0320
,
0032
0003
0000
0000
;

//---------------dance-single - Destrier75----------------
#NOTES:
     dance-single:
     Destrier75:
     Beginner:
     3:
     0.194,0.191,0.009,0.000,0.000: // measure 1
0000
0000
0000
0000
,  // measure 2
0000
0000
0000
0000
,  // measure 3
0000
0000
0000
0000
,  // measure 4
0000
0000
0000
0000
,  // measure 5
0000
0000
0000
0000
,  // measure 6
0000
0000
0000
0000
,  // measure 7
0000
0000
0000
0000
,  // measure 8
0000
0000
0000
0000
,  // measure 9
0000
0000
0000
0000
,  // measure 10
0000
1000
0000
1000
,  // measure 11
0000
0001
0000
0001
,  // measure 12
0000
0100
0000
0100
,  // measure 13
0000
0010
0000
0010
,  // measure 14
0000
1000
0000
1000
,  // measure 15
0000
0001
0000
0001
,  // measure 16
0000
0100
0000
0100
,  // measure 17
0000
0010
0000
0010
,  // measure 18
0000
1000
1000
1000
,  // measure 19
0000
0001
0001
0001
,  // measure 20
0000
0100
0100
0100
,  // measure 21
0000
0010
0010
0010
,  // measure 22
0000
0100
0100
0100
,  // measure 23
0000
0001
0001
0001
,  // measure 24
0000
1000
1000
1000
,  // measure 25
0000
0001
0001
0001
,  // measure 26
0000
1000
0000
1000
,  // measure 27
0000
0001
0000
0001
,  // measure 28
0000
0100
0000
0100
,  // measure 29
0000
0010
0000
0010
,  // measure 30
0000
0100
0000
0100
,  // measure 31
0000
0001
0000
0001
,  // measure 32
0000
1000
0000
1000
,  // measure 33
0000
0001
0000
0001
,  // measure 34
0000
1000
0000
0000
,  // measure 35
0000
0000
1001
0000
,  // measure 36
0000
0100
0100
0100
,  // measure 37
0000
0010
0010
0010
,  // measure 38
0000
1000
1000
1000
,  // measure 39
0000
0001
0001
0001
,  // measure 40
0000
0100
0100
0100
,  // measure 41
0000
0001
0000
0001
,  // measure 42
0000
1000
1000
1000
,  // measure 43
0000
0001
0001
0001
,  // measure 44
0000
0100
0100
0100
,  // measure 45
0000
0010
0010
0010
,  // measure 46
0000
1000
1000
1000
,  // measure 47
0000
0001
0001
0001
,  // measure 48
0000
0100
0100
0100
,  // measure 49
0000
0010
0000
0010
,  // measure 50
0000
1000
0000
1000
,  // measure 51
0000
0001
0000
0001
,  // measure 52
0000
0100
0000
0100
,  // measure 53
0000
0010
0000
0010
,  // measure 54
0000
1000
0000
1000
,  // measure 55
0000
0001
0000
0001
,  // measure 56
0000
1000
0000
1000
,  // measure 57
0000
0001
0000
0001
,  // measure 58
0000
1000
1000
1000
,  // measure 59
0000
0001
0001
0001
,  // measure 60
0000
0100
0100
0100
,  // measure 61
0000
0010
0010
0010
,  // measure 62
0000
1000
1000
1000
,  // measure 63
0000
0001
0001
0001
,  // measure 64
0000
0100
0100
0100
,  // measure 65
0000
0010
0010
0010
,  // measure 66
0000
1000
0000
1000
,  // measure 67
0000
0001
0000
0001
,  // measure 68
0000
0100
0000
0100
,  // measure 69
0000
0010
0000
0010
,  // measure 70
0000
1000
0000
1000
,  // measure 71
0000
0001
0000
0001
,  // measure 72
0000
0100
0000
0100
,  // measure 73
0000
0010
0000
0010
;

//---------------dance-single - Destrier75----------------
#NOTES:
     dance-single:
     Destrier75:
     Easy:
     7:
     0.319,0.287,0.061,0.079,0.000:
0000
0000
0000
0000
,
0000
0000
0000
0000
,
0000
0000
0000
0000
,
0000
0000
0000
0000
,
0000
0000
0000
0000
,
0000
0000
0000
0000
,
0000
0000
0000
0000
,
0000
0000
0000
0000
,
0000
0000
0000
0000
,
0000
1000
1000
0010
,
0010
0100
0100
0001
,
0001
0010
0010
1000
,
1000
0100
0100
0001
,
0001
1000
1000
0001
,
0001
1000
1000
0010
,
0010
0100
0100
0001
,
0001
1001
0000
0100
,
0000
1000
1000
1000
,
1000
0010
0010
0010
,
0010
0100
0100
0100
,
0100
0001
0001
0001
,
0001
1000
1000
1000
,
1000
0001
0001
0001
,
0001
0100
0100
0100
,
0100
0010
0010
0010
,
0010
1000
1000
0001
,
0001
1000
1000
0001
,
0001
1000
1000
0001
,
0001
0100
0100
0010
,
0010
0100
0100
0010
,
0010
0100
0100
0010
,
0010
0220
0000
0000
,
0330
0100
0010
0200
,
0300
0000
0000
2002
0000
0000
3003
0000
,
0000
0000
0220
0330
,
0000
1000
1000
1000
,
0100
0001
0001
0001
,
0100
0010
0010
0010
,
1000
0001
0001
0001
,
0010
1000
1000
1000
,
0100
1001
0000
1001
,
0000
1000
1000
0001
,
0001
0100
0100
0010
,
0010
1000
1000
0001
,
0001
0100
0100
0010
,
0010
1000
1000
0001
,
0001
1000
1000
0001
,
0001
1000
1000
0001
,
0001
2002
0000
0000
,
3003
1000
1000
1000
,
1000
0001
0001
0001
,
0001
0100
0100
0100
,
0100
0010
0010
0010
,
0010
1000
1000
1000
,
1000
0001
0001
0001
,
0001
1000
1000
1000
,
1000
0010
0010
0010
,
0010
0100
0100
0100
,
0100
0001
0001
0001
,
0001
1000
1000
1000
,
1000
0001
0001
0001
,
0001
0100
0100
0100
,
0100
0010
0010
0010
,
0010
0100
0100
0100
,
0100
0001
0001
0001
,
0001
1000
0100
1000
,
0100
0001
0100
0001
,
0100
0010
0100
0010
,
0100
1000
0100
1000
,
0100
0001
0100
0001
,
0100
0010
0001
0010
,
0001
1000
0010
1000
,
0010
0100
0001
0100
,
0001
0000
0000
0000
;
