#TITLE:Stardream (feat. Romelon);
#SUBTITLE:;
#ARTIST:Cashew;
#TITLETRANSLIT:;
#SUBTITLETRANSLIT:;
#ARTISTTRANSLIT:;
#CREDIT:;
#BANNER:Stardream (feat. Romelon).png;
#BACKGROUND:Stardream (feat. Romelon)-bg.png;
#LYRICSPATH:;
#CDTITLE:;
#MUSIC:Stardream (feat. Romelon).ogg;
#OFFSET:0.240;
#SAMPLESTART:55.540;
#SAMPLELENGTH:15.000;
#SELECTABLE:YES;
#BPMS:0.000=160.000;
#STOPS:;
#BGCHANGES:0.667=Stardream (feat. Romelon).avi=1.000=1=1=0,
99999=-nosongbg-=1.000=0=0=0 // don't automatically add -songbackground-
;

//---------------dance-single - Destrier75----------------
#NOTES:
     dance-single:
     Destrier75:
     Hard:
     13:
     0.631,0.715,0.188,0.291,0.207:
0000
0000
0000
0000
,
0000
0000
0000
0000
,
0000
0000
0000
0000
,
0000
0000
0000
0000
,
0000
0000
0000
0000
,
0000
0000
1000
0010
1000
0020
0000
0130
,
0001
0200
0000
0310
0001
0020
0000
0000
,
0030
0000
0100
0010
0100
0000
0001
0000
0010
0000
0100
0000
0000
0000
0001
0000
,
0100
0001
0000
1000
0010
1000
0000
0000
,
0010
1000
0010
0000
1000
0000
0100
0000
0010
0000
0002
0000
0000
0000
1003
0000
,
0010
1000
0000
0100
0001
0100
0000
0000
,
0000
0000
0001
1000
0001
0000
0100
0000
0010
0000
0001
0000
0000
0000
1000
0000
,
0010
0200
0000
0000
0000
0000
0000
0000
,
0000
2300
0000
0010
,
0000
3002
0000
0100
,
0000
0000
0203
0000
0000
0020
0300
0000
,
0000
0000
1000
0000
0000
0000
0000
0032
,
0000
2003
0000
0010
,
0000
3020
0000
0100
,
0000
0000
0230
0000
0000
0302
0000
0000
,
1000
2000
0000
0000
0000
0000
0000
0000
,
3003
0000
1000
0010
1000
0010
0001
0010
,
1010
0000
0010
0100
0001
0100
0010
1000
,
1001
0000
1000
0100
0010
0001
0100
0010
,
0110
0000
0001
0100
0001
0010
1000
0010
,
0110
0000
0001
0100
0010
1000
0100
0010
,
0110
0000
0001
0100
0010
1000
0001
0100
,
0110
0000
0001
0100
1000
0001
0100
0010
,
1000
1001
0000
1001
,
0000
0000
1000
0100
1000
0100
1000
0010
,
1010
0000
0100
0001
0100
0001
0100
0010
,
0101
0000
1000
0010
0100
0010
1000
0010
,
1100
0000
0100
0010
0100
0001
0100
1000
,
1001
0000
1000
0001
1000
0001
1000
0001
,
1001
0000
0100
0010
0100
0010
0100
0010
,
0110
0000
0001
0100
1000
1001
0000
1001
,
0000
2002
0000
0000
0000
0000
0000
0000
,
3003
0000
0000
0000
1000
0000
0010
1000
0010
0000
0100
0000
0001
0000
0010
0000
,
1000
0000
0010
0000
0100
0000
0001
0100
0001
0000
0010
0000
1000
0000
0010
0000
,
0100
0000
1000
0000
0100
0000
0010
0100
0010
0000
1000
0000
0001
0000
0100
0000
,
0010
0000
0100
0000
0001
0000
0100
0001
0100
0000
0010
0000
1000
0000
0010
0000
,
0100
0000
0001
0000
0100
0000
0010
0100
0010
0000
0001
0000
1000
0000
0010
0000
,
0100
0000
0001
0000
0010
0000
1000
0010
1000
0000
0100
0000
0001
0000
0100
0000
,
0010
0000
0100
0000
0001
0000
1000
0001
1000
0000
0100
0000
0001
0000
0100
0000
,
0010
0000
1000
0000
0010
0000
1000
0010
1000
0000
0100
0000
0001
0000
0100
0000
,
0010
0000
0100
0000
1000
0000
0010
1000
0010
0000
1000
0000
0001
0000
0100
0000
,
0010
0000
0100
0000
0001
0000
0100
0001
0100
0000
0010
0000
1000
0000
0010
0000
,
0100
0000
0001
0000
0100
0000
0001
0100
0001
0000
0010
0000
1000
0000
0010
0000
,
1000
0000
0100
0000
0010
0000
0100
0010
0100
0000
0001
0000
0100
0000
0010
0000
,
1000
0000
0010
0000
1000
0000
0010
1000
0010
0000
0100
0000
0001
0000
0010
0000
,
0100
0000
0001
0000
0100
0000
0001
0100
0001
0000
0010
0000
1000
0000
0010
0000
,
0100
0000
0010
0000
0100
0000
0010
0100
0010
0000
0100
0000
0001
0000
1000
0000
,
0001
2002
0000
0000
0000
0000
0000
0000
,
3003
0000
2000
0000
0000
3002
0000
0000
,
2003
0000
0000
0000
0000
0000
3001
0000
0000
0000
0001
1000
0002
0000
0000
0000
,
0003
0000
1000
0100
0010
0001
1000
0100
0010
0001
1000
0100
0010
0001
1000
0100
,
0010
0001
1000
0100
0010
0001
1000
0100
0010
0001
1000
0100
0020
0000
0000
0000
,
0000
0000
0130
0010
0001
0020
0000
0130
,
1000
0200
0000
0310
0001
0020
0000
0000
,
0030
0000
0100
0010
0100
0000
0010
0000
0001
0000
0020
0000
0000
0000
1030
0000
,
0100
0000
0020
0000
0000
0000
0000
0000
0000
0000
0000
0000
1030
0100
0010
0001
,
1000
0100
0010
0001
1000
0000
0010
0100
0010
0000
0001
0000
0100
0000
0010
0000
,
0001
0000
0010
0000
0100
0000
1000
0010
1000
0000
1000
0000
0010
0000
0100
0000
,
0001
0000
0100
0010
0100
0000
0010
0000
0001
0000
0010
0000
0100
0000
1000
0000
,
0010
0000
1000
0010
1000
0000
0100
0000
0001
0000
0100
0000
0010
0000
0100
0000
,
0001
0000
0010
0000
1000
0000
0001
1000
0001
0000
0010
0000
0100
0000
1000
0000
,
0010
0000
0100
0010
0100
0000
0010
0000
0100
0000
0001
0000
0010
0000
0100
0000
,
0001
0000
1000
0001
1000
0000
0010
0000
0001
0000
0010
0000
1000
0000
0001
0000
,
1000
2002
0000
0000
0000
0000
0000
0000
,
3003
0110
0000
0000
;

//---------------dance-single - Destrier75----------------
#NOTES:
     dance-single:
     Destrier75:
     Medium:
     9:
     0.406,0.455,0.038,0.188,0.000:
0000
0000
0000
0000
,
0000
0000
0000
0000
,
0000
0000
0000
0000
,
0000
0000
0000
0000
,
0000
0000
0000
0000
,
0000
0000
1000
0001
1000
0000
0010
0000
,
0100
0000
0010
0100
0010
0000
1000
0000
,
0010
0000
1000
0010
1000
0000
0100
0000
,
0001
0000
0100
0001
0100
0000
0010
0000
,
0100
0000
0100
0001
0100
0000
0010
0000
,
1000
0000
0010
0100
0010
0000
0001
0000
,
0100
0000
0001
0100
0001
0000
1000
0000
,
0010
0000
0100
0010
0100
0000
0001
0000
,
1000
0200
0000
0000
,
0000
0320
0000
0000
,
0000
0000
0032
0000
0000
2003
0000
0000
,
0000
0000
0000
0000
0000
0000
0000
3020
,
0000
0230
0000
0000
,
0000
0302
0000
0000
,
0000
0000
2003
0000
0000
3020
0000
0000
,
0000
0032
0000
0000
,
0003
0000
1000
0010
1000
0010
1000
0000
,
0100
0000
0010
0100
0010
0100
0010
0000
,
0001
0000
1000
0001
1000
0001
1000
0000
,
0001
0000
1000
0010
1000
0010
1000
0000
,
0100
0000
0001
0100
0001
0100
0001
0000
,
0010
0000
1000
0010
1000
0010
1000
0000
,
0100
0000
0001
0100
0001
0100
0001
0000
,
1000
1001
0000
0110
,
0000
0000
0100
0010
0100
0010
0100
0000
,
0010
0010
0100
0100
,
0000
0000
1000
0001
1000
0001
1000
0000
,
0001
0001
1000
1000
,
0000
0000
0100
0010
0100
0000
0100
0000
,
0010
0000
1000
0010
1000
0000
0100
0000
,
0001
0000
0100
0001
0100
0000
0001
0000
,
1000
0000
0100
0001
0100
0000
0010
0000
,
0100
0000
1000
0001
1000
0000
0100
0000
,
0010
0000
0100
0001
0100
0000
0001
0000
,
1000
0000
1000
0100
1000
0000
0100
0000
,
0001
0000
0100
0010
0100
0000
0001
0000
,
1000
0000
0001
0100
0001
0000
0100
0000
,
1000
0000
0100
0001
0100
0000
0010
0000
,
0100
0000
1000
0010
1000
0000
0100
0000
,
0001
0000
0100
0001
0100
0000
0010
0000
,
0100
0000
1000
0010
1000
0000
0010
0000
,
0100
0000
0001
0100
0001
0000
1000
0000
,
0010
0000
1000
0010
1000
0000
0100
0000
,
0001
0000
0100
0001
0100
0000
0010
0000
,
0100
0000
1000
0100
1000
0000
0100
0000
,
0001
0000
0100
0001
0100
0000
0001
0000
,
0100
0000
1000
0010
1000
0000
0010
0000
,
0100
2002
0000
0000
,
3003
0000
2000
0000
0000
3002
0000
0000
,
2003
0000
0000
3002
0000
1000
2000
0000
,
3003
0000
1000
0100
0010
0001
0010
0100
,
1000
0100
0010
0001
0010
0100
1000
0000
,
0100
0000
0100
0010
0001
0000
0001
0000
,
0001
0000
1000
0100
0010
0000
0010
0000
,
0010
0000
0100
0010
0001
0000
0001
0000
,
0002
0000
0003
0000
,
0000
0000
1000
0001
1000
0000
0100
0000
,
0010
0000
0001
0100
0001
0000
1000
0000
,
0010
0000
1000
0010
1000
0000
0100
0000
,
0010
0000
0001
0100
0001
0000
1000
0000
,
0010
0000
1000
0010
1000
0000
0100
0000
,
0010
0000
0100
0001
0100
0000
0010
0000
,
1000
0000
0100
0001
0100
0000
0001
0000
,
1000
2002
0000
0000
,
0000
3003
0000
0000
;

//---------------dance-single - Destrier75----------------
#NOTES:
     dance-single:
     Destrier75:
     Easy:
     6:
     0.318,0.358,0.216,0.131,0.000:
0000
0000
0000
0000
,
0000
0000
0000
0000
,
0000
0000
0000
0000
,
0000
0000
0000
0000
,
0000
0000
0000
0000
,
0000
1000
0010
1000
,
0010
0001
0100
0001
,
0100
0010
1000
0010
,
1000
0100
0010
0100
,
0010
0001
0100
0001
,
0100
1000
0010
1000
,
0010
0100
0001
0100
,
0001
2002
0000
0000
,
3003
0200
0000
0000
,
0000
0302
0000
0000
,
0000
0203
0000
0000
,
0000
0000
0000
0000
,
0000
0302
0000
0000
,
0000
2003
0000
0000
,
0000
3002
0000
0000
,
0000
0000
0000
0000
,
0003
1000
0010
1010
,
0000
0100
0001
0101
,
0000
1000
0010
1010
,
0000
0100
0001
0101
,
0000
0010
0100
0110
,
0000
1000
0010
1010
,
0000
0100
0001
0101
,
0000
0101
0000
0001
,
0000
1000
0010
1000
,
0010
0100
0001
0100
,
0001
0010
1000
0010
,
1000
0100
0001
0100
,
0001
1000
0010
1010
,
0000
0100
0001
0101
,
0000
0100
0010
0110
,
0000
0220
0000
0000
0000
0000
0000
0000
,
0330
1000
1000
0010
,
0010
0001
0001
0010
,
0010
1000
1000
0100
,
0100
0001
0001
0100
,
0100
1000
1000
0010
,
0010
0100
0100
0001
,
0001
0010
0010
0100
,
0100
1000
1000
0010
,
0010
0100
0100
0001
,
0001
1000
1000
0001
,
0001
0100
0100
0010
,
0010
1000
1000
0100
,
0100
0001
0001
0010
,
0010
1000
1000
0001
,
0001
0100
0100
0001
,
0001
2002
0000
0000
,
3003
0000
1001
0000
0000
1001
0000
0000
,
1001
0000
0000
1001
0000
1000
1001
0000
,
0000
1000
1000
0100
,
0100
0010
0010
0001
,
0000
0010
0100
0110
,
0000
1000
0010
1010
,
0000
0001
0100
0101
,
0000
0010
1000
0010
,
1000
1000
1000
0100
,
0100
0001
0001
0010
,
0010
0100
0100
1000
,
1000
0001
0001
0100
,
0100
0010
0010
1000
,
1000
0001
0001
0100
,
0100
0010
0010
1000
,
1000
2002
0000
0000
,
0000
3003
0000
0000
;

//---------------dance-single - Destrier75----------------
#NOTES:
     dance-single:
     Destrier75:
     Beginner:
     3:
     0.233,0.260,0.131,0.075,0.000: // measure 1
0000
0000
0000
0000
,  // measure 2
0000
0000
0000
0000
,  // measure 3
0000
0000
0000
0000
,  // measure 4
0000
0000
0000
0000
,  // measure 5
0000
0000
0000
0000
,  // measure 6
0000
1000
0000
1000
,  // measure 7
0000
0001
0000
0001
,  // measure 8
0000
0100
0000
0100
,  // measure 9
0000
0010
0000
0010
,  // measure 10
0000
1000
0000
1000
,  // measure 11
0000
0001
0000
0001
,  // measure 12
0000
1000
0000
1000
,  // measure 13
0000
2002
0000
0000
,  // measure 14
3003
2000
0000
0000
,  // measure 15
3000
0002
0000
0000
,  // measure 16
0003
2000
0000
0000
,  // measure 17
0000
0000
0000
0000
,  // measure 18
3000
0002
0000
0000
,  // measure 19
0003
2000
0000
0000
,  // measure 20
3000
0002
0000
0000
,  // measure 21
0000
0000
0000
0000
,  // measure 22
0003
1000
1000
1000
,  // measure 23
0000
0001
0001
0001
,  // measure 24
0000
1000
1000
1000
,  // measure 25
0000
0001
0001
0001
,  // measure 26
0000
0100
0100
0100
,  // measure 27
0000
0010
0010
0010
,  // measure 28
0000
0100
0100
0100
,  // measure 29
0000
0110
0000
0110
,  // measure 30
0000
1000
1000
1000
,  // measure 31
0000
0001
0001
0001
,  // measure 32
0000
1000
1000
1000
,  // measure 33
0000
0001
0001
0001
,  // measure 34
0000
0110
0000
0110
,  // measure 35
0000
1001
0000
1001
,  // measure 36
0000
0110
0000
0110
,  // measure 37
0000
0000
0000
0000
,  // measure 38
0000
1000
1000
1000
,  // measure 39
0000
0001
0001
0001
,  // measure 40
0000
1000
1000
1000
,  // measure 41
0000
0001
0001
0001
,  // measure 42
0000
0100
0100
0100
,  // measure 43
0000
0010
0010
0010
,  // measure 44
0000
0100
0100
0100
,  // measure 45
0000
0010
0010
0010
,  // measure 46
0000
1000
1000
1000
,  // measure 47
0000
0001
0001
0001
,  // measure 48
0000
1000
1000
1000
,  // measure 49
0000
0001
0001
0001
,  // measure 50
0000
0100
0100
0100
,  // measure 51
0000
0010
0010
0010
,  // measure 52
0000
0100
0100
0100
,  // measure 53
0000
0110
0000
0110
,  // measure 54
0000
1000
0000
1000
,  // measure 55
0000
0001
0000
0001
,  // measure 56
0000
1000
1000
1000
,  // measure 57
0000
0001
0001
0001
,  // measure 58
0000
0100
0100
0100
,  // measure 59
0000
0010
0010
0010
,  // measure 60
0000
1000
1000
1000
,  // measure 61
0000
1001
0000
0000
,  // measure 62
0000
0010
0010
0010
,  // measure 63
0000
0100
0100
0100
,  // measure 64
0000
0001
0001
0001
,  // measure 65
0000
1000
1000
1000
,  // measure 66
0000
0001
0001
0001
,  // measure 67
0000
1000
1000
1000
,  // measure 68
0000
0010
0010
0010
,  // measure 69
0000
0110
0000
0000
,  // measure 70
0000
0110
0000
0000
;
