#TITLE:Space Corridor;
#SUBTITLE:;
#ARTIST:GOTH;
#TITLETRANSLIT:;
#SUBTITLETRANSLIT:;
#ARTISTTRANSLIT:;
#CREDIT:;
#BANNER:Space Corridor BN.png;
#BACKGROUND:Space Corridor BG.png;
#LYRICSPATH:;
#CDTITLE:;
#MUSIC:Space Corridor.ogg;
#OFFSET:0.440;
#SAMPLESTART:16.760;
#SAMPLELENGTH:15.000;
#SELECTABLE:YES;
#BPMS:0.000=128.000;
#STOPS:;
#BGCHANGES:;

//---------------dance-single - Destrier75----------------
#NOTES:
     dance-single:
     Destrier75:
     Beginner:
     3:
     0.168,0.181,0.054,0.036,0.000:
0000
0000
0000
0000
,
0000
0000
0000
0000
,
0000
0000
0000
0000
,
0000
0000
0000
0000
,
0000
0000
0000
0000
,
0000
0100
0000
0000
,
0000
0100
0000
0000
,
0000
0100
0000
0000
,
0000
0220
0000
0000
,
0330
0100
0100
0100
,
0000
0010
0010
0010
,
0000
0100
0100
0100
,
0000
0010
0010
0010
,
0000
1000
1000
1000
,
0000
0001
0001
0001
,
0000
1000
1000
1000
,
0000
0001
0001
0001
,
0000
1000
0000
0001
,
0000
1000
0000
0001
,
0000
0100
0000
0010
,
0000
0100
0000
0010
,
0000
1000
0000
0001
,
0000
1000
0000
0001
,
0000
0100
0000
0010
,
0000
0220
0000
0000
,
0330
0100
0000
0100
,
0000
0100
0000
0100
,
0000
0100
0000
0100
,
0000
0100
0000
0100
,
0000
0010
0000
0010
,
0000
0010
0000
0010
,
0000
1000
0000
1000
,
0000
0001
0000
0001
,
0000
0001
0000
1000
,
0000
0001
0000
1000
,
0000
1001
0000
0001
,
0000
1000
0000
0001
,
0000
0110
0000
0100
,
0000
0010
0000
0100
,
0000
1001
0000
1000
,
0000
0001
0000
1000
,
0000
0001
0001
0001
,
0000
1000
0000
0001
,
0000
0100
0100
0100
,
0000
0010
0000
0100
,
0000
0001
0001
0001
,
0000
1000
0000
0001
,
0000
1000
1000
1000
,
0000
0001
0000
1000
,
0000
0100
0100
0100
,
0000
0001
0001
0001
,
0000
1000
1000
1000
,
0000
0010
0010
0010
,
0000
0100
0100
0100
,
0000
0010
0010
0010
,
0000
0100
0100
0100
,
0000
0010
0010
0010
,
0000
1001
0000
0000
;

//---------------dance-single - Destrier75----------------
#NOTES:
     dance-single:
     Destrier75:
     Easy:
     6:
     0.296,0.311,0.289,0.127,0.000:
0000
0000
0000
0000
,
0000
0000
0000
0000
,
0000
0000
0000
0000
,
0000
0000
0000
0000
,
0000
0000
0000
0000
,
0000
1000
0001
1000
,
0001
1000
0001
1000
,
0001
1000
0001
1000
,
0001
2002
0000
0000
,
3003
1000
0100
0001
,
1001
0001
0100
0010
,
0110
1000
0001
1000
,
1001
0100
0001
0100
,
0101
1000
0001
1000
,
1001
0100
0001
0100
,
0101
1000
0010
1000
,
1010
0100
0010
0100
,
0110
1000
0001
1000
,
0001
1000
0001
1000
,
0001
0100
0010
0100
,
0010
0100
0010
0100
,
0010
0100
0001
0100
,
0001
0100
0001
0100
,
0001
1000
0010
1000
,
0010
1000
0010
1000
,
0010
2002
0000
3003
,
0000
0220
0000
0330
,
0000
2020
0000
3030
,
0000
0202
0000
0303
,
0000
1000
0001
1000
,
0000
0100
0010
0100
,
0000
2002
3003
2020
,
3030
0101
0101
0101
,
0101
0100
0010
0100
,
0000
0001
1000
0001
,
0000
1001
1000
0010
,
0000
1000
0001
1000
,
0000
0101
0001
0100
,
0000
1000
0001
1000
,
0000
0110
0100
0010
,
0000
1000
0010
1000
,
0010
1000
0001
1000
,
0001
1000
0001
1000
,
0001
0100
0010
0100
,
0010
0100
0010
0100
,
0010
0100
1000
0100
,
1000
0100
1000
0100
,
1000
0100
0001
0100
,
0001
0100
0001
0100
,
0001
0100
0001
0101
,
0101
0100
0010
0100
,
0110
1000
0001
1000
,
1001
0001
0100
0001
,
0101
1000
0010
1000
,
1010
0100
0010
0100
,
0110
0001
0100
0001
,
0101
1000
0010
1000
,
1010
1010
0000
0000
;

//---------------dance-single - Destrier75----------------
#NOTES:
     dance-single:
     Destrier75:
     Medium:
     10:
     0.420,0.414,0.244,0.298,0.036: // measure 1
0000
0000
0000
0000
,  // measure 2
0000
0000
0000
0000
,  // measure 3
0000
0000
0000
0000
,  // measure 4
0000
0000
0000
0000
,  // measure 5
0000
0000
0000
0000
,  // measure 6
0000
0100
0010
0010
,  // measure 7
0100
0001
1000
0010
,  // measure 8
0001
1000
0001
1000
,  // measure 9
0001
2002
0000
0000
,  // measure 10
3003
0000
1000
0001
0010
1000
0010
0000
,  // measure 11
1010
0000
0100
0010
0100
0001
0100
0000
,  // measure 12
0101
0000
1000
0001
1000
0001
1000
0000
,  // measure 13
1001
0000
0100
0001
0100
0001
0100
0000
,  // measure 14
0110
0000
1000
0001
1000
0001
1000
0000
,  // measure 15
1001
0000
0001
0010
0100
1000
0010
0000
,  // measure 16
1010
0000
0100
0001
1000
0001
1000
0000
,  // measure 17
1001
0000
1000
0100
0010
0001
0010
0000
,  // measure 18
1010
0000
1001
0000
1000
0100
0010
0001
,  // measure 19
0010
0100
1000
0000
0010
0000
1000
0000
,  // measure 20
0001
0000
1001
0000
0001
0010
0100
1000
,  // measure 21
0100
0010
0001
0000
1000
0000
0010
0000
,  // measure 22
2000
0000
3001
0000
1000
0010
1000
0001
,  // measure 23
1000
0010
1000
0000
0001
0000
1000
0000
,  // measure 24
0001
0000
0110
0000
1000
0010
1000
0100
,  // measure 25
0001
1000
2002
0000
0000
0000
0000
0000
,  // measure 26
3003
2000
3020
0032
,  // measure 27
0003
2000
3002
2003
,  // measure 28
3000
0020
0032
2003
,  // measure 29
3000
0020
0230
0302
,  // measure 30
0003
2000
3002
0203
,  // measure 31
0300
0020
2030
3002
,  // measure 32
0003
2002
3003
2002
,  // measure 33
3003
1010
0110
0101
,  // measure 34
1001
0000
0100
0000
0001
0100
0001
0000
,  // measure 35
0100
0000
0010
0000
1000
0100
0010
0000
,  // measure 36
2000
0000
3010
0000
1000
0001
1000
0000
,  // measure 37
0010
0000
0100
0000
0001
0100
0001
0000
,  // measure 38
2000
0000
3010
0000
0100
0010
1000
0000
,  // measure 39
0001
0000
0100
0000
0010
0100
0010
0000
,  // measure 40
1000
0000
0001
0000
0100
0001
0100
0000
,  // measure 41
0010
2002
0000
0000
,  // measure 42
3003
0000
1000
0100
0001
1000
0001
1000
,  // measure 43
0001
1000
0100
0000
0110
0000
0100
0000
,  // measure 44
1010
0000
1000
0001
1000
0001
0010
0100
,  // measure 45
1000
0100
0010
0000
0011
0000
0010
0000
,  // measure 46
1001
0000
1000
0001
1000
0001
0100
0010
,  // measure 47
0001
0010
0100
0000
0110
0000
0010
0000
,  // measure 48
1001
0000
1000
0010
1000
0001
1000
0100
,  // measure 49
0010
0001
2000
0000
0002
0000
0000
0000
,  // measure 50
3003
0000
0000
0000
1000
0000
0100
0000
0010
0000
0001
0000
0010
0000
0000
0010
,  // measure 51
0000
0000
0010
0000
0100
0000
1000
0000
0100
0000
0010
0000
0001
0000
0000
0001
,  // measure 52
0000
0000
0001
0000
1000
0000
0010
0000
1000
0000
0010
0000
1000
0000
0000
1000
,  // measure 53
0000
0000
1000
0000
0001
0000
0010
0000
0100
0000
1000
0000
0100
0000
0000
0100
,  // measure 54
0000
0000
0100
0000
0001
0000
0100
0000
0001
0000
0100
0000
0001
0000
0000
0001
,  // measure 55
0000
0000
0001
0000
1000
0000
0001
0000
1000
0000
0010
0000
1000
0000
0000
1000
,  // measure 56
0000
0000
1000
0000
0010
0000
0100
0000
0010
0000
0001
0000
0100
0000
0000
0100
,  // measure 57
0000
0000
0100
0000
0001
0000
1000
0000
0001
0000
0010
0000
0100
0000
0000
0100
,  // measure 58
0000
0100
0110
0000
0000
0000
0000
0000
;

//---------------dance-single - Destrier75----------------
#NOTES:
     dance-single:
     Destrier75:
     Hard:
     14:
     0.646,0.751,0.705,0.253,0.420:
0000
0000
0000
0000
,
0000
0000
0000
0000
,
0000
0000
0000
0000
,
0000
0000
0000
0000
,
0000
0000
0000
0000
,
0000
0000
1000
0000
0001
1000
0000
0001
,
1000
0000
0000
0000
0000
0000
1000
0001
1000
0000
0010
0000
0000
0000
0001
0000
,
1000
0001
0001
0000
1000
0001
0000
0100
,
0001
0000
0000
0000
1000
0001
1000
0001
1000
0010
1000
0100
1000
0100
1000
0100
,
1000
0001
1000
0001
1000
0000
0010
0000
1000
0000
0010
0000
1000
0000
0000
1000
,
0000
0000
1000
0000
0001
0000
0010
0000
0100
0000
0001
0000
1000
0000
0000
1000
,
0000
0000
1000
0000
0001
0000
0100
0000
0010
0000
1000
0000
0010
0000
0000
0010
,
0000
0000
0010
0000
1000
0000
0001
0000
1000
0000
0010
0000
0100
0000
0000
0100
,
0000
0000
0100
0000
0001
0000
0100
0000
0101
0000
0001
0000
0100
0000
0000
0100
,
0010
0000
0010
0000
1000
0000
1010
0000
0001
0000
1000
0000
0001
0000
0000
1000
,
0001
0000
1000
0000
1010
0000
1000
0000
0001
0000
1000
0000
0001
0000
0000
0100
,
0001
0000
0100
0000
0001
0010
0001
0010
0001
0010
0100
1000
0100
1000
0100
0000
,
0110
0000
0110
0000
0100
0000
0001
0000
1000
0001
1000
0001
0000
1000
0001
1000
,
0001
0010
0100
1000
0100
0000
1000
0000
1010
0000
1000
0000
0001
0000
1000
0000
,
1001
0000
0001
0000
1000
0000
0010
0000
1000
0100
0010
0001
0000
1000
0001
1000
,
0001
0010
0100
1000
0100
0000
0001
0000
1001
0000
1000
0000
0010
0000
1000
0000
,
0002
0000
0000
0000
1003
0000
0001
0000
0100
0010
0100
0010
0000
0001
1000
0001
,
1000
0001
0010
0100
1000
0000
0001
0000
1001
0000
1000
0000
0010
0000
1000
0000
,
1010
0000
0001
0000
1000
0000
0010
0000
1000
0001
1000
0001
0000
1000
0010
1000
,
0010
1000
0001
0010
1000
0001
1000
0001
1000
0010
1000
0010
1000
0010
1000
0000
,
1000
1000
2001
0000
0010
0000
3001
0000
,
0000
1001
0110
1001
,
0000
1010
0101
1001
,
0000
1010
0110
1001
,
1000
0001
1000
0001
2000
0000
0000
0000
0010
0000
0000
0000
3010
0000
0000
0000
,
0000
0200
0010
0310
,
0000
2002
3003
2020
,
3030
0000
0220
0330
2002
3003
0220
0330
,
1000
0001
1000
0000
0002
0000
1003
0001
,
0000
0000
0000
0000
1000
0000
0001
1000
0000
0001
0000
0000
0001
0000
0001
0000
,
1000
0001
1000
0001
2002
0000
0000
0000
3003
0000
1000
0000
0001
0000
0000
1000
,
0000
0000
0001
0000
0000
0000
1000
0010
0000
1000
0010
0000
1000
0000
0001
0000
,
1000
0001
1000
0001
2002
0000
0000
0000
3003
0000
1000
0000
0001
0000
0000
1000
,
0000
0000
0001
0000
0000
0000
1000
0001
0000
1000
0000
0000
0001
0000
0000
0000
,
1000
0010
1000
0010
2020
0000
0000
0000
3030
0000
1000
0000
0001
0000
0000
1000
,
0000
0000
0000
0000
1000
0100
0010
0001
1000
0100
0010
0001
1000
0100
0010
0001
,
2000
0000
0000
0000
3000
0000
0000
0000
1000
0001
1000
0000
0010
0100
0010
0000
,
1000
0001
1000
0000
1000
0000
0001
0000
1001
0000
1000
0000
0001
0000
1001
0000
,
1000
0000
0001
0000
1001
0000
0001
0000
1000
0001
1000
0000
0100
0001
0100
0000
,
0001
1000
0001
0000
1000
0000
0010
0000
1010
0000
0100
0000
0001
0000
0101
0000
,
1000
0001
1000
0001
1000
0000
0000
0000
2000
0000
0000
0000
3002
0000
0000
0000
,
2003
3000
0001
0000
,
0001
0000
2000
3020
,
0032
1003
1000
0000
,
1000
0000
1000
0000
1001
0000
1010
0000
1001
0000
0110
0000
0101
0000
0000
0101
,
0000
0000
0101
0000
0110
0000
1010
0000
0110
0000
0101
0000
1001
0000
0000
1001
,
0000
0000
1010
0000
0110
0000
0101
0000
1001
0000
1010
0000
1010
0000
0000
1010
,
0000
0000
1010
0000
1001
0000
0101
0000
0011
0000
1001
0000
1010
0000
0000
1010
,
0000
0000
1010
0000
1001
0000
1010
0000
1001
0000
1001
0000
1001
0000
1000
0001
,
1000
0000
1001
0000
0010
0000
0110
0000
0010
0000
1001
0000
1010
0000
0100
0010
,
0100
0000
1001
0000
0010
0000
0110
0000
0001
0000
0110
0000
1010
0000
1000
0001
,
1000
0000
1001
0000
1000
0001
1000
0001
1000
0010
1000
0010
1000
0001
1000
0000
,
1001
0110
1001
0000
0000
0000
0000
0000
;
