#TITLE:So Wonderful;
#SUBTITLE:;
#ARTIST:LADIES' CODE;
#TITLETRANSLIT:;
#SUBTITLETRANSLIT:;
#ARTISTTRANSLIT:;
#CREDIT:;
#BANNER:So Wonderful.png;
#BACKGROUND:So Wonderful-bg.png;
#LYRICSPATH:;
#CDTITLE:;
#MUSIC:So Wonderful.ogg;
#OFFSET:0.440;
#SAMPLESTART:58.860;
#SAMPLELENGTH:15.000;
#SELECTABLE:YES;
#BPMS:0.000=130.000;
#STOPS:;
#BGCHANGES:0.938=So Wonderful.avi=1.000=1=1=0,
99999=-nosongbg-=1.000=0=0=0 // don't automatically add -songbackground-
;

//---------------dance-single - ----------------
#NOTES:
     dance-single:
     Destrier75:
     Hard:
     11:
     0.408,0.406,0.211,0.116,0.000:
0000
0000
0000
0000
,
0000
0000
0000
0000
,
0000
0000
0000
0000
,
0000
0000
0000
0000
,
0000
0000
0000
0000
,
0000
0000
0000
0000
,
0000
0200
0320
0230
,
0300
0000
0000
0100
0010
0100
0010
0100
,
0010
1010
0110
0101
,
1010
0000
1000
0001
1000
0100
0010
0000
,
0100
0000
0101
0000
1010
0000
0100
0010
,
0100
0010
0001
0100
0001
0010
0100
0000
,
1000
0000
0100
0010
0100
0010
0100
0000
,
0001
0000
1000
0001
1000
0001
1000
0000
,
0010
0000
1000
0010
1000
0010
1000
0000
,
0100
0000
0001
0100
0001
0100
0001
0000
,
1001
0000
1000
0000
0010
0100
1000
0010
,
1000
0000
0100
0000
0010
0001
0100
0001
,
0100
0000
0010
0000
1000
0010
0100
0010
,
0100
0000
0001
0000
0100
0010
0001
0100
,
0001
2000
0010
3020
,
0001
0032
1000
2003
,
0010
0000
3001
0100
0001
0000
0010
0000
,
1000
0000
0001
0100
0001
0010
0100
0001
,
0100
0001
0100
0000
1000
0010
1000
0010
,
0100
0000
0010
0000
0010
0100
0001
0010
,
1000
0000
1000
0000
0100
0010
0001
0100
,
0001
0000
0010
0000
1000
0010
1000
0100
,
0001
2000
0010
3020
,
0100
0230
0001
0302
,
1000
0000
1003
0010
1000
0010
0100
0000
,
0001
0000
1000
0001
1000
0010
1000
0100
,
1000
0010
1010
0000
0110
0000
0101
0000
,
1010
0000
1000
0001
1000
0000
0100
0001
,
0100
0000
1010
0000
0101
0000
1000
0001
,
1000
0000
0100
0010
0100
0000
0010
0000
,
1000
0000
0100
0010
0001
0010
0100
0000
,
0010
0000
1000
0100
0010
0100
0001
0000
,
0100
0000
0001
0010
0100
0010
1000
0000
,
0010
0000
1000
0100
0010
0001
0100
0010
,
0100
0010
0110
0000
1001
0000
0101
0000
,
1010
0000
1000
0001
1000
0010
0100
0000
,
0001
0000
0110
0000
0101
0000
1000
0010
,
1000
0010
0100
0001
0100
0000
0010
0000
,
1000
0000
0100
0001
0100
0001
0010
0000
,
1000
0000
0100
0010
0100
0010
0001
0000
,
0100
0000
1000
0001
1000
0100
0010
0000
,
0100
0000
0001
0100
0001
0010
1000
0010
,
1000
0010
1010
0000
0000
0000
0000
0000
;

//---------------dance-single - Destrier75----------------
#NOTES:
     dance-single:
     Destrier75:
     Beginner:
     2:
     0.155,0.152,0.074,0.000,0.000: // measure 1
0000
0000
0000
0000
,  // measure 2
0000
0000
0000
0000
,  // measure 3
0000
0000
0000
0000
,  // measure 4
0000
0000
0000
0000
,  // measure 5
0000
0000
0000
0000
,  // measure 6
0000
0000
0000
0000
,  // measure 7
0000
0100
0000
0100
,  // measure 8
0000
0001
0000
0001
,  // measure 9
0000
0010
0010
0010
,  // measure 10
0000
0100
0100
0100
,  // measure 11
0000
1000
1000
1000
,  // measure 12
0000
0001
0001
0001
,  // measure 13
0000
0100
0000
0100
,  // measure 14
0000
0010
0000
0010
,  // measure 15
0000
1000
0000
1000
,  // measure 16
0000
0001
0000
0001
,  // measure 17
0000
1000
0000
1000
,  // measure 18
0000
0100
0000
0100
,  // measure 19
0000
0010
0000
0010
,  // measure 20
0000
0001
0000
0001
,  // measure 21
0000
1001
0000
0000
,  // measure 22
0000
0110
0000
0000
,  // measure 23
0000
1001
0000
1000
,  // measure 24
0000
0001
0001
0001
,  // measure 25
0000
1000
0000
1000
,  // measure 26
0000
0100
0000
0100
,  // measure 27
0000
0010
0000
0010
,  // measure 28
0000
0001
0000
0001
,  // measure 29
0000
1001
0000
0000
,  // measure 30
0000
0110
0000
0000
,  // measure 31
0000
0110
0000
0100
,  // measure 32
0000
0001
0001
0001
,  // measure 33
0000
1000
1000
1000
,  // measure 34
0000
0001
0001
0001
,  // measure 35
0000
0100
0100
0100
,  // measure 36
0000
0010
0010
0010
,  // measure 37
0000
0100
0000
0100
,  // measure 38
0000
0001
0000
0001
,  // measure 39
0000
1000
0000
1000
,  // measure 40
0000
0001
0000
0001
,  // measure 41
0000
1000
1000
1000
,  // measure 42
0000
0001
0001
0001
,  // measure 43
0000
0100
0100
0100
,  // measure 44
0000
0010
0010
0010
,  // measure 45
0000
0100
0000
0100
,  // measure 46
0000
0001
0000
0001
,  // measure 47
0000
1000
0000
1000
,  // measure 48
0000
0001
0001
0001
,  // measure 49
0000
1001
0000
0000
;

//---------------dance-single - Destrier75----------------
#NOTES:
     dance-single:
     Destrier75:
     Easy:
     4:
     0.205,0.229,0.032,0.042,0.000:
0000
0000
0000
0000
,
0000
0000
0000
0000
,
0000
0000
0000
0000
,
0000
0000
0000
0000
,
0000
0000
0000
0000
,
0000
0000
0000
0000
,
0000
0100
0010
0100
,
0000
1001
0000
1001
,
0000
1000
0001
1000
,
0001
1000
0001
1000
,
0001
0100
0010
0100
,
0010
0100
0001
0100
,
0000
1000
0001
1000
,
0000
1000
0010
1000
,
0000
0001
0100
0001
,
0000
0010
1000
0010
,
0000
1000
0010
1000
,
0010
0100
0001
0100
,
0001
0010
1000
0010
,
1000
0100
0001
0100
,
0001
2000
0000
0000
,
0000
3002
0000
0000
,
0000
1003
0000
1000
,
0000
0001
1000
0001
,
1000
0001
0100
0001
,
0100
0010
1000
0010
,
1000
0100
0001
0100
,
0001
0010
1000
0010
,
1000
0002
0000
0000
,
0000
2003
0000
0000
,
0000
3001
0000
0001
,
0000
1000
0000
1000
,
0000
0010
0100
0010
,
0000
1000
0010
1000
,
0000
0100
0001
0100
,
0000
0010
1000
0010
,
0000
0100
0010
0100
,
0000
1000
0001
1000
,
0000
0100
0001
0100
,
0000
0100
0010
0100
,
0000
0100
0010
0100
,
0010
1000
0010
1000
,
0000
0001
0100
0001
,
0100
0001
1000
0001
,
0000
1000
0010
1000
,
0000
0100
0001
0100
,
0000
0010
1000
0010
,
0000
0100
0001
0100
,
0000
1001
0000
0000
;

//---------------dance-single - Destrier75----------------
#NOTES:
     dance-single:
     Destrier75:
     Medium:
     7:
     0.346,0.381,0.042,0.263,0.000:
0000
0000
0000
0000
,
0000
0000
0000
0000
,
0000
0000
0000
0000
,
0000
0000
0000
0000
,
0000
0000
0000
0000
,
0000
0000
0000
0000
,
0000
2000
3002
2003
,
3000
0000
0001
0100
0001
0000
0100
0010
,
0100
2000
3020
2030
,
3020
0000
0130
0001
0100
0000
0001
0000
,
1000
0000
0002
0000
0203
0000
0301
0100
,
0001
0000
1000
0010
1000
0000
0010
0000
,
1000
0000
0100
0010
0100
0000
0001
0000
,
0100
0000
1000
0010
1000
0000
0100
0000
,
0010
0000
0100
0001
0100
0000
0010
0000
,
1000
0000
0100
0010
0100
0000
0010
0000
,
0100
0000
0110
0000
1000
0001
1000
0000
,
0100
0000
0010
0000
1000
0010
1000
0000
,
0010
0000
0100
0000
0001
0100
0001
0000
,
0010
0000
0100
0000
0010
0100
0010
0000
,
0100
2000
0000
0010
,
0000
3002
0000
0100
,
0000
0000
0103
0001
0100
0000
0010
0000
,
1000
0000
0100
0001
0100
0000
0001
0000
,
1000
0000
0010
0001
0010
0000
0010
0000
,
0100
0000
0010
0001
0010
0000
0100
0000
,
0010
0000
1000
0100
1000
0000
0100
0000
,
0001
0000
1000
0010
1000
0000
0100
0000
,
0001
0000
1000
0001
1000
0000
0010
0000
,
0100
0000
0010
1000
0010
0000
0100
0000
,
0001
0000
0100
0001
0100
0000
0010
0000
,
1000
0000
0100
0010
0100
0000
0010
0000
,
0110
2000
3002
2003
,
3002
0000
0103
0001
0100
0000
0010
0000
,
0100
0000
2000
0000
3020
0000
1030
0001
,
2000
0000
3010
0001
0020
0000
0130
0000
,
0100
0000
1000
0100
0010
0000
0001
0000
,
0100
0000
0010
1000
0010
0000
0100
0000
,
0001
0000
1000
0010
1000
0000
0100
0000
,
0010
0000
0001
0100
0001
0000
0100
0000
,
0101
0020
0230
0320
,
0230
0000
0301
0100
0001
0000
0010
0000
,
1000
0000
0200
0000
0302
0000
0103
0001
,
0100
0000
0010
1000
0010
0000
0100
0000
,
0001
0000
1000
0010
1000
0000
0100
0000
,
0010
0000
0100
0001
0100
0000
0010
0000
,
1000
0000
0100
0010
0100
0000
0001
0000
,
0010
0000
1000
0010
1000
0000
0100
0000
,
0010
0110
0000
0000
;
