#TITLE:Skies of Fire;
#SUBTITLE:;
#ARTIST:OmegaMode;
#TITLETRANSLIT:;
#SUBTITLETRANSLIT:;
#ARTISTTRANSLIT:;
#CREDIT:;
#BANNER:Skies of Fire.png;
#BACKGROUND:Skies of Fire-bg.png;
#LYRICSPATH:;
#CDTITLE:;
#MUSIC:Skies of Fire.ogg;
#OFFSET:0.380;
#SAMPLESTART:36.720;
#SAMPLELENGTH:15.000;
#SELECTABLE:YES;
#BPMS:0.000=140.000;
#STOPS:;
#BGCHANGES:;

//---------------dance-single - Destrier75----------------
#NOTES:
     dance-single:
     Destrier75:
     Challenge:
     15:
     0.705,0.722,0.269,0.100,0.527:
0000
0000
0000
0000
,
0000
0000
0000
0000
,
0000
0000
0000
0000
,
0000
0000
0000
0000
,
0000
0000
0000
0000
,
0000
0000
0000
0000
,
0000
0000
0000
0000
1000
0000
0010
0000
1000
0000
0010
0000
1000
0000
0010
0100
,
0010
0000
0001
0000
1000
0000
0001
0000
1000
0000
0100
0000
0010
0000
0100
0001
,
0100
0000
0010
0000
1000
0000
0010
0000
0100
0000
0010
0000
1000
0000
0010
1000
,
0010
0000
1000
0000
0001
0000
1000
0000
0100
0000
0010
0000
0100
0000
0010
0100
,
0010
0000
0001
0000
1001
0000
0100
0000
0010
0000
0100
0000
0001
0000
1000
0001
,
1000
0000
0010
0000
1000
0000
0100
0000
0001
0000
0100
0000
1000
0000
0010
1000
,
0010
0000
0100
0000
0001
0000
0010
0000
1000
0000
0001
0000
0100
0000
0010
0100
,
0010
0000
0100
0000
0010
0000
1000
0000
0010
0000
0100
0000
0010
0000
1000
0001
,
1000
0100
2000
0000
0010
0000
3020
0000
,
0001
0032
1000
2003
,
0100
3200
0010
0320
,
0001
0032
1000
2003
,
3100
0000
0000
0000
1000
0001
1000
0000
0100
0000
0010
0000
1000
0010
1000
0000
,
0100
0000
0001
0000
0100
0001
0100
0000
0010
0000
1000
0000
0100
0010
0100
0000
,
0010
0000
0100
0000
1000
0010
1000
0000
0100
0001
0100
0000
1000
0001
1000
0001
,
1000
0001
1000
0001
2000
0000
0000
0000
0000
0000
0000
0000
0000
0000
3001
0000
,
1000
0000
0001
0000
1001
0000
0010
0000
1000
0000
0010
1000
0010
0000
0001
0000
,
0100
0000
1000
0000
1000
0010
1000
0010
1000
0100
1000
0100
1000
0001
1000
0001
,
1000
0000
0100
0000
0001
0000
0100
0000
0001
0000
0100
0001
0100
0000
0010
0000
,
1000
0000
0010
0000
0100
0010
0100
0010
0100
0001
0100
0001
0100
1000
0100
1000
,
0100
0000
0010
0000
0001
0000
1000
0000
0010
0000
0100
0001
0100
0000
0010
0000
,
1000
0000
0010
0000
1000
0001
1000
0001
1000
0100
1000
0100
1000
0001
1000
0001
,
1000
0000
0010
0000
0100
0000
0010
0000
1000
0000
0010
1000
0010
0000
0100
0000
,
0001
0000
0010
0000
1000
0100
0010
0000
0001
0010
0100
0000
1000
0100
0010
0000
,
1000
0001
1000
0001
1000
0000
0010
0000
1000
0000
0010
1000
0010
0000
0100
0000
,
0001
0000
1000
0000
0100
0010
0100
0010
0100
0001
0100
0001
0100
1000
0100
1000
,
0100
0000
0010
0000
1000
0000
0001
0000
0100
0000
0010
0100
0010
0000
0100
0000
,
1000
0000
0010
0000
0100
0001
0100
0001
0100
1000
0100
1000
0100
0010
0100
0010
,
0100
0000
0100
0000
1000
0000
0100
0000
0010
0000
1000
0010
1000
0000
0100
0000
,
0001
0000
0100
0000
1000
0010
1000
0010
1000
0100
1000
0100
1000
0001
1000
0001
,
1000
0000
0100
0000
1000
0000
0010
0000
1000
0000
0010
0100
0010
0000
0100
0000
,
0001
0000
1000
0000
0001
1000
0001
1000
0001
0100
0001
0100
0001
0010
0001
0010
,
0001
0000
0010
0000
1000
0000
0100
0000
1000
0000
0100
0000
1000
0000
0100
0010
,
0001
0000
0100
0000
0001
0000
0100
0000
0010
0000
0001
0000
0100
0000
0001
0010
,
0100
0000
1000
0000
0001
0000
0100
0000
0010
0000
0100
0000
0010
0000
1000
0100
,
0010
0000
0001
0000
0100
0000
0001
0000
0100
0000
0010
0000
0100
0000
1000
0100
,
0010
0000
1000
0000
0001
0000
1000
0000
0001
0000
1000
0000
0010
0000
1000
0100
,
0010
0000
0001
0000
1000
0000
0100
0000
0010
0000
0001
0000
0100
0000
0001
0010
,
0100
0000
1000
0000
0010
0000
0100
0000
1000
0000
0010
0000
0100
0000
0001
0010
,
0100
1000
2000
0000
3002
0000
1003
0000
,
0010
0001
0010
0001
0010
0000
1000
0000
0010
0000
1000
0010
1000
0000
0100
0000
,
0010
0000
0001
0000
1000
0010
1000
0010
1000
0001
1000
0001
1000
0100
1000
0100
,
1000
0000
0010
0000
1000
0000
0100
0000
1000
0000
0010
1000
0010
0000
1000
0000
,
0001
0000
0100
0000
0010
0001
0010
0001
0100
0001
0100
0001
1000
0001
1000
0001
,
1000
0000
0010
0000
1000
0000
0100
0000
0010
0000
1000
0010
1000
0000
0100
0000
,
0010
0000
0100
0000
0001
0010
0001
0010
0001
1000
0001
1000
0001
0100
0001
0100
,
0001
0000
0010
0000
1000
0000
0010
0000
1000
0000
0001
1000
0001
0000
0100
0000
,
0010
0000
1000
0000
0001
0010
0100
0000
1000
0100
0010
0000
0001
0010
0100
0000
,
1000
0001
1000
0001
1000
0000
0010
0000
1000
0000
0100
0010
0100
0000
0010
0000
,
0001
0000
1000
0000
0001
0010
0001
0010
0001
0100
0001
0100
0001
1000
0001
1000
,
0001
0000
0100
0000
0010
0000
1000
0000
0010
0000
1000
0010
1000
0000
0100
0000
,
0010
0000
0001
0000
1000
0100
1000
0100
1000
0001
1000
0001
1000
0010
1000
0010
,
1000
0000
0100
0000
0010
0000
1000
0000
0001
0000
1000
0001
1000
0000
0100
0000
,
0010
0000
1000
0000
0001
1000
0001
1000
0001
0100
0001
0100
0001
0010
0001
0010
,
0001
0000
0100
0000
1000
0000
0010
0000
0001
0000
1000
0001
1000
0000
0001
0000
,
1000
0000
0000
0000
0010
1000
0010
1000
0010
0001
0010
0001
0010
0100
0010
0100
,
0010
0001
1010
0000
0110
0000
0101
0000
,
1001
1010
0110
0101
,
0110
1010
0101
0110
,
1010
0110
0101
1010
,
1010
0110
0101
1001
,
0110
1001
0110
1001
,
1010
0110
0101
0011
,
1001
1010
0110
0101
,
0101
0220
0000
0000
,
0000
0000
0000
0000
,
0000
0330
0000
0000
;

//---------------dance-single - Destrier75----------------
#NOTES:
     dance-single:
     Destrier75:
     Easy:
     6:
     0.255,0.306,0.023,0.138,0.000: // measure 1
0000
0000
0000
0000
,  // measure 2
0000
0000
0000
0000
,  // measure 3
0000
0000
0000
0000
,  // measure 4
0000
0000
0000
0000
,  // measure 5
0000
0000
0000
0000
,  // measure 6
0000
0000
0000
0000
,  // measure 7
0000
1000
1000
1000
,  // measure 8
0000
0010
0010
0010
,  // measure 9
0000
0100
0100
0100
,  // measure 10
0000
0001
0001
0001
,  // measure 11
0000
1000
1000
1000
,  // measure 12
0000
0001
0001
0001
,  // measure 13
0000
1000
1000
1000
,  // measure 14
0000
0010
0010
0010
,  // measure 15
0000
0200
0000
0300
,  // measure 16
0000
0002
0000
0003
,  // measure 17
0000
2000
0000
3000
,  // measure 18
0000
0020
0000
0030
,  // measure 19
0000
0100
0010
0100
,  // measure 20
0010
1000
0001
1000
,  // measure 21
0001
2002
0000
0000
,  // measure 22
3003
0220
0000
0000
,  // measure 23
0330
1000
0100
1000
,  // measure 24
0100
0001
0100
0001
,  // measure 25
0100
0010
0100
0010
,  // measure 26
0100
0001
0100
0001
,  // measure 27
0100
1000
0010
1000
,  // measure 28
0010
1000
0001
1000
,  // measure 29
0001
0100
0010
0100
,  // measure 30
0010
0000
1000
0001
1000
0000
0100
0010
,  // measure 31
0100
0010
0100
0010
,  // measure 32
0100
0001
1000
0001
,  // measure 33
1000
0100
0001
0100
,  // measure 34
0001
0010
1000
0010
,  // measure 35
1000
0100
0001
0100
,  // measure 36
0001
0010
1000
0010
,  // measure 37
1000
0100
0010
0100
,  // measure 38
0010
0001
0100
0001
,  // measure 39
0100
0002
0000
0000
,  // measure 40
0000
2003
0000
0000
,  // measure 41
0000
3002
0000
0000
,  // measure 42
0000
2003
0000
0000
,  // measure 43
0000
3020
0000
0000
,  // measure 44
0000
0230
0000
0000
,  // measure 45
0000
0320
0000
0000
,  // measure 46
0000
0230
0000
0000
,  // measure 47
0300
0010
0100
0010
,  // measure 48
0100
1000
0001
1000
,  // measure 49
0001
0100
0001
0100
,  // measure 50
0001
0010
1000
0010
,  // measure 51
1000
0100
0001
0100
,  // measure 52
0001
0010
0100
0010
,  // measure 53
0100
1000
0001
1000
,  // measure 54
0001
0000
1000
0010
1000
0000
0100
0001
,  // measure 55
0100
0010
0100
0010
,  // measure 56
0100
1000
0001
1000
,  // measure 57
0001
0100
0001
0100
,  // measure 58
0001
0010
1000
0010
,  // measure 59
1000
0100
0010
0100
,  // measure 60
0010
1000
0001
1000
,  // measure 61
0001
0100
0001
0100
,  // measure 62
0001
0010
0100
0010
,  // measure 63
0100
1000
1000
1000
,  // measure 64
1000
0010
0010
0010
,  // measure 65
0010
0001
0001
0001
,  // measure 66
0001
1000
1000
1000
,  // measure 67
1000
0010
0010
0010
,  // measure 68
0010
0100
0100
0100
,  // measure 69
0100
0001
0001
0001
,  // measure 70
0001
1000
1000
1000
,  // measure 71
1000
2002
0000
0000
,  // measure 72
0000
0000
0000
0000
,  // measure 73
0000
3003
0000
0000
;

//---------------dance-single - Destrier75----------------
#NOTES:
     dance-single:
     Destrier75:
     Medium:
     9:
     0.392,0.389,0.138,0.108,0.000:
0000
0000
0000
0000
,
0000
0000
0000
0000
,
0000
0000
0000
0000
,
0000
0000
0000
0000
,
0000
0000
0000
0000
,
0000
0000
0000
0000
,
0000
0000
1000
0010
1000
0010
1000
0000
,
0100
0000
0010
0001
0010
0001
0010
0000
,
0100
0000
0010
0100
0010
0100
0010
0000
,
1000
0000
0010
1000
0010
1000
0010
0000
,
0100
0000
0001
0100
0001
0100
0001
0000
,
0010
0000
1000
0010
1000
0010
1000
0000
,
0100
0000
0100
0001
0100
0001
0100
0000
,
0010
0000
0100
0010
0100
0010
0100
0000
,
0010
2000
0000
0000
,
0000
3002
0000
0000
,
0000
0203
0000
0000
,
0000
0320
0000
0000
,
0000
0000
0130
0001
0100
0000
0010
0000
,
0100
0000
1000
0010
1000
0000
0001
0000
,
0100
0000
1000
0001
1000
0000
0001
1000
,
0001
1001
0000
0000
,
0000
0000
1000
0010
1000
0010
1000
0000
,
0010
0000
1000
0100
0010
0001
0010
0001
,
0010
0000
0001
0100
0001
0100
0001
0000
,
0010
0000
1000
0010
1000
0010
1000
0010
,
1000
0000
0100
0010
0100
0010
0100
0000
,
0010
0000
1000
0010
1000
0010
1000
0010
,
1000
0000
0010
0100
0010
0100
0010
0000
,
0001
0000
1000
0001
1000
0001
1000
0001
,
1000
0000
0010
1000
0010
1000
0010
0000
,
0100
0000
0010
0001
0010
0001
0010
0001
,
0010
0000
1000
0010
1000
0010
1000
0000
,
0010
0000
0100
0010
0100
0010
0100
0010
,
0100
0000
0001
1000
0001
1000
0001
0000
,
0100
0000
0010
0001
0010
0001
0010
0001
,
0010
0000
1000
0010
1000
0010
1000
0000
,
0010
0000
0100
0010
0100
0010
0100
0010
,
0100
2000
0000
0001
,
0000
3002
0000
0100
,
0000
0203
0000
0010
,
0000
0320
0000
0001
,
0000
0032
0000
1000
,
0000
2003
0000
0100
,
0000
3200
0000
0001
,
0000
0002
0000
0000
,
0303
0000
1000
0010
1000
0010
1000
0000
,
0100
0000
0001
0100
0001
0100
0001
0100
,
0001
0000
0010
0100
0010
0100
0010
0000
,
1000
0000
1000
0010
1000
0010
1000
0010
,
1000
0000
0100
0010
0100
0010
0100
0000
,
0100
0000
0010
0001
0010
0001
0010
0001
,
0010
0000
1000
0100
1000
0100
1000
0000
,
0010
0000
0100
0010
0100
0010
0100
0010
,
0100
0000
0001
1000
0001
1000
0001
0000
,
0100
0000
0010
0001
0010
0001
0010
0001
,
0010
0000
1000
0100
1000
0100
1000
0000
,
0100
0000
0010
0001
0010
0001
0010
0001
,
0010
0000
0100
0010
0100
0010
0100
0000
,
0010
0000
1000
0010
1000
0010
1000
0010
,
1000
0000
0010
0001
0010
0001
0010
0000
,
0100
0000
0010
0001
0010
0001
0010
0001
,
0010
1000
1010
0010
,
0011
0001
1001
1000
,
1100
0100
0110
0010
,
0011
0001
1001
1000
,
1100
0100
0110
0010
,
0011
0001
1001
1000
,
1010
0010
0011
0001
,
1001
1000
1100
0100
,
0110
2002
0000
0000
,
0000
0000
0000
0000
,
0000
3003
0000
0000
;

//---------------dance-single - Destrier75----------------
#NOTES:
     dance-single:
     Destrier75:
     Hard:
     13:
     0.576,0.556,0.277,0.177,0.192:
0000
0000
0000
0000
,
0000
0000
0000
0000
,
0000
0000
0000
0000
,
0000
0000
0000
0000
,
0000
0000
0000
0000
,
0000
0000
0000
0000
,
0000
0000
1000
0010
1000
0010
1000
0100
,
0010
0001
1000
0001
1000
0100
0010
0001
,
1000
0001
1000
0100
0010
1000
0010
0100
,
0001
0100
0001
1000
0001
0100
0010
0001
,
1000
0010
0100
0010
1000
0001
0100
0010
,
0001
1000
0100
0010
0001
1000
0001
0100
,
0010
0001
0100
0010
0100
1000
0001
0100
,
0010
0100
0001
0100
1000
0001
0100
0010
,
0100
0001
2000
0000
0000
0000
0001
0000
,
0000
3002
0000
0100
,
0000
0203
0000
0010
,
0000
0320
0000
0001
,
0000
0000
0031
1000
0001
1000
0100
0010
,
1001
0010
1000
0010
1000
0100
0010
0001
,
1000
0000
0001
0000
1000
0001
1000
0000
0100
0010
0100
0000
0010
0000
0100
0000
,
0010
0100
0220
0000
0000
0000
0000
0000
,
0000
0000
0330
0000
1000
0000
0010
0000
1000
0000
0010
1000
0010
0000
1000
0000
,
0001
0000
0100
0000
0010
1000
0010
0000
0100
0000
0001
0000
0100
0001
0100
0000
,
0010
0000
0100
0000
1000
0000
0010
0000
1000
0000
0100
0010
0100
0000
0010
0000
,
0001
0000
0100
0000
0001
0100
0001
0000
0010
0000
0100
0000
1000
0100
1000
0000
,
0010
0000
0100
0000
0010
0000
0001
0000
1000
0000
0001
1000
0001
0000
0100
0000
,
0010
0000
1000
0000
0001
0100
0001
0000
0010
0000
1000
0000
0100
0010
0100
0000
,
0010
0000
0001
0000
1000
0000
0010
0000
1000
0000
0010
1000
0010
0000
0100
0000
,
0010
0000
0001
0000
0100
0001
0100
0000
0010
0000
0100
0000
1000
0100
1000
0000
,
0010
0000
0100
0000
0010
0000
1000
0000
0001
0000
0100
0001
0100
0000
0010
0000
,
1000
0000
0001
0000
0100
0001
0100
0000
0010
0000
0100
0000
1000
0100
1000
0000
,
0100
0000
0010
0000
1000
0000
0001
0000
0100
0000
0100
0001
0100
0000
0010
0000
,
1000
0000
0010
0000
0100
0010
0100
0000
0001
0000
1000
0000
0001
0100
0001
0000
,
0010
0000
1000
0000
0010
0000
0100
0000
0010
0000
0100
0001
0100
0000
0010
0000
,
1000
0000
0010
0000
0100
0010
0100
0000
0001
0000
1000
0000
0001
0100
0001
0000
,
0010
0000
0100
0000
1000
0000
0010
0000
1000
0000
0010
1000
0010
0000
0100
0000
,
0001
0000
1000
0000
0001
1000
0001
0000
0100
0000
0010
0000
0100
0010
0100
0000
,
0001
1000
1002
0000
1000
0000
2003
0000
,
0010
3020
0100
0230
,
0001
0302
1000
2003
,
0010
3020
0100
0230
,
0001
0302
1000
2003
,
0010
3020
0100
0230
,
0001
0302
1000
2003
,
0010
0020
0000
0000
,
3030
0000
0000
0000
1000
0000
0010
0000
1000
0000
0100
0001
0100
0000
0010
0000
,
1000
0000
0100
0000
0010
1000
0010
0000
0100
0000
0001
0000
0100
0010
0100
0000
,
0010
0000
1000
0000
0010
0000
0100
0000
0010
0000
0100
0001
0100
0000
0010
0000
,
1000
0000
0010
0000
0100
0010
0100
0000
1000
0000
0001
0000
1000
0001
1000
0000
,
0010
0000
0100
0000
0010
0000
1000
0000
0100
0000
0010
0100
0010
0000
0001
0000
,
1000
0000
0010
0000
0100
0010
0100
0000
0001
0000
1000
0000
0100
0001
0100
0000
,
0010
0000
1000
0000
0010
0000
0100
0000
0001
0000
0100
0001
0100
0000
0010
0000
,
1000
0000
0010
0000
0100
0010
0100
0000
0001
0000
1000
0000
0100
0001
0100
0000
,
0010
0000
0100
0000
1000
0000
0001
0000
1000
0000
0010
1000
0010
0000
0100
0000
,
1000
0000
0010
0000
1000
0001
1000
0000
0100
0000
0010
0000
0100
0001
0100
0000
,
0010
0000
1000
0000
0010
0000
0100
0000
0001
0000
0100
0001
0100
0000
0010
0000
,
1000
0000
0100
0000
0010
0100
0010
0000
0001
0000
1000
0000
0100
0001
0100
0000
,
0010
0000
0100
0000
1000
0000
0010
0000
1000
0000
0010
1000
0010
0000
0100
0000
,
0001
0000
0100
0000
0010
0001
0010
0000
1000
0000
0010
0000
1000
0010
1000
0000
,
0010
0000
0100
0000
0001
0000
0100
0000
0010
0000
0100
0001
0100
0000
0010
0000
,
1000
0000
0010
0000
1000
0010
1000
0000
0100
0000
0010
0000
0100
0001
0100
0000
,
0010
1000
1010
0000
1010
0000
1010
0000
,
1010
0101
0101
0101
,
0101
0110
0110
0110
,
0110
1100
1100
1100
,
1100
0101
0101
0101
,
0101
0011
0011
0011
,
0011
1001
1001
1001
,
0110
0110
0110
0110
,
0110
0220
0000
0000
,
0000
0000
0000
0000
,
0000
0330
0000
0000
;

//---------------dance-single - Destrier75----------------
#NOTES:
     dance-single:
     Destrier75:
     Beginner:
     3:
     0.165,0.162,0.023,0.000,0.000:
0000
0000
0000
0000
,
0000
0000
0000
0000
,
0000
0000
0000
0000
,
0000
0000
0000
0000
,
0000
0000
0000
0000
,
0000
0000
0000
0000
,
0000
1000
0000
1000
,
0000
0001
0000
0001
,
0000
1000
0000
1000
,
0000
0001
0000
0001
,
0000
0100
0000
0100
,
0000
0010
0000
0010
,
0000
0100
0000
0100
,
0000
0010
0000
0010
,
0000
0100
0000
0100
,
0000
0010
0000
0010
,
0000
0100
0000
0100
,
0000
0010
0000
0010
,
0000
1000
1000
1000
,
0000
0001
0001
0001
,
0000
1000
1000
1000
,
0000
1001
0000
0000
,
0000
1000
1000
1000
,
0000
0001
0000
0001
,
0000
0100
0100
0100
,
0000
0010
0000
0010
,
0000
1000
1000
1000
,
0000
0010
0000
0010
,
0000
0001
0001
0001
,
0000
1000
1000
1000
,
0000
0010
0010
0010
,
0000
0100
0000
0100
,
0000
0001
0001
0001
,
0000
1000
0000
1000
,
0000
0100
0100
0100
,
0000
0001
0000
0001
,
0000
1000
1000
1000
,
0000
0010
0000
0010
,
0000
0100
0000
0100
,
0000
0001
0000
0001
,
0000
1000
0000
1000
,
0000
0001
0000
0001
,
0000
1000
0000
1000
,
0000
0001
0000
0001
,
0000
1000
0000
1000
,
0000
1001
0000
0000
,
0000
1000
1000
1000
,
0000
0010
0000
0010
,
0000
0100
0100
0100
,
0000
0001
0000
0001
,
0000
0100
0100
0100
,
0000
0010
0000
0010
,
0000
0100
0100
0100
,
0000
1000
0000
1000
,
0000
0001
0000
0001
,
0000
1000
1000
1000
,
0000
0010
0000
0010
,
0000
0100
0100
0100
,
0000
0001
0000
0001
,
0000
0100
0100
0100
,
0000
0010
0000
0010
,
0000
1000
1000
1000
,
0000
0001
0000
0001
,
0000
1000
0000
1000
,
0000
0001
0000
0001
,
0000
1000
0000
1000
,
0000
0010
0000
0010
,
0000
0100
0000
0100
,
0000
0010
0000
0010
,
0000
0100
0000
0100
,
0000
0110
0000
0000
;
