#TITLE:しょうがない 夢追い人;
#SUBTITLE:;
#ARTIST:モーニング娘。;
#TITLETRANSLIT:Shouganai Yume Oibito;
#SUBTITLETRANSLIT:;
#ARTISTTRANSLIT:Morning Musume;
#CREDIT:;
#BANNER:Shouganai Yume Oibito.png;
#BACKGROUND:Shouganai Yume Oibito-bg.png;
#LYRICSPATH:;
#CDTITLE:;
#MUSIC:Shouganai Yume Oibito.ogg;
#OFFSET:0.280;
#SAMPLESTART:66.380;
#SAMPLELENGTH:15.000;
#SELECTABLE:YES;
#BPMS:0.000=132.000;
#STOPS:;
#BGCHANGES:0.625=Shouganai Yume Oibito.avi=1.000=1=1=0,
99999=-nosongbg-=1.000=0=0=0 // don't automatically add -songbackground-
;

//---------------dance-single - ----------------
#NOTES:
     dance-single:
     Destrier75:
     Hard:
     11:
     0.440,0.431,0.222,0.148,0.052:
0000
0000
0000
0000
,
0000
0000
0000
0000
,
0000
0000
0000
0000
,
0000
0000
1001
0000
0110
0000
1000
0010
,
1000
0010
1000
0000
0010
0000
0001
0100
,
0001
0100
0001
0000
0100
0000
0010
0100
,
0010
0100
0010
0000
0001
0000
1000
0001
,
1000
0000
0001
0000
1000
0000
0000
0100
0000
0000
0001
0000
0100
0000
0001
0000
,
0100
0001
0100
0000
0010
0000
1000
0010
,
1000
0000
0010
0000
1000
0000
0000
0000
0001
0000
0000
0010
0000
0000
1000
0000
,
1000
0000
0000
0000
0100
0000
0010
0000
0100
0000
0010
0000
0100
0000
0000
0001
,
0000
0000
1000
0000
0002
0000
0000
0000
0000
0000
0000
0000
1000
0000
0000
1000
,
0003
0000
1000
0010
1000
0000
0010
0000
,
1010
0000
0100
0010
0100
0000
0110
0000
,
0010
0000
1000
0001
1000
0000
1001
0000
,
1000
0000
0010
0000
0001
0000
0000
0101
0000
0000
1001
0000
0000
0000
0000
0000
,
1001
2000
3020
0230
,
0302
0000
1003
0010
1000
0000
1000
0000
,
0001
0000
1001
0000
0001
0100
0001
0000
,
1000
0000
0010
0000
1000
0000
0000
0000
0010
0000
0000
0000
0010
0000
0000
0110
,
0000
0000
1000
0010
0001
0000
0001
0000
,
1001
0000
0001
0100
1000
0000
1000
0000
,
1010
0000
1000
0001
0010
0000
0010
0000
,
1010
0000
0100
0010
1000
0000
1000
0000
,
1001
0200
0320
0032
,
2003
0000
3001
0100
0001
0000
0001
1000
,
0001
0000
1000
0010
1000
0000
0100
0010
,
0100
0000
0000
0000
0001
0000
0100
0000
0001
0000
0000
0000
1000
0000
0000
0001
,
0000
1001
1000
0010
1000
0010
1000
0000
,
0010
0000
0100
0010
0100
0010
0100
0000
,
0001
0000
1000
0001
1000
0001
1000
0000
,
0001
0000
0100
0001
0100
0001
0100
0001
,
0000
0001
0000
0000
1001
0000
0100
0000
0010
0000
0000
0000
0010
0000
0100
0000
,
0010
0100
0010
0000
1000
0000
0001
1000
,
0001
1000
0001
1000
0001
0000
0001
0100
,
0001
0000
1000
0010
1000
0000
0010
0100
,
0010
0010
0110
2000
,
3002
0000
0103
0001
0100
0000
0001
0100
,
0001
0100
1000
0000
1010
0000
1000
0010
,
1000
0000
0010
0000
1010
0000
0010
0100
,
0010
0000
1000
0010
1000
0000
0001
0000
,
0101
0000
0100
0001
0100
0000
0010
1000
,
0010
0000
0100
0000
0110
0000
0001
0100
,
0001
0000
1000
0010
1000
0000
0001
0000
,
0101
0010
0110
0100
,
0110
0000
0100
0001
0100
0000
0010
0100
,
0010
0100
0010
0000
1000
0000
0010
1000
,
0010
0000
0100
0010
0100
0010
0100
0000
,
0001
0000
1000
0001
1000
0000
0100
0001
,
0100
0001
0100
0000
0010
0000
1000
0010
,
1000
0000
0001
0100
0001
0100
0001
0000
,
1000
0000
0010
0100
0010
0000
0100
0001
,
0100
0000
0001
0000
0101
0000
0000
0100
0000
0000
0010
0000
0110
0000
0000
0100
,
0000
0001
0101
0000
0000
0000
1000
0000
,
0010
0000
1000
0000
0001
0100
0000
0001
,
0010
0100
2000
0000
0000
0000
3020
0000
,
0000
0002
0030
0000
1000
0000
1000
0000
,
1000
0100
0100
2003
,
3002
0000
0100
0000
0100
0100
0003
0100
,
0001
0100
0020
0000
0000
0000
2030
0000
,
3000
0000
0000
0000
0100
0000
0000
0010
0000
0000
0100
0000
0001
0000
0000
0100
,
0000
0010
1000
0000
1010
0000
0001
0010
,
0001
0010
0001
0000
1000
0000
0100
0010
,
0100
0010
0100
0000
0010
0000
1000
0001
,
1000
0001
1000
0000
0100
0000
0010
0100
,
0010
0000
0100
0000
0010
0000
0000
0001
0000
0000
0100
0000
0010
0000
1000
0000
,
0010
1000
0010
0000
0100
0000
0001
1000
,
0001
1000
0001
0000
1000
0000
0010
0100
,
0010
0100
0010
0000
0001
0000
0100
0010
,
0100
0000
0010
0000
0100
0000
0000
0000
1000
0000
0010
0000
1000
0000
0000
1010
,
0000
2002
0000
0000
,
0000
0000
0000
0000
,
0000
0000
0000
3003
;

//---------------dance-single - ----------------
#NOTES:
     dance-single:
     Destrier75:
     Challenge:
     13:
     0.533,0.512,0.193,0.578,0.111:
0000
0000
0000
0000
,
0000
0000
0000
0000
,
0000
0000
0000
0000
,
0000
0000
0110
0000
0101
0000
1000
0100
,
0010
0001
0200
0000
0010
0000
0310
0001
,
0010
0000
0100
0000
0002
0000
0000
0000
0003
0000
1000
0010
1000
0000
0100
0000
,
0010
0001
0200
0000
0001
0000
0301
0010
,
1000
0000
0100
0000
0020
0000
0000
0100
0000
0000
0130
0000
0000
0000
0001
0100
,
0001
0010
2000
0000
0001
0000
3001
0010
,
1000
0000
0001
0000
0200
0000
0000
0001
0000
0000
0301
0000
0000
0000
0000
0000
,
0100
0001
0100
0001
0200
0000
0000
0000
0010
0000
0000
0000
0320
0000
0000
0032
,
0000
0000
1000
0000
2000
0000
0000
0000
3003
0000
0000
0000
1001
0000
0000
1001
,
0000
0000
1000
0100
1000
0100
0010
0100
,
0010
0001
0010
0001
0010
0200
0000
0301
,
0010
0100
1000
0100
0010
0001
1000
0100
,
0010
0000
0001
0000
2000
0000
0000
3020
0000
0000
0200
0000
0000
0000
0000
0000
,
0330
0200
0320
2030
,
3002
0000
0013
0100
1000
0100
0010
0001
,
0010
0001
0010
0000
2000
0000
3002
0000
,
0203
0000
0000
0000
0000
0000
0020
0000
0000
0000
0330
0000
0100
0000
0000
0110
,
0000
0000
1000
0100
1000
0010
1000
0001
,
1000
0010
1000
0100
0010
0002
0000
0103
,
1000
0100
0001
0100
0001
0010
0100
1000
,
0100
0000
0010
0000
0002
0000
0000
0203
0000
0000
0020
0000
0000
0000
0000
0000
,
0330
2000
3020
0230
,
0302
0000
0013
0100
1000
0100
0010
0001
,
1000
0010
2000
0000
0010
0000
3020
0000
,
0001
0000
0000
0000
0032
0000
0000
0000
1000
0000
0000
0000
1003
0000
0000
1010
,
0000
0000
1100
0000
1000
0000
0100
0000
0010
0000
0001
0000
1000
0000
0010
1000
,
0010
0000
0100
0000
0010
0000
0001
0000
0010
0000
0100
0000
1000
0000
0100
0010
,
0001
1000
0010
0100
0001
0100
0010
0001
,
1000
0010
0100
0001
0100
0010
1000
1010
,
0000
1010
0000
0000
1000
0000
0010
0000
1000
0000
0010
0000
0100
0000
0010
0000
,
0001
0100
0001
0010
0100
1000
0100
0010
,
0001
0100
0001
0010
0001
0010
1000
0010
,
0001
0010
1000
0010
1000
0100
0010
0001
,
0100
0001
0101
0000
0101
0000
0110
0000
,
1010
0000
0102
0000
0103
0000
0010
1000
,
0010
2000
0010
0000
3010
0000
0100
0001
,
0100
0002
0100
0000
0103
0000
0010
0100
,
0010
0200
0001
0000
0302
0000
2003
0000
,
3010
0100
0020
0000
0130
0000
0100
0010
,
0001
0010
0200
0000
0310
0000
2000
0000
,
3002
0000
0203
0000
0010
0310
0000
0100
,
0010
0100
0220
0000
0330
0000
1010
0000
,
0110
0000
0102
0000
0103
0000
0001
0100
,
0001
0200
0000
0010
0310
0000
0010
1000
,
0010
2000
0000
0010
3010
0000
0100
0001
,
0100
0002
0000
0000
2003
0000
3020
0000
,
0130
0001
0200
0000
0301
0000
0010
1000
,
0010
1000
0020
0001
0031
0000
2000
0000
,
3002
0000
0203
0000
0301
0010
0100
1000
,
0100
0000
1000
0000
0100
0000
0000
0110
0000
0000
0010
0000
1000
0000
0000
1010
,
0000
1000
1010
0000
0000
0000
2000
0000
,
3020
0000
0230
0000
0001
0301
0000
0001
,
0100
0001
0200
0000
0000
0000
0320
0000
,
0000
1000
1030
0000
1000
0010
0001
0000
,
0001
0010
1000
0000
0100
0010
2000
0000
,
3002
0000
0203
0000
0001
0301
0000
0001
,
1000
0001
2000
0000
0010
0000
3020
0000
,
0100
0000
0030
0000
0110
0000
0000
0010
0000
0000
1010
0000
1000
0000
0000
0010
,
0000
0000
1010
0000
1000
0001
1000
0000
0100
0001
0100
0000
0001
0000
0010
0000
,
0100
1000
0020
0000
0100
0000
0130
1000
,
0010
0000
1000
0000
0020
0000
0000
0000
0030
0000
0001
0010
0001
0000
0100
0000
,
1000
0100
0002
0000
1000
0000
1003
0010
,
1000
0000
0010
0000
2000
0000
0000
0010
0000
0000
3010
0000
0000
0000
0100
0010
,
0100
0001
2000
0000
0010
0000
3010
0100
,
0001
0000
0100
0000
0002
0000
0000
0100
0000
0000
0103
0000
0000
0000
0000
0000
,
0100
0001
0100
0001
0200
0000
0000
0000
0000
0000
0000
0000
0320
0000
0000
0032
,
0000
0000
1000
0000
2000
0000
0000
0000
0000
0000
3003
0000
1001
0000
0000
1001
,
0000
0000
1000
0001
2000
0000
0000
0000
0000
0000
0000
0000
0000
0000
0000
0000
,
0000
0000
0000
0000
,
0000
0000
0000
3000
;

//---------------dance-single - Destrier75----------------
#NOTES:
     dance-single:
     Destrier75:
     Medium:
     8:
     0.366,0.338,0.074,0.104,0.030: // measure 1
0000
0000
0000
0000
,  // measure 2
0000
0000
0000
0000
,  // measure 3
0000
0000
0000
0000
,  // measure 4
0000
0100
0010
0100
,  // measure 5
0010
0000
1000
0001
1000
0000
0010
0000
,  // measure 6
0100
0000
0001
0100
0001
0000
1000
0000
,  // measure 7
0010
0000
1000
0010
1000
0000
0010
0000
,  // measure 8
0100
0000
0001
0100
0001
0000
1000
0000
,  // measure 9
0010
0000
0100
0010
0100
0000
0001
0000
,  // measure 10
0100
0000
1000
0001
1000
0000
0100
0000
,  // measure 11
0010
0000
0100
0001
0100
0000
0010
0000
,  // measure 12
1000
0000
0000
0000
0100
0000
0010
0000
0100
0000
0000
0000
0110
0000
0000
0110
,  // measure 13
0000
0000
1000
0100
0010
0000
0001
0000
,  // measure 14
0100
0000
0001
0010
0100
0000
1000
0000
,  // measure 15
0010
0000
0100
0010
0001
0000
0010
0000
,  // measure 16
1000
0000
0100
0010
0001
0000
1000
0000
,  // measure 17
0010
0000
1000
0010
1000
0000
0100
0001
,  // measure 18
0100
0000
0010
0100
0010
0000
0010
1000
,  // measure 19
0010
0000
0001
1000
0001
0000
1000
0010
,  // measure 20
1000
0000
0000
0000
0100
0000
0010
0000
0100
0000
0000
0000
1000
0000
0000
1010
,  // measure 21
0000
0000
1000
0010
1000
0000
0100
0000
,  // measure 22
0001
0000
1000
0001
1000
0000
0001
0000
,  // measure 23
0100
0000
0001
1000
0001
0000
0100
0000
,  // measure 24
0010
0000
1000
0010
1000
0000
0100
0000
,  // measure 25
0001
0000
1000
0100
0010
0000
0001
0010
,  // measure 26
0100
0000
1000
0001
1000
0000
0100
0010
,  // measure 27
0100
0000
1000
0010
1000
0000
0100
0001
,  // measure 28
0100
0000
0010
0100
0010
0000
0100
0001
,  // measure 29
0100
2000
0010
3020
,  // measure 30
0001
0032
1000
2003
,  // measure 31
0100
3200
0010
0320
,  // measure 32
0001
0032
1000
2003
,  // measure 33
0010
0000
3010
1000
0010
0000
0100
0000
,  // measure 34
0001
0000
1000
0010
1000
0000
0001
0000
,  // measure 35
0100
0000
0001
0100
0001
0000
1000
0010
,  // measure 36
1000
0000
0100
0001
0100
0000
0010
0100
,  // measure 37
0010
0000
0000
0000
0110
0000
0000
0110
0000
0000
0000
0000
0002
0000
0000
0000
,  // measure 38
1000
0000
1003
0010
1000
0000
0010
0000
,  // measure 39
0100
0000
0001
1000
0001
0000
0100
0000
,  // measure 40
0010
0000
1000
0010
1000
0000
0001
0000
,  // measure 41
0100
0000
0001
1000
0001
0000
1000
0000
,  // measure 42
0001
0000
0100
0001
0100
0000
0010
0000
,  // measure 43
1000
0000
0010
0100
0010
0000
1000
0000
,  // measure 44
0001
0000
1000
0001
1000
0000
0100
0010
,  // measure 45
0100
0000
0001
0100
0001
0000
2000
0000
,  // measure 46
0010
0000
3010
0100
0010
0000
0001
0000
,  // measure 47
1000
0000
0100
0010
0100
0000
0100
0000
,  // measure 48
0001
0000
1000
0001
1000
0000
0001
0000
,  // measure 49
0100
0000
0010
0001
0010
0000
1000
0000
,  // measure 50
0100
0000
1000
0100
1000
0000
0100
0000
,  // measure 51
0001
0000
1000
0001
1000
0000
1000
0001
,  // measure 52
1000
0000
1000
0010
1000
0000
0100
0001
,  // measure 53
0100
0000
0000
0000
0010
0000
0000
0100
0000
0000
0010
0000
0100
0000
0000
0010
,  // measure 54
0000
0100
0010
0000
0000
0000
2000
0000
,  // measure 55
0000
0010
0000
0010
,  // measure 56
0000
3002
0000
0100
,  // measure 57
0000
0100
0000
0100
,  // measure 58
0000
2003
0000
0010
,  // measure 59
0000
0010
0000
0010
,  // measure 60
0000
3020
0000
0001
,  // measure 61
0000
0000
0000
0000
0031
0000
0000
1000
0000
0000
0001
0000
1000
0000
0000
0001
,  // measure 62
0000
1000
0001
0000
1001
0000
1000
0000
,  // measure 63
1010
0000
1000
0010
1000
0000
0100
0000
,  // measure 64
0010
0000
0100
0001
0100
0000
0010
0000
,  // measure 65
1000
0000
0100
0010
0100
0000
0001
0000
,  // measure 66
1000
0000
0010
1000
0010
0000
0100
0000
,  // measure 67
0001
0000
1000
0001
1000
0000
0100
0000
,  // measure 68
0010
0000
0001
0100
0001
0000
1000
0000
,  // measure 69
0010
0000
1000
0010
1000
0000
0100
0000
,  // measure 70
0010
0000
0000
0000
0100
0000
0001
0000
0100
0000
0000
0000
0101
0000
0000
0101
,  // measure 71
0000
1001
0000
0000
;

//---------------dance-single - Destrier75----------------
#NOTES:
     dance-single:
     Destrier75:
     Easy:
     5:
     0.272,0.312,0.096,0.119,0.000:
0000
0000
0000
0000
,
0000
0000
0000
0000
,
0000
0000
0000
0000
,
0000
1000
0001
1000
,
0001
1000
0010
1000
,
0010
0001
0100
0001
,
0100
0010
0100
0010
,
0100
1000
0010
1000
,
0010
0100
0001
0100
,
0001
0100
0010
0100
,
0010
1000
0100
1000
,
0100
0001
0100
0001
,
0100
0010
0001
0010
,
0001
1000
0100
1000
,
0100
1000
0001
1000
,
0001
1000
0010
1000
,
0010
0200
0001
0301
,
0000
2000
0010
3010
,
0000
0200
0010
0310
,
0000
0002
0100
0103
,
0000
0001
0010
0001
,
0010
1000
0100
1000
,
0100
0001
0010
0001
,
0010
1000
0100
1000
,
0100
0002
1000
1003
,
0000
2000
0010
3010
,
0000
0200
0010
0310
,
0000
0002
1000
1003
,
0000
2000
0000
0010
,
0000
0010
0000
0010
,
0000
3020
0000
0001
,
0000
0001
0000
0031
,
0000
0001
0001
0001
,
0100
0010
0010
0010
,
1000
0100
0100
0100
,
0001
0010
0010
0010
,
1000
1010
1010
0000
,
0000
1000
0001
1000
,
0001
0100
0001
0100
,
0001
0010
1000
0010
,
1000
0100
0010
0100
,
0010
0100
0001
0100
,
0001
0010
1000
0010
,
1000
0001
0100
0001
,
0100
0010
1000
0010
,
1000
0100
0001
0100
,
0001
0100
0010
0100
,
0010
1000
0010
1000
,
0010
0100
0010
0100
,
0010
0100
0001
0100
,
0001
0010
1000
0010
,
1000
0100
0001
0100
,
0001
1010
1010
1010
,
1010
1010
0000
0000
,
0000
2000
0000
0000
,
0000
3020
0000
0000
,
0000
0230
0000
0000
,
0000
0302
0000
0000
,
0000
2003
0000
0000
,
0000
3002
0000
0000
,
0000
0103
0001
0100
,
0001
0101
0101
0101
,
0101
1000
0010
1000
,
0010
0100
0001
0100
,
0001
0010
1000
0010
,
1000
0100
0001
0100
,
0001
0010
1000
0010
,
1000
0100
0001
0100
,
0001
0010
1000
0010
,
1000
0001
0000
1001
,
0000
1001
0000
0000
;

//---------------dance-single - Destrier75----------------
#NOTES:
     dance-single:
     Destrier75:
     Beginner:
     2:
     0.187,0.208,0.081,0.000,0.000:
0000
0000
0000
0000
,
0000
0000
0000
0000
,
0000
0000
0000
0000
,
0000
0100
0000
0100
,
0000
0010
0010
0010
,
0000
0100
0000
0100
,
0000
0001
0001
0001
,
0000
1000
0000
1000
,
0000
0010
0010
0010
,
0000
0001
0000
0001
,
0000
1000
1000
1000
,
0000
0010
0000
0110
,
0000
1000
1000
1000
,
0000
0001
0000
0001
,
0000
0100
0100
0100
,
0000
0010
0000
0010
,
0000
0100
0100
0100
,
0000
0001
0000
0001
,
0000
1000
1000
1000
,
0000
0001
0000
1001
,
0000
0100
0100
0100
,
0000
0010
0000
0010
,
0000
1000
1000
1000
,
0000
0001
0000
0001
,
0000
0100
0100
0100
,
0000
0010
0000
0010
,
0000
0100
0100
0100
,
0000
0001
0000
0001
,
0000
1000
0000
1000
,
0000
0100
0000
0100
,
0000
0010
0000
0010
,
0000
0001
0000
0001
,
0000
1000
0000
1000
,
0000
0010
0000
0010
,
0000
0001
0001
0001
,
0000
1000
1000
1000
,
0000
0000
1001
0000
,
0000
0100
0100
0100
,
0000
0010
0010
0010
,
0000
0100
0100
0100
,
0000
0001
0001
0001
,
0000
1000
1000
1000
,
0000
0001
0001
0001
,
0000
0100
0100
0100
,
0000
0010
0010
0010
,
0000
1000
1000
1000
,
0000
0001
0001
0001
,
0000
0100
0100
0100
,
0000
0001
0001
0001
,
0000
1000
1000
1000
,
0000
0010
0010
0010
,
0000
0100
0100
0100
,
0000
0110
0000
0110
,
0000
0110
0000
0000
,
0000
1000
0000
1000
,
0000
0001
0000
0001
,
0000
0100
0000
0100
,
0000
0010
0000
0010
,
0000
0100
0000
0100
,
0000
0010
0000
0010
,
0000
1001
0000
1001
,
0000
1001
0000
1001
,
0000
1000
1000
1000
,
0000
0010
0000
0010
,
0000
0100
0100
0100
,
0000
0001
0000
0001
,
0000
1000
1000
1000
,
0000
0010
0000
0010
,
0000
0100
0100
0100
,
0000
0001
0000
0001
,
0000
1001
0000
0000
;
