#TITLE:Rushing;
#SUBTITLE:;
#ARTIST:Loni Clark;
#TITLETRANSLIT:;
#SUBTITLETRANSLIT:;
#ARTISTTRANSLIT:;
#CREDIT:;
#BANNER:Rushing.png;
#BACKGROUND:Rushing-bg.png;
#LYRICSPATH:;
#CDTITLE:;
#MUSIC:Rushing.ogg;
#OFFSET:0.540;
#SAMPLESTART:70.420;
#SAMPLELENGTH:15.000;
#SELECTABLE:YES;
#BPMS:0.000=123.000;
#STOPS:;
#BGCHANGES:1.083=Rushing.avi=1.000=1=1=0,
99999=-nosongbg-=1.000=0=0=0 // don't automatically add -songbackground-
;

//---------------dance-single - Destrier75----------------
#NOTES:
     dance-single:
     Destrier75:
     Hard:
     12:
     0.464,0.432,0.468,0.132,0.005:
0000
0000
0000
0000
,
0000
0000
0000
0000
,
0000
0000
0000
0000
,
0000
1001
0110
1001
,
0110
0000
1000
0010
1000
0010
1000
0000
,
1010
0000
0010
0001
0010
0001
0010
0000
,
0011
0000
1000
0001
1000
0001
1000
0000
,
1001
0101
1100
0101
,
1100
0000
0010
1000
0010
1000
0010
0000
,
1010
0000
1000
0001
1000
0001
1000
0000
,
1001
0000
0001
0100
0001
0100
0001
0000
,
0101
1010
0101
1010
,
0101
2000
0010
3020
,
0001
0032
1000
2003
,
0010
3020
0100
0230
,
0001
0302
1000
1000
,
1003
0000
1000
0100
0010
0001
0010
0000
,
0010
0000
0001
0010
1000
0100
0010
0000
,
1000
0000
0010
1000
0100
0010
0001
0000
,
0001
0000
1000
0010
1000
0010
1000
0000
,
1000
0000
0100
0001
0100
0001
0100
0000
,
0001
0000
1000
0100
1000
0100
1000
0000
,
0100
0000
0010
0100
0010
0100
0010
0000
,
0001
0000
1000
0001
1000
0001
1000
0000
,
1001
0000
1000
0010
1000
0010
1000
0000
,
0100
0000
0001
0100
0001
0100
0001
0000
,
0010
0000
1000
0010
1000
0010
1000
0000
,
0100
0000
0010
0100
0010
0100
0010
0000
,
0001
0000
0100
0001
0100
0001
0100
0000
,
0010
0000
0001
1000
0001
1000
0001
0000
,
1000
0000
0100
0001
0100
0001
0100
0000
,
0001
0000
1000
0001
1000
0001
1000
0000
,
0010
1001
1010
1001
,
1001
0000
0000
2000
0000
0000
0001
0000
3001
0000
0010
0000
0100
0000
0001
0000
,
0010
0000
1000
0001
1000
0010
0100
0010
,
0001
1000
0002
0000
2003
0000
3020
0000
,
2030
0000
3002
0000
1003
0010
1000
0000
,
1010
0000
1000
0001
1000
0001
1000
0000
,
1001
0000
0001
0100
0001
0100
0001
0000
,
0101
0110
1010
0101
,
1010
0000
0100
0010
0100
0010
0100
0000
,
0110
0000
1000
0010
1000
0010
1000
0000
,
1010
0000
0100
0001
0100
0001
0100
0000
,
0101
1001
0101
0011
,
1001
0000
0001
0010
0001
0010
0001
0000
,
0011
0000
1000
0100
1000
0100
1000
0000
,
1100
0000
1000
0001
1000
0001
1000
0000
,
1001
1010
0110
0101
,
0101
0000
1000
0010
1000
0010
1000
0000
,
1010
0000
0100
0001
0100
0001
0100
0000
,
0101
0000
0000
0000
;

//---------------dance-single - Destrier75----------------
#NOTES:
     dance-single:
     Destrier75:
     Medium:
     7:
     0.355,0.356,0.092,0.071,0.000:
0000
0000
0000
0000
,
0000
0000
0000
0000
,
0000
0000
0000
0000
,
0000
0100
0010
0100
,
0010
0000
1000
0001
1000
0000
0010
0000
,
0100
0000
0001
0100
0001
0000
1000
0000
,
0010
0000
1000
0001
1000
0000
0100
0000
,
0001
0000
1000
0010
1000
0000
0100
0001
,
0100
0000
0001
1000
0001
0000
0100
0000
,
0010
0000
1000
0010
1000
0000
0100
0000
,
0001
0000
1000
0010
1000
0000
0100
0000
,
0010
0000
0001
0100
0001
0000
1000
0010
,
1000
0002
0000
2003
,
0000
3002
0000
2003
,
0000
3002
0000
2003
,
0000
3002
0000
1003
,
1001
0000
0001
1000
0001
0000
0100
0000
,
0010
0000
1000
0010
1000
0000
0100
0000
,
0001
0000
1000
0001
1000
0000
0001
0000
,
0100
0000
0001
0100
0001
0000
1000
0010
,
1000
0000
0100
0010
0100
0000
0001
0000
,
1000
0000
0001
0100
0001
0000
1000
0000
,
0010
0000
1000
0010
1000
0000
0001
0000
,
1000
0000
0001
0100
0001
0000
1000
0010
,
1000
0000
0100
0001
0100
0000
0010
0000
,
1000
0000
0100
0001
0100
0000
0001
0000
,
1000
0000
0001
0100
0001
0000
1000
0000
,
0010
0000
1000
0010
1000
0000
0001
0100
,
0001
0000
1000
0001
1000
0000
0100
0000
,
0010
0000
0001
0100
0001
0000
1000
0000
,
0010
0000
1000
0001
1000
0000
0001
0000
,
0100
0000
1000
0010
1000
0000
0100
0001
,
0100
0100
0110
0010
,
0011
0001
1001
1000
,
1010
0010
0011
0001
,
1001
1000
1010
0010
,
0011
0000
1000
0001
1000
0000
0100
0000
,
0010
0000
1000
0001
1000
0000
0100
0000
,
0010
0000
0001
0100
0001
0000
1000
0000
,
0010
0000
1000
0001
1000
0000
0100
0001
,
0100
0000
0010
1000
0010
0000
0100
0000
,
0010
0000
0100
0001
0100
0000
0010
0000
,
1000
0000
0100
0010
0100
0000
0001
0000
,
0100
0000
0001
1000
0001
0000
1000
0001
,
1000
0000
0100
0010
0100
0000
0001
0000
,
0100
0000
0001
0100
0001
0000
1000
0000
,
0010
0000
1000
0001
1000
0000
0001
0000
,
0100
0000
0001
1000
0001
0000
1000
0001
,
1000
0000
0100
0010
0100
0000
0001
0000
,
1000
0000
0100
0001
0100
0000
0010
0000
,
1000
0000
0000
0000
;

//---------------dance-single - Destrier75----------------
#NOTES:
     dance-single:
     Destrier75:
     Easy:
     4:
     0.285,0.280,0.122,0.000,0.000:
0000
0000
0000
0000
,
0000
0000
0000
0000
,
0000
0000
0000
0000
,
0000
0100
0100
0100
,
0100
0001
1000
0001
,
1000
0001
0100
0001
,
0100
1000
0010
1000
,
0010
1000
1001
0001
,
0101
1000
0010
1000
,
0010
0100
0001
0100
,
0001
1000
0010
1000
,
0010
0001
0101
0100
,
0110
1000
0001
1000
,
0000
0001
1000
0001
,
0000
1000
0001
1000
,
0000
0001
1000
0001
,
0000
1000
1000
0001
,
0001
0100
0100
0010
,
0010
1000
1000
0001
,
0001
0100
0100
0010
,
0010
0001
0001
1000
,
1000
0010
0010
0100
,
0100
0001
0001
0100
,
0100
0010
0010
1000
,
1000
0010
0010
1000
,
1000
0001
0001
0100
,
0100
0010
0010
1000
,
1000
0100
0100
0001
,
0001
1000
1000
0010
,
0010
0100
0100
0001
,
0001
1000
1000
0010
,
0010
1000
1000
0001
,
0001
1000
0001
1000
,
0001
1000
0010
1000
,
0010
0100
0001
0100
,
0001
1000
1001
0001
,
0101
1000
0010
1000
,
0010
0100
0001
0100
,
0001
0010
0100
0010
,
0100
1000
1010
0010
,
0011
0001
1000
0001
,
1000
0100
0001
0100
,
0001
1000
0001
1000
,
0001
0001
1001
1000
,
1010
0100
0010
0100
,
0010
0100
0001
0100
,
0001
1000
0010
1000
,
0010
1000
1001
0001
,
0101
1000
0001
1000
,
0001
1000
0010
1000
,
0010
0000
0000
0000
;

//---------------dance-single - Destrier75----------------
#NOTES:
     dance-single:
     Destrier75:
     Beginner:
     2:
     0.211,0.177,0.163,0.000,0.000: // measure 1
0000
0000
0000
0000
,  // measure 2
0000
0000
0000
0000
,  // measure 3
0000
0000
0000
0000
,  // measure 4
0000
0110
0000
0110
,  // measure 5
0000
1000
1000
1000
,  // measure 6
0000
0001
0001
0001
,  // measure 7
0000
1000
1000
1000
,  // measure 8
0000
1001
0000
1001
,  // measure 9
0000
0100
0100
0100
,  // measure 10
0000
0010
0010
0010
,  // measure 11
0000
0100
0100
0100
,  // measure 12
0000
0110
0000
0110
,  // measure 13
0000
1000
0000
1000
,  // measure 14
0000
0001
0000
0001
,  // measure 15
0000
1000
0000
1000
,  // measure 16
0000
0001
0000
0001
,  // measure 17
0000
0100
0100
0100
,  // measure 18
0000
0010
0010
0010
,  // measure 19
0000
1000
1000
1000
,  // measure 20
0000
0001
0001
0001
,  // measure 21
0000
1000
1000
1000
,  // measure 22
0000
0001
0001
0001
,  // measure 23
0000
0100
0100
0100
,  // measure 24
0000
0010
0010
0010
,  // measure 25
0000
0001
0001
0001
,  // measure 26
0000
1000
1000
1000
,  // measure 27
0000
0010
0010
0010
,  // measure 28
0000
0100
0100
0100
,  // measure 29
0000
0001
0001
0001
,  // measure 30
0000
0100
0100
0100
,  // measure 31
0000
0010
0010
0010
,  // measure 32
0000
0001
0001
0001
,  // measure 33
0000
1001
0000
1001
,  // measure 34
0000
0100
0100
0100
,  // measure 35
0000
0110
0000
0110
,  // measure 36
0000
0010
0010
0010
,  // measure 37
0000
1000
1000
1000
,  // measure 38
0000
0001
0001
0001
,  // measure 39
0000
1000
1000
1000
,  // measure 40
0000
1001
0000
1001
,  // measure 41
0000
0100
0100
0100
,  // measure 42
0000
0010
0010
0010
,  // measure 43
0000
0100
0100
0100
,  // measure 44
0000
0110
0000
0110
,  // measure 45
0000
0001
0001
0001
,  // measure 46
0000
1000
1000
1000
,  // measure 47
0000
0001
0001
0001
,  // measure 48
0000
1001
0000
1001
,  // measure 49
0000
0100
0100
0100
,  // measure 50
0000
0010
0010
0010
;
