#TITLE:Ruk Nar Cheak Cheak;
#SUBTITLE:;
#ARTIST:Kratae R-Siam;
#TITLETRANSLIT:;
#SUBTITLETRANSLIT:;
#ARTISTTRANSLIT:;
#CREDIT:;
#BANNER:Ruk Nar Cheak Cheak.png;
#BACKGROUND:Ruk Nar Cheak Cheak-bg.png;
#LYRICSPATH:;
#CDTITLE:;
#MUSIC:Ruk Nar Cheak Cheak.ogg;
#OFFSET:0.380;
#SAMPLESTART:35.220;
#SAMPLELENGTH:15.000;
#SELECTABLE:YES;
#BPMS:0.000=134.000;
#STOPS:;
#BGCHANGES:0.875=Ruk Nar Cheak Cheak.avi=1.000=1=1=0,
99999=-nosongbg-=1.000=0=0=0 // don't automatically add -songbackground-
;

//---------------dance-single - Destrier75----------------
#NOTES:
     dance-single:
     Destrier75:
     Hard:
     10:
     0.458,0.409,0.125,0.000,0.000:
0000
0000
0000
0000
,
0000
0000
0000
0000
,
0000
0000
0000
0000
,
0000
0000
1000
0010
1000
0010
1000
0010
,
1000
0010
1000
0100
1000
0100
1000
0100
,
1000
0010
1000
0000
0100
0000
0001
0000
,
0101
0000
0001
0100
0001
0100
0001
0100
,
0001
0100
0001
0000
0010
0000
0100
0000
,
0101
0000
0100
0010
0100
0010
0100
0010
,
0100
0010
0100
0000
0001
0000
1000
0000
,
1001
0000
0001
0010
0001
0010
0001
0010
,
0001
0010
0001
0000
0010
0000
0100
0000
,
0110
0000
1000
0010
1000
0010
1000
0000
,
0100
0000
0010
0100
0010
0100
0010
0000
,
0001
1000
0001
0000
0100
0001
0100
0000
,
0010
1000
0010
0000
0010
0000
1000
0000
,
1010
0000
1000
0001
1000
0001
1000
0000
,
0100
0000
0001
0100
0001
0100
0001
0000
,
1000
0000
0010
0100
0010
0000
0100
0001
,
0100
0000
1000
0010
1000
0000
0100
0001
,
0100
0000
1000
0100
1000
0100
1000
0000
,
0010
0000
0100
0010
0100
0010
0100
0000
,
0001
0000
0100
0001
0100
0001
0100
0000
,
0010
0000
1000
0010
1000
0010
1000
0000
,
0010
0000
0100
0001
0100
0001
0100
0000
,
0010
0000
1000
0010
1000
0010
1000
0000
,
0001
0000
0100
0010
0100
0010
0100
0000
,
0001
1000
0001
1000
0001
1000
0001
0000
,
1001
0000
1000
0010
1000
0010
1000
0010
,
1000
0010
1000
0000
0001
0000
1000
0000
,
1001
0000
0001
0100
0001
0100
0001
0100
,
0001
0100
0001
0000
0100
0000
0001
0000
,
0101
0000
0100
0010
0100
0000
0001
0000
,
1000
0000
0001
1000
0001
0000
0100
0000
,
0001
0000
0100
0010
0100
0000
0001
0000
,
0100
0000
0010
0100
0010
0000
1000
0000
,
0010
0000
1000
0010
1000
0000
0100
0001
,
0100
0000
0010
1000
0010
0000
0100
0001
,
0100
0000
1000
0010
1000
0000
0100
0010
,
0100
0000
0001
0100
0001
0100
0001
0000
,
1000
0000
0010
1000
0010
1000
0010
0000
,
0100
0000
0010
0100
0010
0100
0010
0000
,
0001
0000
0100
0001
0100
0001
0100
0000
,
0001
0000
1000
0010
1000
0010
1000
0000
,
0100
0000
0010
0100
0010
0100
0010
0000
,
0001
0000
0100
0001
0100
0001
0100
0000
,
0010
0000
1000
0010
1000
0010
1000
0000
,
0010
0000
0100
0001
0100
0001
0100
0000
,
0010
0000
0100
0010
0100
0010
0100
0000
,
0001
0000
1000
0010
1000
0010
1000
0000
,
0100
0000
0001
0100
0001
0100
0001
0000
,
0010
0000
1000
0010
1000
0010
1000
0000
,
0100
0000
0010
0100
0010
0100
0010
0000
,
0001
0000
0100
0001
0100
0001
0100
0000
,
0001
0000
1000
0010
1000
0010
1000
0000
,
0010
0000
1000
0010
1000
0010
1000
0010
,
1000
0000
1000
0001
1000
0001
1000
0001
,
1000
0010
1000
0000
0010
0000
0001
0000
,
1001
0000
0001
0100
0001
0100
0001
0100
,
0001
0100
0001
0000
0010
0000
0100
0000
,
0110
0000
1001
0000
0000
1001
0000
1001
,
1001
0000
0000
0000
;

//---------------dance-single - Destrier75----------------
#NOTES:
     dance-single:
     Destrier75:
     Medium:
     8:
     0.378,0.354,0.045,0.000,0.000:
0000
0000
0000
0000
,
0000
0000
0000
0000
,
0000
0000
0000
0000
,
0000
0000
1000
0001
1000
0000
0100
0001
,
0100
0000
0001
0100
0001
0000
1000
0010
,
1000
0100
0010
0100
,
0010
0000
0100
0001
0100
0000
1000
0100
,
1000
0100
0001
0100
,
0001
0000
1000
0001
1000
0000
0100
0001
,
0100
0010
1000
0010
,
1000
0000
0100
0010
0100
0000
0001
0100
,
0001
0100
0001
0100
,
0001
0000
1000
0100
1000
0000
0100
0000
,
0010
0000
0001
0100
0001
0000
0010
0000
,
1000
0000
0100
1000
0100
0000
0001
0000
,
0100
0000
0001
0010
0001
0000
1000
0000
,
0100
0000
1000
0100
1000
0000
0010
0000
,
0100
0000
0010
0100
0010
0000
0010
0000
,
0001
0000
1000
0001
1000
0000
0001
0000
,
0100
0000
0001
0100
0001
0000
0100
0000
,
0010
0000
1000
0010
1000
0000
0100
0000
,
0010
0000
0100
0001
0100
0000
0001
0000
,
1000
0000
1000
0001
1000
0000
0100
0000
,
0010
0000
0100
0010
0100
0000
0001
0000
,
1000
0000
0001
0100
0001
0000
1000
0000
,
0010
0000
1000
0010
1000
0000
0100
0000
,
0010
0000
0100
0001
0100
0000
0010
0000
,
0100
0000
0001
0100
0001
0000
1000
0010
,
1000
0000
0100
0010
0100
0000
0001
0100
,
0001
0100
0001
0100
,
0001
0000
0010
1000
0010
0000
1000
0100
,
1000
1000
0001
1000
,
0001
0000
0100
0010
0100
0000
0010
0000
,
0100
0000
0001
0100
0001
0000
1000
0000
,
0100
0000
1000
0010
1000
0000
0100
0000
,
0001
0000
0100
0001
0100
0000
0001
0000
,
1000
1000
1001
0001
,
0101
0100
0110
0010
,
1010
0000
1000
0010
1000
0000
0100
0000
,
0001
0000
0010
1000
0010
0000
0100
0000
,
0001
0000
1000
0001
1000
0000
0100
0000
,
0010
0000
0001
0100
0001
0000
0010
0000
,
1000
0000
0010
0100
0010
0000
1000
0000
,
0010
0000
1000
0001
1000
0000
0001
0000
,
0100
0000
0001
0100
0001
0000
1000
0000
,
0010
0000
1000
0010
1000
0000
0100
0000
,
0010
0000
0100
0001
0100
0000
0001
0000
,
1000
0000
0010
0100
0010
0000
1000
0010
,
1000
0000
0100
0010
0100
0000
0001
0000
,
1000
0000
0001
0100
0001
0000
0100
0000
,
0010
0000
1000
0010
1000
0000
0100
0000
,
0001
0000
0100
0001
0100
0000
0010
0000
,
0100
0000
1000
0010
1000
0000
0010
0000
,
0100
0000
0001
1000
0001
0000
0100
0000
,
0001
0000
1000
0010
1000
0000
0100
0000
,
0010
0000
1000
0001
1000
0000
0100
0001
,
0100
0000
1000
0010
1000
0000
0100
0010
,
0100
0001
1000
0001
,
1000
0000
0001
0100
0001
0000
1000
0010
,
1000
1000
0001
1000
,
0001
0000
1000
0000
0000
1000
0000
1000
,
1001
0000
0000
0000
;

//---------------dance-single - Destrier75----------------
#NOTES:
     dance-single:
     Destrier75:
     Easy:
     4:
     0.296,0.245,0.009,0.018,0.000:
0000
0000
0000
0000
,
0000
0000
0000
0000
,
0000
0000
0000
0000
,
0000
0220
0000
0000
,
0330
0100
0100
0100
,
0001
0100
0100
0100
,
1000
0100
0100
0100
,
0010
0100
0100
0100
,
0001
0010
0010
0010
,
1000
0100
0100
0100
,
0001
0010
0010
0010
,
0100
1000
1000
1000
,
0100
1000
0001
1000
,
0001
0100
0001
0100
,
0001
0010
1000
0010
,
1000
0100
0010
0100
,
0010
0001
0100
0001
,
0100
1000
0010
1000
,
0010
0100
0010
0100
,
0010
0001
0100
0001
,
0100
0010
0010
0010
,
0001
1000
1000
1000
,
0010
0100
0100
0100
,
0001
0100
0100
0100
,
0010
0100
0100
0100
,
1000
0001
0001
0001
,
0100
0010
0010
0010
,
0100
0001
0001
0001
,
0100
1000
1000
1000
,
0010
0100
0100
0100
,
0001
0010
0010
0010
,
0100
1000
1000
1000
,
0100
0001
0100
0001
,
0100
1000
0010
1000
,
0010
0100
0001
0100
,
0001
1000
0010
1000
,
0010
1000
1000
1000
,
1000
0001
0001
0001
,
0001
1000
0001
1000
,
0001
0100
0001
0100
,
0001
0100
0100
0100
,
0001
0100
0100
0100
,
1000
0100
0100
0100
,
0010
0001
0001
0001
,
0010
0100
0100
0100
,
1000
0100
0100
0100
,
0010
0001
0001
0001
,
1000
0100
0100
0100
,
0001
0010
0010
0010
,
1000
0100
0100
0100
,
0010
0001
0001
0001
,
1000
0100
0100
0100
,
0010
0001
0001
0001
,
1000
0100
0100
0100
,
0010
0100
0100
0100
,
0001
0010
0010
0010
,
1000
0100
0100
0100
,
0010
0001
0001
0001
,
1000
0010
0010
0010
,
1000
0001
0001
0001
,
0100
0000
0010
0000
0000
0010
0000
0010
,
0010
0000
0000
0000
;

//---------------dance-single - Destrier75----------------
#NOTES:
     dance-single:
     Destrier75:
     Beginner:
     2:
     0.207,0.218,0.054,0.000,0.000: // measure 1
0000
0000
0000
0000
,  // measure 2
0000
0000
0000
0000
,  // measure 3
0000
0000
0000
0000
,  // measure 4
0000
1000
0000
1000
,  // measure 5
0000
0100
0100
0100
,  // measure 6
0000
0010
0010
0010
,  // measure 7
0000
0100
0100
0100
,  // measure 8
0000
0001
0001
0001
,  // measure 9
0000
1000
1000
1000
,  // measure 10
0000
0001
0001
0001
,  // measure 11
0000
0010
0010
0010
,  // measure 12
0000
1000
1000
1000
,  // measure 13
0000
0001
0000
0001
,  // measure 14
0000
0100
0000
0100
,  // measure 15
0000
0010
0000
0010
,  // measure 16
0000
1000
0000
1000
,  // measure 17
0000
0100
0000
0100
,  // measure 18
0000
0010
0000
0010
,  // measure 19
0000
0001
0000
0001
,  // measure 20
0000
1000
0000
1000
,  // measure 21
0000
0001
0001
0001
,  // measure 22
0000
1000
1000
1000
,  // measure 23
0000
0010
0010
0010
,  // measure 24
0000
0100
0100
0100
,  // measure 25
0000
0001
0001
0001
,  // measure 26
0000
1000
1000
1000
,  // measure 27
0000
0010
0010
0010
,  // measure 28
0000
0100
0100
0100
,  // measure 29
0000
0001
0001
0001
,  // measure 30
0000
1000
1000
1000
,  // measure 31
0000
0010
0010
0010
,  // measure 32
0000
0100
0100
0100
,  // measure 33
0000
0001
0000
0001
,  // measure 34
0000
1000
0000
1000
,  // measure 35
0000
0010
0000
0010
,  // measure 36
0000
0100
0000
0100
,  // measure 37
0000
1001
0000
1001
,  // measure 38
0000
1001
0000
1001
,  // measure 39
0000
0100
0000
0100
,  // measure 40
0000
0010
0000
0010
,  // measure 41
0000
1000
1000
1000
,  // measure 42
0000
0001
0001
0001
,  // measure 43
0000
0100
0100
0100
,  // measure 44
0000
0010
0010
0010
,  // measure 45
0000
1000
1000
1000
,  // measure 46
0000
0001
0001
0001
,  // measure 47
0000
0100
0100
0100
,  // measure 48
0000
0010
0010
0010
,  // measure 49
0000
0100
0100
0100
,  // measure 50
0000
0001
0001
0001
,  // measure 51
0000
1000
1000
1000
,  // measure 52
0000
0010
0010
0010
,  // measure 53
0000
0100
0100
0100
,  // measure 54
0000
0001
0001
0001
,  // measure 55
0000
1000
1000
1000
,  // measure 56
0000
0010
0010
0010
,  // measure 57
0000
0100
0100
0100
,  // measure 58
0000
0010
0010
0010
,  // measure 59
0000
0001
0001
0001
,  // measure 60
0000
1000
1000
1000
,  // measure 61
0000
1001
0000
0000
,  // measure 62
1001
0000
0000
0000
;

//---------------dance-single - Destrier75----------------
#NOTES:
     dance-single:
     Destrier75:
     Challenge:
     12:
     0.579,0.518,0.197,0.357,0.000:
0000
0000
0000
0000
,
0000
0000
0000
0000
,
0000
0000
0000
0000
,
1001
0000
1000
0100
0010
0001
0010
0100
,
1000
0100
0010
0001
0010
0001
0010
0001
,
0010
0200
0000
0310
0001
0010
0102
0000
,
1003
0000
1000
0010
1000
0100
1000
0100
,
0010
0200
0000
0301
0100
0001
0012
0000
,
1003
0000
1000
0100
1000
0100
1000
0100
,
0010
0002
0000
1003
0001
1000
0102
0000
,
0013
0000
1000
0100
1000
0100
1000
0100
,
0010
0002
0000
0103
0001
0100
0201
0000
,
0310
0200
0320
0230
,
0301
1000
0000
0001
1000
0000
2001
0000
,
3010
0100
0010
0100
0020
0000
0130
0000
,
1000
2000
0000
0010
3010
0000
1010
0000
,
0110
0002
0203
0302
,
0103
0001
0000
0100
0001
0000
0102
0000
,
0003
1000
0010
1000
0020
0000
0230
0000
,
0010
0310
0000
0100
0001
0100
0001
0010
,
0100
1000
0001
0100
0010
0001
1000
0010
,
0001
0100
0001
1000
0100
1000
0100
0001
,
0100
0010
1000
0001
0100
0010
1000
0001
,
0100
0010
0001
1000
0001
0100
0010
1000
,
0001
0100
0010
1000
0100
0010
0001
0100
,
0010
0100
0001
1000
0001
0100
1000
0100
,
0010
0001
1000
0001
1000
0010
0100
0010
,
1000
0001
1000
0001
0100
0010
0100
1000
,
0001
0100
1001
0001
1000
0001
1000
0001
,
1000
0200
0000
0301
0010
0100
2100
0000
,
3100
0000
1000
0001
0100
0010
1000
0001
,
0100
0002
0000
1003
0010
1000
0102
0000
,
0013
0000
1000
0010
2000
0000
3020
0000
,
0130
0001
0000
0001
0100
0000
0012
0000
,
0103
1000
0010
0100
0002
0000
0023
0000
,
0130
0010
0000
0010
0100
0000
0210
0000
,
0301
0020
2030
3002
,
0100
0100
0000
0100
0100
0000
0200
0000
,
0303
0100
0001
0100
0001
0000
0101
0000
,
0010
1000
0000
1000
0010
1000
0010
1000
,
0100
0010
0001
0010
0001
0010
0100
1000
,
0100
1000
0100
0010
0001
0100
0001
1000
,
0001
0100
0010
0001
1000
0001
0100
0010
,
0001
1000
0001
0100
0010
0001
0100
0010
,
1000
0001
0100
0010
0001
1000
0001
1000
,
0100
0010
0100
0010
0001
0100
0001
0010
,
0100
1000
0100
1000
0100
0001
0100
0001
,
0100
0002
0000
1003
0001
1000
0001
0100
,
0001
0010
0100
1000
0001
0100
0010
0100
,
0001
1000
0001
0101
0001
1000
0100
0010
,
0001
0100
0010
0001
0010
0100
1000
0100
,
0010
0001
1000
0001
0100
0010
1000
0001
,
0100
0010
1000
0010
0100
0001
0100
1000
,
0100
0010
0001
0100
0001
0100
1000
0100
,
0010
0001
0100
0001
0100
0010
1000
0001
,
1000
0002
0000
1003
0100
0010
0001
0100
,
0001
0100
0001
0100
0001
0010
0100
1000
,
0100
2000
0000
3010
0001
0010
0201
0000
,
0310
0000
1000
0001
1000
0001
1000
0100
,
0010
0002
0000
0103
0010
1000
2001
0000
,
3010
0000
1010
0000
0000
1010
0000
1010
,
1010
0000
0000
0000
;
