#TITLE:Robot Loves Smoked-Salmon;
#SUBTITLE:;
#ARTIST:BEMANI Sound Team "The Foie-Gras of The Sea";
#TITLETRANSLIT:;
#SUBTITLETRANSLIT:;
#ARTISTTRANSLIT:;
#CREDIT:;
#BANNER:Robot Loves Smoked-Salmon.png;
#BACKGROUND:Robot Loves Smoked-Salmon-BG.png;
#LYRICSPATH:;
#CDTITLE:;
#MUSIC:Robot Loves Smoked-Salmon.ogg;
#OFFSET:0.140;
#SAMPLESTART:50.780;
#SAMPLELENGTH:15.000;
#SELECTABLE:YES;
#BPMS:0.000=120.000;
#STOPS:;
#BGCHANGES:;

//---------------dance-single - Destrier75----------------
#NOTES:
     dance-single:
     Destrier75:
     Hard:
     10:
     0.389,0.375,0.067,0.209,0.000:
0000
0000
0000
0000
,
0000
0000
0000
0000
,
0000
0000
0000
0000
,
0000
0000
0000
0000
,
0000
0000
0000
0000
,
0000
0000
0000
0000
1000
0010
1000
0010
,
1000
0000
0100
0000
0001
0100
0001
0100
,
0001
0000
0010
0000
1000
0100
1000
0100
,
1000
0000
0010
0000
0001
0100
0001
0100
,
0001
0000
1001
0000
1000
0010
1000
0010
,
2000
0000
3100
0000
0100
0001
0100
0001
,
0200
0000
0310
0000
0001
0100
0001
0100
,
0002
0000
0103
0000
0100
0010
0100
0010
,
0200
0000
0310
0000
1000
0010
1000
0010
,
2000
0000
3001
0000
0001
0100
0001
0100
,
0002
0000
0103
0000
0100
0010
0100
0010
,
0200
0000
0310
0000
0100
0001
0100
0001
,
0200
0000
0310
0000
0100
0010
0100
0010
,
0100
0000
0001
0000
1000
0001
1000
0001
,
1000
0000
0010
0000
1000
0010
1000
0010
,
1000
0000
0010
0000
0100
0001
0100
0001
,
0100
0000
0010
0000
1000
0001
1000
0001
,
1000
0000
0010
0000
0100
0010
0100
0010
,
0100
0000
0001
0000
0100
0001
0100
0001
,
0100
0000
0010
0000
1000
0010
1000
0010
,
1000
0000
1010
0000
1000
0001
1000
0001
,
2000
0000
3001
0000
0001
0100
0001
0100
,
0002
0000
0103
0000
1000
0010
1000
0010
,
2000
0000
3010
0000
0100
0001
0100
0001
,
0200
0000
0301
0000
0100
0010
0100
0010
,
0200
0000
0301
0000
1000
0010
1000
0010
,
2000
0000
3001
0000
0100
0010
0100
0010
,
0200
0000
0301
0000
1000
0001
1000
0001
,
2000
3001
1001
0001
,
0001
0100
0001
0200
0010
0000
0010
0000
,
0301
1000
0001
2000
0001
0000
0001
0000
,
3001
0100
0001
0200
0001
0000
0001
0000
,
0301
0010
0100
0001
0101
0000
1000
0000
,
1000
0001
1000
0002
1000
0000
1003
0000
,
1000
0010
1000
0020
0100
0000
0100
0000
,
0130
0001
0100
0002
1000
0000
1000
0000
,
1003
0010
0001
1000
1001
0000
0001
0010
,
0100
0000
0100
0000
0001
0000
1000
0001
,
1000
0000
0100
0000
0010
0000
1000
0010
,
1000
0000
0100
0000
0010
0000
0100
0001
,
0100
0001
0100
0000
0101
0000
0100
0010
,
0100
0000
0010
0000
1000
0000
0100
0001
,
0100
0000
0010
0000
1000
0000
0100
0001
,
0100
0000
0010
0000
1000
0000
0010
0100
,
0010
0110
0000
0000
;

//---------------dance-single - Destrier75----------------
#NOTES:
     dance-single:
     Destrier75:
     Medium:
     7:
     0.318,0.304,0.067,0.133,0.000:
0000
0000
0000
0000
,
0000
0000
0000
0000
,
0000
0000
0000
0000
,
0000
0000
0000
0000
,
0000
0000
0000
0000
,
0000
0000
0000
0000
1000
0010
1000
0000
,
0001
0000
0100
0000
0010
0100
0010
0000
,
1000
0000
0010
0000
0100
0001
0100
0000
,
0001
0000
0100
0000
0001
1000
0001
0000
,
1000
0000
1001
0000
1000
0010
1000
0000
,
0100
0000
0001
0000
0100
0001
0100
0000
,
0010
0000
1000
0000
1000
0010
1000
0000
,
0100
0000
0001
0000
0100
0001
0100
0000
,
0010
0000
1000
0000
0100
0001
0100
0000
,
0010
0000
1000
0000
0001
0100
0001
0000
,
0100
0000
0001
0000
1000
0010
1000
0000
,
0100
0000
0001
0000
1000
0001
1000
0000
,
0100
0001
2010
0010
,
3020
0001
0032
1000
,
2003
0100
3200
0010
,
0320
0001
0032
0100
,
0203
0000
0010
0000
0310
0001
0010
0000
,
1000
0000
0010
0000
1000
0001
1000
0000
,
0100
0000
0001
0000
0100
0001
0100
0000
,
0010
0000
1000
0000
0010
0100
0010
0000
,
1000
0000
1001
0000
0001
0100
0001
0000
,
0010
0000
0100
0000
1000
0010
1000
0000
,
0100
0000
0010
0000
0001
0100
0001
0000
,
0010
0000
0100
0000
1000
0010
1000
0000
,
0100
0000
0010
0000
0001
0100
0001
0000
,
0010
0000
0100
0000
1000
0010
1000
0000
,
0100
0000
0010
0000
0001
0100
0001
0000
,
0010
0000
0100
0000
1000
0001
1000
0000
,
0001
1001
0001
0100
,
1000
0001
2000
0000
0001
0000
3001
0000
,
0001
0100
0002
0000
0100
0000
0103
0000
,
1000
0010
2000
0000
0010
0000
3010
0000
,
1000
1010
1000
0010
,
1000
0001
2000
0000
0001
0000
3001
0000
,
0100
0001
0200
0000
0001
0000
0301
0000
,
1000
0010
2000
0000
0010
0000
3010
0000
,
1000
1001
0001
1000
,
0100
0010
0100
0000
0001
0000
1000
0000
,
0100
0010
0100
0000
0001
0000
0100
0000
,
1000
0010
1000
0000
0100
0000
0001
0000
,
0100
0001
0100
0000
0010
0000
1000
0000
,
0100
0001
0100
0000
0010
0000
0100
0000
,
1000
0010
1000
0000
0100
0000
0001
0000
,
0100
0010
0100
0000
1000
0000
0001
0000
,
0100
0110
0000
0000
;

//---------------dance-single - Destrier75----------------
#NOTES:
     dance-single:
     Destrier75:
     Easy:
     4:
     0.235,0.234,0.057,0.076,0.000: // measure 1
0000
0000
0000
0000
,  // measure 2
0000
0000
0000
0000
,  // measure 3
0000
0000
0000
0000
,  // measure 4
0000
0000
0000
0000
,  // measure 5
0000
0000
0000
0000
,  // measure 6
0000
0000
1000
0001
,  // measure 7
1000
0001
0100
0001
,  // measure 8
0100
0010
0100
0010
,  // measure 9
1000
0001
1000
0001
,  // measure 10
1000
1001
1000
0010
,  // measure 11
1000
0001
1000
0001
,  // measure 12
0100
0001
0100
0001
,  // measure 13
1000
0010
1000
0010
,  // measure 14
0100
0010
0100
0010
,  // measure 15
1000
0001
1000
0001
,  // measure 16
0100
0001
0100
0001
,  // measure 17
1000
0001
1000
0001
,  // measure 18
1000
0000
2000
0000
,  // measure 19
0001
0000
0001
0000
,  // measure 20
0001
0000
3002
0000
,  // measure 21
0100
0000
0100
0000
,  // measure 22
0100
0000
0103
0010
,  // measure 23
0100
0010
0100
0010
,  // measure 24
0100
0010
0100
0001
,  // measure 25
1000
0001
1000
0001
,  // measure 26
0010
0100
0110
0100
,  // measure 27
0010
0100
0010
0100
,  // measure 28
0010
1000
0010
1000
,  // measure 29
0001
0100
0001
0100
,  // measure 30
1000
0010
1000
0010
,  // measure 31
0100
0001
0100
0001
,  // measure 32
0100
0010
0100
0010
,  // measure 33
1000
0001
1000
0001
,  // measure 34
1000
0001
1001
0000
,  // measure 35
1000
0010
2000
0000
,  // measure 36
3010
0001
0020
0000
,  // measure 37
1030
0010
2000
0000
,  // measure 38
3001
1000
1001
0000
,  // measure 39
0001
0010
0002
0000
,  // measure 40
1003
0100
2000
0000
,  // measure 41
3001
0100
0002
0000
,  // measure 42
1003
1001
1000
0010
,  // measure 43
1000
0001
1000
0001
,  // measure 44
1000
0010
1000
0010
,  // measure 45
0100
0001
0100
0001
,  // measure 46
0100
0010
0100
0010
,  // measure 47
1000
0010
1000
0010
,  // measure 48
0100
0001
0100
0001
,  // measure 49
1000
0001
1000
0001
,  // measure 50
1000
1001
0000
0000
;

//---------------dance-single - Destrier75----------------
#NOTES:
     dance-single:
     Destrier75:
     Beginner:
     2:
     0.152,0.164,0.000,0.000,0.000:
0000
0000
0000
0000
,
0000
0000
0000
0000
,
0000
0000
0000
0000
,
0000
0000
0000
0000
,
0000
0000
0000
0000
,
0000
0000
1000
0000
,
1000
0000
0001
0000
,
0001
0000
1000
0000
,
1000
0000
0001
0000
,
0001
0001
0000
0000
,
1000
1000
1000
0000
,
0001
0001
0001
0000
,
0100
0100
0100
0000
,
0010
0010
0010
0000
,
0100
0100
0100
0000
,
0010
0010
0010
0000
,
1000
1000
1000
0000
,
0001
0001
0001
0000
,
0001
0000
0001
0000
,
1000
0000
1000
0000
,
0100
0000
0100
0000
,
0010
0000
0010
0000
,
0100
0000
0100
0000
,
0001
0000
0001
0000
,
1000
1000
1000
0000
,
0001
0001
0000
0000
,
0100
0100
0100
0000
,
0010
0010
0010
0000
,
0100
0100
0100
0000
,
0010
0010
0010
0000
,
0100
0100
0100
0000
,
1000
1000
1000
0000
,
0001
0001
0001
0000
,
1000
1000
0000
0000
,
1000
1000
1000
0000
,
0001
0001
0001
0000
,
1000
1000
1000
0000
,
0001
0001
0000
0000
,
0100
0100
0100
0000
,
0010
0010
0010
0000
,
0100
0100
0100
0000
,
0010
0010
1000
0000
,
1000
0000
0001
0000
,
0001
0000
1000
0000
,
1000
0000
0001
0000
,
0001
0000
1000
0000
,
1000
0000
0001
0000
,
0001
0000
1000
0000
,
1000
0000
0001
0000
,
0001
0001
0000
0000
;
