#TITLE:Ride On;
#SUBTITLE:;
#ARTIST:WaVe;
#TITLETRANSLIT:;
#SUBTITLETRANSLIT:;
#ARTISTTRANSLIT:;
#CREDIT:;
#BANNER:Ride On.png;
#BACKGROUND:Ride On-bg.png;
#LYRICSPATH:;
#CDTITLE:;
#MUSIC:Ride On.ogg;
#OFFSET:0.240;
#SAMPLESTART:58.300;
#SAMPLELENGTH:15.000;
#SELECTABLE:YES;
#BPMS:0.000=132.000;
#STOPS:;
#BGCHANGES:0.500=Ride On.avi=1.000=1=1=0,
99999=-nosongbg-=1.000=0=0=0 // don't automatically add -songbackground-
;

//---------------dance-single - Destrier75----------------
#NOTES:
     dance-single:
     Destrier75:
     Hard:
     11:
     0.434,0.480,0.235,0.235,0.000: // measure 1
0000
0000
0000
0000
,  // measure 2
0000
0000
0000
0000
,  // measure 3
0000
0000
0000
0000
,  // measure 4
0000
0000
0000
0000
,  // measure 5
0000
0000
1000
0010
1000
0010
1000
0000
,  // measure 6
0010
0000
0100
0001
0100
0001
0100
0000
,  // measure 7
0001
0000
1000
0001
1000
0001
1000
0001
,  // measure 8
1000
0001
2000
0000
0000
0000
0000
0000
,  // measure 9
0000
3002
0000
0000
0000
0200
0000
0000
,  // measure 10
0303
0000
1000
0010
1000
0010
1000
0000
,  // measure 11
0100
0000
0001
0010
0001
0010
0001
0000
,  // measure 12
0100
0000
0010
0100
0010
0100
0010
0000
,  // measure 13
1000
0000
0001
0100
0001
0100
0001
0000
,  // measure 14
0010
0000
1000
0010
1000
0000
0100
0000
,  // measure 15
0101
0000
0001
0100
0001
0000
0010
0000
,  // measure 16
1010
0000
0100
0001
0100
0000
0010
0000
,  // measure 17
1010
0000
0100
0010
0100
0000
0001
0000
,  // measure 18
1001
0000
0001
0100
0001
0000
0100
0000
,  // measure 19
1010
0000
0100
0001
0100
0000
0010
0000
,  // measure 20
1010
0000
0100
0010
0100
0000
0001
0000
,  // measure 21
1001
0000
1000
0010
1000
0000
0010
0000
,  // measure 22
1010
0000
1000
0001
1000
0001
1000
0000
,  // measure 23
0001
0000
0100
0001
0100
0001
0100
0000
,  // measure 24
0010
0000
1000
0010
1000
0010
1000
0000
,  // measure 25
0100
0000
0001
0100
0001
0100
0001
0000
,  // measure 26
0010
0000
1000
0010
1000
0010
1000
0000
,  // measure 27
0100
0000
0010
0001
0010
0001
0010
0000
,  // measure 28
1000
2000
0010
3020
,  // measure 29
0001
0032
1000
2003
,  // measure 30
0010
3020
0100
0230
,  // measure 31
0001
0002
0000
0000
,  // measure 32
0303
1001
0000
1000
0001
2000
0000
0000
,  // measure 33
3001
0000
1000
0000
1001
0000
0001
1001
,  // measure 34
0000
1000
1010
0000
1000
0010
1000
0100
,  // measure 35
1000
0000
2001
0000
3020
0000
1030
1010
,  // measure 36
0000
1000
0001
1000
0001
1000
0001
1000
,  // measure 37
0001
0000
1000
0010
1000
0010
1000
0000
,  // measure 38
0001
0000
0100
0010
0100
0010
0100
0000
,  // measure 39
1000
0000
0100
0001
0100
0001
0100
0000
,  // measure 40
0001
0000
1000
0010
1000
0010
1000
0000
,  // measure 41
1010
0000
2010
0000
3002
0000
0013
1010
,  // measure 42
0000
0010
0011
0000
1000
0001
1000
0001
,  // measure 43
1000
0000
0102
0000
2003
0000
3010
1010
,  // measure 44
0000
0100
0001
0100
0001
0100
0001
0100
,  // measure 45
0001
0000
1000
0001
1000
0001
1000
0000
,  // measure 46
0010
0000
0100
0010
0100
0010
0100
0000
,  // measure 47
0001
2000
3020
0230
,  // measure 48
0302
1003
1001
1001
,  // measure 49
1001
0000
1000
0010
1000
0010
1000
0000
,  // measure 50
0010
0000
0100
0001
0100
0001
0100
0000
,  // measure 51
0010
2000
0001
0010
,  // measure 52
0001
3020
0001
0100
,  // measure 53
0001
0130
0000
0000
;

//---------------dance-single - Destrier75----------------
#NOTES:
     dance-single:
     Destrier75:
     Medium:
     7:
     0.340,0.373,0.194,0.153,0.000:
0000
0000
0000
0000
,
0000
0000
0000
0000
,
0000
0000
0000
0000
,
0000
0000
0000
0000
,
0000
0000
1000
0010
1000
0000
0010
0000
,
0100
0000
0001
0010
0001
0000
1000
0000
,
0010
0000
1000
0001
1000
0000
0001
1000
,
0001
2002
0000
0000
,
0000
0000
0000
0000
,
3003
0000
1000
0010
1000
0000
0010
0000
,
0100
0000
0001
0100
0001
0000
1000
0000
,
0010
0000
0100
0010
0100
0000
0001
0000
,
1000
0000
0001
1000
0001
0000
1000
0000
,
0010
0000
1000
0001
1000
0000
0001
0000
,
0100
0000
1000
0001
1000
0000
0100
0000
,
0010
0000
0100
0010
0100
0000
0001
0000
,
1000
0000
0100
0001
0100
0000
0010
0000
,
1000
0000
1000
0001
1000
0000
0100
0000
,
0010
0000
0001
0100
0001
0000
0010
0000
,
1000
0000
0010
1000
0010
0000
0100
0000
,
0010
0000
0100
0010
0100
0000
0001
0000
,
0100
0000
0001
0100
0001
0000
1000
0000
,
0010
0000
1000
0010
1000
0000
0001
0000
,
0100
0000
0001
1000
0001
0000
1000
0000
,
0010
0000
1000
0010
1000
0000
0100
0000
,
0010
0000
2020
0000
3030
2020
0000
0000
,
0000
3030
0202
0000
0303
0202
0000
0000
,
0303
2000
0000
0000
,
0000
3002
0000
0000
,
0000
2003
0000
0000
,
3000
1001
0000
0000
0000
0000
0000
0000
,
0000
0110
0000
0000
0000
0000
0000
0000
,
1001
0000
0001
0000
1001
0000
1000
0010
,
0000
0010
1000
0000
1000
0001
1000
0000
,
1001
0000
1000
0000
1010
0000
0010
1000
,
0000
1000
0001
1000
0001
0000
0001
0000
,
1001
0000
1000
0010
1000
0000
0100
0000
,
0001
0000
0100
0001
0100
0000
0001
0000
,
1000
0000
0001
1000
0001
0000
1000
0000
,
0010
0000
0100
0001
0100
0000
0001
0000
,
1001
0000
1000
0000
1010
0000
0010
1000
,
0000
1000
0010
0000
0100
0001
0100
0000
,
0101
0000
0001
0000
1001
0000
0001
0100
,
0000
0001
0100
0001
0100
0000
0001
0000
,
0101
0000
1000
0001
1000
0000
0010
0000
,
0100
0000
0001
1000
0001
0000
0100
0000
,
0001
0000
1000
0010
1000
0000
0100
0001
,
0100
0110
0000
0000
,
0000
0000
1000
0001
1000
0000
0010
0000
,
0001
0000
1000
0010
1000
0000
0100
0000
,
0001
2001
0000
0001
,
0000
3002
0000
1000
,
0000
1003
0000
0000
;

//---------------dance-single - Destrier75----------------
#NOTES:
     dance-single:
     Destrier75:
     Easy:
     5:
     0.259,0.267,0.051,0.122,0.000:
0000
0000
0000
0000
,
0000
0000
0000
0000
,
0000
0000
0000
0000
,
0000
0000
0000
0000
,
0000
1000
0001
1000
,
0000
0001
1000
0001
,
0000
1000
0001
1000
,
0001
2002
0000
0000
,
0000
0000
0000
0000
,
3003
0100
0010
0100
,
0010
1000
0001
1000
,
0001
1000
0010
1000
,
0010
0100
0001
0100
,
0001
2000
0000
0010
,
3010
0200
0000
0010
,
0310
0002
0000
1000
,
1003
2000
0000
0010
,
3010
0200
0000
0010
,
0310
0002
0000
1000
,
1003
0200
0000
0001
,
0301
0002
0000
1000
,
1003
1000
0010
1000
,
0010
0100
0001
0100
,
0001
0010
0100
0010
,
0100
1000
0010
1000
,
0010
0100
0001
0100
,
0001
0010
1000
0010
,
1000
0001
1000
0001
,
1000
0001
1000
0001
,
1000
0001
1000
0001
,
1000
1001
0000
0000
,
0000
0110
0000
0000
,
1001
1000
0010
1000
,
0010
0100
0001
0100
,
0001
0010
1000
0010
,
1000
0100
0001
0100
,
0001
0010
0010
0100
,
0100
0001
0001
1000
,
1000
0001
0001
1000
,
1000
0001
0001
0100
,
0100
0001
0100
0001
,
0100
1000
0010
1000
,
0010
0100
0001
0100
,
0001
0010
1000
0010
,
1000
0001
0001
1000
,
1000
0010
0010
0100
,
0100
0001
0001
1000
,
1000
1001
0000
0000
,
0000
0100
0100
0100
,
0100
0010
0010
0010
,
0010
2000
0000
0000
,
0000
3002
0000
0000
,
0000
0003
0000
0000
;

//---------------dance-single - Destrier75----------------
#NOTES:
     dance-single:
     Destrier75:
     Beginner:
     2:
     0.182,0.158,0.051,0.000,0.000:
0000
0000
0000
0000
,
0000
0000
0000
0000
,
0000
0000
0000
0000
,
0000
0000
0000
0000
,
0000
0100
0000
0100
,
0000
0010
0000
0010
,
0000
0100
0000
0100
,
0000
1001
0000
0000
,
0000
0000
0000
0000
,
0000
1000
1000
1000
,
0000
0001
0001
0001
,
0000
0100
0100
0100
,
0000
0010
0010
0010
,
0000
1000
0000
1000
,
0000
0001
0000
0001
,
0000
1000
0000
1000
,
0000
0001
0000
0001
,
0000
0100
0000
0100
,
0000
0010
0000
0010
,
0000
0100
0000
0100
,
0000
0010
0000
0010
,
0000
1000
1000
1000
,
0000
0001
0001
0001
,
0000
1000
1000
1000
,
0000
0001
0001
0001
,
0000
0100
0100
0100
,
0000
0010
0010
0010
,
0000
0100
0100
0100
,
0000
0010
0010
0010
,
0000
1000
1000
1000
,
0000
1001
0000
0000
,
0000
0110
0000
0000
,
0000
1000
1000
1000
,
0000
0001
0001
0001
,
0000
1000
1000
1000
,
0000
0001
0001
0001
,
0000
0100
0100
0100
,
0000
0010
0010
0010
,
0000
0100
0100
0100
,
0000
0010
0010
0010
,
0000
0001
0001
0001
,
0000
1000
1000
1000
,
0000
0001
0001
0001
,
0000
0100
0100
0100
,
0000
0010
0010
0010
,
0000
1000
1000
1000
,
0000
0001
0001
0001
,
0000
0100
0100
0100
,
0000
0001
0000
0001
,
0000
1000
0000
1000
,
0000
0001
0000
1001
,
0000
1000
0000
1001
;
