#TITLE:Pit-a-Pet;
#SUBTITLE:;
#ARTIST:YUKIKA;
#TITLETRANSLIT:;
#SUBTITLETRANSLIT:;
#ARTISTTRANSLIT:;
#CREDIT:;
#BANNER:Pit-a-Pet.png;
#BACKGROUND:Pit-a-Pet-bg.png;
#LYRICSPATH:;
#CDTITLE:;
#MUSIC:Pit-a-Pet.ogg;
#OFFSET:0.440;
#SAMPLESTART:87.960;
#SAMPLELENGTH:15.900;
#SELECTABLE:YES;
#BPMS:0.000=116.000;
#STOPS:;
#BGCHANGES:0.875=Pit-A-Pet.avi=1.000=1=1=0,
99999=-nosongbg-=1.000=0=0=0 // don't automatically add -songbackground-
;

//---------------dance-single - Destrier75----------------
#NOTES:
     dance-single:
     Destrier75:
     Beginner:
     2:
     0.138,0.191,0.023,0.015,0.000:
0000
0000
0000
0000
,
0000
0000
0000
0000
,
0000
0000
0000
0000
,
0000
0000
0000
0000
,
0000
0000
0000
0000
,
0100
0000
0100
0000
,
0010
0000
0010
0000
,
0100
0000
0100
0000
,
0000
0010
0000
0000
,
1000
0000
1000
0000
,
1000
0000
1000
0000
,
0001
0000
0001
0000
,
0001
0000
0001
0000
,
0100
0100
0100
0000
,
0010
0010
0010
0000
,
0100
0100
0100
0000
,
1001
0000
0000
0000
,
1000
1000
1000
0000
,
0001
0001
0001
0000
,
1000
1000
1000
0000
,
0001
0001
0001
0000
,
0100
0100
0100
0000
,
0010
0010
0010
0000
,
0100
0100
0100
0000
,
0010
0010
0010
0000
,
1000
0000
0000
0000
,
0001
0000
0000
0000
,
1000
0000
0000
0000
,
0001
0000
0000
0000
,
1000
0000
0000
0000
,
0001
0000
0000
0000
,
1000
0000
0000
0000
,
0001
0000
0000
0000
,
0100
0000
0100
0000
,
0010
0000
0010
0000
,
0100
0000
0100
0000
,
0010
0000
0010
0000
,
1000
1000
1000
0000
,
0001
0001
0001
0000
,
1000
1000
1000
0000
,
0001
0001
0001
0000
,
2002
0000
0000
0000
,
0000
0000
3003
0000
,
1000
0000
1000
0000
,
1000
0000
1000
0000
,
1000
0000
1000
0000
,
1000
0000
1000
0000
,
0001
0000
0001
0000
,
0001
0000
0001
0000
,
0001
0000
0001
0000
,
0001
0000
0000
0000
,
1000
1000
1000
0000
,
0001
0001
0001
0000
,
1000
1000
1000
0000
,
0001
0001
0001
0000
,
0100
0100
0100
0000
,
0010
0010
0010
0000
,
0100
0100
0100
0000
,
0010
0010
0010
0000
,
0100
0000
0000
0000
,
0100
0000
0000
0000
,
0100
0000
0000
0000
,
0100
0000
0000
0110
;

//---------------dance-single - Destrier75----------------
#NOTES:
     dance-single:
     Destrier75:
     Easy:
     5:
     0.206,0.238,0.015,0.068,0.000:
0000
0000
0000
0000
,
0000
0000
0000
0000
,
0000
0000
0000
0000
,
0000
0000
0000
0000
,
0000
0000
0000
0000
,
1000
0001
1000
0001
,
0100
0010
0100
0010
,
0100
0001
0100
0001
,
0100
0000
0000
0000
,
1000
0001
1000
0001
,
1000
0001
1000
0001
,
0100
0010
0100
0010
,
0100
0010
0100
0010
,
1000
0010
1000
0010
,
1000
0010
1000
0010
,
1000
0010
1000
0010
,
1010
0000
0000
0000
,
1000
0001
1000
0001
,
1000
0010
1000
0010
,
0100
0010
0100
0010
,
0001
0100
0001
0100
,
0010
1000
0010
1000
,
0001
0100
0001
0100
,
0010
1000
0010
1000
,
0100
0001
0100
0001
,
2000
0000
0000
0000
,
0000
0000
0000
0000
,
0000
0000
0000
0000
,
0000
0000
0000
0000
,
3002
0000
0000
0000
,
0000
0000
0000
0000
,
0000
0000
0000
0000
,
2000
0000
3003
0000
,
1000
0010
1000
0010
,
0100
0001
0100
0001
,
1000
0001
1000
0001
,
0100
0010
0100
0010
,
1000
0001
1000
0001
,
0100
1000
0100
1000
,
0001
0100
0001
0100
,
0010
1000
0010
1000
,
0220
0000
0000
0000
,
0000
0000
0000
0330
,
0100
0010
0100
0010
,
0100
0010
0100
0010
,
0100
0010
0100
0010
,
0100
0010
0100
1000
,
0001
1000
0001
1000
,
0001
1000
0001
1000
,
0001
1000
0001
1000
,
0001
1000
0001
1000
,
0001
0100
0001
0100
,
0010
1000
0010
1000
,
0100
0010
0100
0010
,
0100
0001
0100
0001
,
0010
1000
0010
1000
,
0001
0100
0001
0100
,
0010
1000
0010
1000
,
0100
0001
0100
0001
,
2000
0000
0000
0000
,
3002
0000
0000
0000
,
2003
0000
0000
0000
,
3002
0000
0000
1003
;

//---------------dance-single - Destrier75----------------
#NOTES:
     dance-single:
     Destrier75:
     Medium:
     7:
     0.286,0.310,0.053,0.091,0.000:
0000
0000
0000
0000
,
0000
0000
0000
0000
,
0000
0000
0000
0000
,
0000
0000
0000
0000
,
0000
0000
0000
0000
,
0100
0000
0010
0100
0010
0000
0001
0000
,
1000
0000
0001
1000
0001
0000
1000
0000
,
0001
0000
0100
0001
0100
0000
0010
0000
,
1000
1000
0100
0010
,
0001
0000
1000
0010
1000
0000
0100
0010
,
0100
0010
0100
0010
,
1001
0000
0001
0100
0001
0000
1000
0010
,
1000
0001
1000
0001
,
1000
0000
0010
1000
0010
0000
0100
0000
,
1000
0000
0001
0100
0001
0000
0010
0000
,
1000
0000
0100
0010
0100
0000
0001
0000
,
1001
0000
0000
0000
,
1000
0100
0010
0000
0001
0010
0100
0000
,
1000
0001
1000
0000
0100
0010
0100
0000
,
0001
0100
0001
0000
1000
0010
1000
0000
,
0100
0010
0100
0000
0001
1000
0001
0000
,
1000
0010
1000
0010
1000
0000
0000
0000
,
0001
0100
0001
0100
0001
0000
0000
0000
,
0100
0010
0100
0010
0100
0000
0000
0000
,
0000
1001
1001
1001
,
2000
0000
0000
0000
,
3002
0000
0000
0000
,
2003
0000
0000
0000
,
3002
0000
0000
0000
,
2003
0000
0000
0000
,
3002
0000
0000
0000
,
2003
0000
0000
0000
,
0002
0000
0000
3003
,
1000
0001
1000
0000
0100
0010
0100
0000
,
0001
1000
0001
0000
0100
0001
0100
0000
,
0010
1000
0010
0000
0100
0001
0100
0000
,
0010
0001
0010
0000
1000
0001
1000
0000
,
0100
0001
0100
0000
0010
1000
0010
0000
,
0100
0010
0100
0000
0001
1000
0001
0000
,
1000
0001
1000
0000
0100
0010
0100
0000
,
1000
0100
0010
0000
0001
0100
0001
0000
,
2002
0000
0000
0000
,
0000
0000
3003
1000
,
0010
0000
1000
0001
1000
0000
0100
0000
,
0001
0000
1000
0010
1000
0000
0100
0000
,
0001
0000
1000
0001
1000
0000
0100
0000
,
0010
0000
1000
0010
1000
0000
0100
0000
,
0001
0000
0100
0001
0100
0000
0010
0000
,
1000
0000
0010
1000
0010
0000
0100
0000
,
0010
0000
0100
0010
0100
0000
0001
0000
,
1000
0000
0001
1000
0001
0000
0010
0000
,
1000
0010
1000
0000
0100
0010
0001
0000
,
1000
0001
1000
0000
0001
0010
0100
0000
,
1000
0010
1000
0000
0100
0010
0001
0000
,
1000
0001
1000
0000
0001
0100
0001
0000
,
0001
0100
0001
0100
0001
0000
0000
0000
,
1000
0010
1000
0010
1000
0000
0000
0000
,
0100
0010
0100
0010
0100
0000
0000
0000
,
0001
0100
0001
0100
0001
0000
1000
0000
,
2001
0000
0000
0000
,
0001
0000
0001
0000
,
3002
0000
0000
0000
,
0000
0000
0000
1003
;

//---------------dance-single - Destrier75----------------
#NOTES:
     dance-single:
     Destrier75:
     Hard:
     10:
     0.335,0.357,0.175,0.106,0.019: // measure 1
0000
0000
0000
0000
,  // measure 2
0000
0000
0000
0000
,  // measure 3
0000
0000
0000
0000
,  // measure 4
0000
0000
0000
0000
,  // measure 5
0000
0000
0000
0000
,  // measure 6
1000
0000
0000
0000
0100
0000
0010
0000
0001
0000
0000
0100
0000
0000
0001
0000
,  // measure 7
0010
0000
0000
0000
1000
0000
0100
0000
0010
0000
0000
0001
0000
0000
1000
0000
,  // measure 8
0001
0000
0000
0000
0100
0000
1000
0000
0001
0000
0000
0100
0000
0000
0010
0000
,  // measure 9
0000
0110
1001
0110
,  // measure 10
1001
0000
0000
1000
0010
1000
0010
0000
,  // measure 11
0010
1010
0010
0100
,  // measure 12
0001
0000
0000
0001
1000
0001
1000
0010
,  // measure 13
1000
1001
0001
0101
,  // measure 14
1000
0100
0010
0000
0001
0000
0101
0000
,  // measure 15
0001
0000
1000
0010
0100
0000
1000
0000
,  // measure 16
1010
0000
0010
0100
0010
0000
1000
0000
,  // measure 17
1001
0000
0100
0110
,  // measure 18
1000
0001
1000
0000
1010
0000
0100
0001
,  // measure 19
0100
0010
0100
0000
0101
0000
0100
0010
,  // measure 20
0100
0000
1000
0001
1000
0000
0001
0100
,  // measure 21
0001
0000
0000
1000
0000
0000
1001
0000
0000
0000
0000
0000
0010
0000
0000
0000
,  // measure 22
1000
0010
1000
0010
1000
0000
0100
0000
,  // measure 23
0001
0100
0001
0100
0010
0000
0100
0000
,  // measure 24
0100
0010
0100
0010
0100
0000
0010
0000
,  // measure 25
1000
0001
1000
0001
1000
0000
0001
0000
,  // measure 26
2000
0000
0000
0001
,  // measure 27
3002
0000
0203
0010
,  // measure 28
0320
0000
0000
0100
,  // measure 29
0000
0000
0230
0001
,  // measure 30
0302
0000
0000
1000
,  // measure 31
2003
0000
0000
0000
,  // measure 32
3020
0000
0000
0000
,  // measure 33
0200
0000
0000
0330
,  // measure 34
1000
0100
0010
0001
1000
0001
1000
0000
,  // measure 35
0001
0100
0001
0100
0001
0010
0100
0000
,  // measure 36
1000
0010
1000
0010
1000
0100
0010
0000
,  // measure 37
0001
0100
0001
0100
0001
0010
0100
0000
,  // measure 38
1000
0001
1000
0001
1000
0100
0010
0000
,  // measure 39
1000
0001
1000
0001
1000
0100
0001
0000
,  // measure 40
1000
0010
1000
0010
1000
0100
0010
0000
,  // measure 41
0001
0100
0001
0100
0001
0010
1000
0000
,  // measure 42
2001
0000
0010
0000
,  // measure 43
0002
0000
0000
0000
3003
0000
1000
0001
,  // measure 44
1001
1000
1010
0010
,  // measure 45
1000
0001
1000
0001
1000
0000
0010
1000
,  // measure 46
0010
0000
0100
0000
1000
0000
0001
0100
,  // measure 47
0001
0000
0010
0000
1000
0000
0001
0100
,  // measure 48
0101
0001
1001
1000
,  // measure 49
1001
0000
1000
0001
1000
0001
1000
0000
,  // measure 50
0010
1000
0010
0000
0100
0000
0001
0000
,  // measure 51
1000
0001
1000
0000
0001
0000
0100
0000
,  // measure 52
1000
0010
1000
0000
1010
0000
0100
0010
,  // measure 53
0001
0100
0001
0000
0101
0000
1000
0001
,  // measure 54
1000
0000
0100
0010
0100
0000
0010
0000
,  // measure 55
1000
0000
0000
0010
0000
0000
1010
0000
0000
0000
0000
0000
0010
0000
0000
0000
,  // measure 56
1000
0001
1000
0001
1000
0000
0010
0000
,  // measure 57
1000
0010
1000
0010
1000
0000
0100
0000
,  // measure 58
0001
0100
0001
0100
0001
0000
1000
0000
,  // measure 59
0010
1000
0010
1000
0010
0000
0100
0000
,  // measure 60
2000
0000
0001
0000
,  // measure 61
3002
0000
0100
0000
,  // measure 62
0203
0000
1000
0000
,  // measure 63
0000
0000
0000
0310
;

//---------------dance-single - Destrier75----------------
#NOTES:
     dance-single:
     Destrier75:
     Challenge:
     13:
     0.508,0.596,0.197,0.122,0.319:
0000
0000
0000
0000
,
0000
0000
0000
0000
,
0000
0000
0000
0000
,
0000
0000
0000
0000
,
0000
0000
0000
0000
,
1001
0000
0000
0000
0001
0000
1000
0000
0001
0000
0100
0010
0100
0000
0010
0000
,
1000
0000
0000
0000
0001
0000
0100
0000
0010
0000
1000
0010
1000
0000
0100
0000
,
0001
0000
0000
0000
0100
0000
0010
0000
0001
0000
1000
0010
1000
0000
0100
0000
,
0001
0000
0000
0000
1000
0001
0000
0000
0001
1000
0000
0000
1000
0010
0000
0000
,
1000
0010
1000
0010
1000
0000
0100
0001
0100
0001
0100
0000
0100
0000
0001
0000
,
0010
0100
0010
0100
0010
0000
1000
0001
1000
0001
1000
0000
0001
0000
0100
0000
,
1000
0001
1000
0001
1000
0000
0100
0010
0100
0010
0100
0000
0001
0000
0100
0000
,
1000
0010
1000
0010
1000
0000
0100
0001
0100
0001
0100
0000
0001
0000
1000
0000
,
0001
0000
0010
0100
0010
0000
1000
0010
1000
0000
0100
0010
0100
0000
0010
0000
,
1000
0000
0100
0001
0100
0000
0010
0100
0010
0000
0001
0100
0001
0000
0100
0000
,
0001
0000
1000
0001
0000
1000
0001
0000
1000
0000
0010
0000
1000
0000
0001
0000
,
1001
0000
0000
0000
0100
0000
0010
0000
0001
0000
1000
0010
1000
0010
1000
0010
,
1000
0000
0010
1000
0000
0010
1000
0000
0010
0000
0100
0000
0001
0000
0010
0000
,
1000
0000
0001
1000
0000
0001
1000
0000
0100
0000
0001
0000
1000
0000
0001
0000
,
1001
0000
1000
0100
0010
0001
0010
0100
,
0010
0000
0000
0100
0000
0000
0220
0000
0000
0000
0330
0000
1000
0000
0001
0000
,
1000
0000
0010
1000
0000
0010
1000
0000
0010
0000
0100
0000
0001
0000
0100
0000
,
0001
0000
1000
0001
0000
1000
0001
0000
0100
0000
0001
0000
1000
0000
0001
0000
,
1001
0000
1000
0010
1000
0001
1000
0001
,
1000
1001
0110
1001
,
2001
0000
0000
0010
,
3020
0000
0230
0001
,
0302
0000
0000
1000
,
2003
0010
3020
0100
,
0130
1000
0001
1000
0100
0010
0001
0010
,
0100
0000
0000
0000
1001
0000
0000
0000
1010
0000
0000
0000
0100
0000
0000
0202
,
0000
0000
0000
0000
,
0303
1000
0100
0010
0001
1000
0100
0010
1001
0100
0010
0001
,
1000
0010
1000
0010
1000
0000
0100
0010
0100
0010
0100
0000
0001
0000
1000
0000
,
0100
0001
0100
0001
0100
0000
0010
0100
0010
0100
0010
0000
1000
0000
0001
0000
,
1000
0001
1000
0001
1000
0000
0100
0010
0100
0010
0100
0000
0010
0000
1000
0000
,
0100
0010
0100
0010
0100
0000
0010
0001
0010
0001
0010
0000
1000
0000
0001
0000
,
1000
0000
0001
1000
0001
0000
1000
0000
0010
0000
0100
0010
0100
0000
0010
0000
,
1000
0000
0001
0100
0001
0000
0010
0000
1000
0000
0001
0100
0001
0000
0010
0000
,
1000
0000
0010
0100
0010
0000
1000
0000
0001
0000
0100
0010
0100
0000
0001
0000
,
1000
0000
0100
0001
0100
0000
0010
0000
1000
0000
0001
1000
0001
0000
1000
0000
,
0002
0000
1000
0000
,
1000
0000
0000
0000
1003
0000
0001
1000
,
1001
1000
0010
1000
0001
0100
0010
0100
,
1000
0001
0100
0001
1001
0000
1000
0010
,
1000
0001
0100
0010
0100
0001
0100
0001
,
1000
0001
0100
0010
0100
0010
1000
0010
,
1000
0010
0001
0000
1001
0000
1000
0000
,
1010
1000
0010
1000
1010
0000
0001
0100
,
0001
0100
0001
1000
0001
0100
0010
0100
,
0010
0001
1000
0100
0010
0001
0010
0100
,
1000
0000
0001
1000
0000
0001
1000
0000
0000
0000
0000
0000
0100
0000
0010
0000
,
1000
0000
0001
0100
0000
0001
0100
0000
0000
0000
0000
0000
0001
0000
1000
0000
,
1001
0000
1000
0010
1000
0010
1000
0001
,
1000
0000
0000
1001
0000
0000
1010
0000
0000
0000
0000
0000
1000
0000
0100
0000
,
0010
0000
0001
1000
0000
0001
1000
0000
0000
0000
0000
0000
0010
0000
1000
0000
,
0001
0000
0100
0001
0000
0100
0001
0000
0000
0000
0000
0000
0100
0000
0010
0000
,
0110
0000
1000
0001
1000
0001
1000
0010
,
1000
1001
1010
0110
,
2001
0000
0000
0001
,
3020
0000
0230
0010
,
0302
0000
0000
1000
,
0000
2000
0000
3003
;
