#TITLE:オネガイ・ディスコ・ミュージック;
#SUBTITLE:;
#ARTIST:星野奏子 Prod by.uno;
#TITLETRANSLIT:Onegai Disco Music;
#SUBTITLETRANSLIT:;
#ARTISTTRANSLIT:Kanako Hoshino Prod by.uno;
#CREDIT:;
#BANNER:Onegai Disco Music BN.png;
#BACKGROUND:Onegai Disco Music BG.png;
#LYRICSPATH:;
#CDTITLE:;
#MUSIC:Onegai Disco Music.ogg;
#OFFSET:0.360;
#SAMPLESTART:61.260;
#SAMPLELENGTH:15.000;
#SELECTABLE:YES;
#BPMS:0.000=124.000;
#STOPS:;
#BGCHANGES:;

//---------------dance-single - Destrier75----------------
#NOTES:
     dance-single:
     Destrier75:
     Hard:
     12:
     0.456,0.484,0.073,0.355,0.164:
0000
0000
0000
0000
,
0000
0000
0000
0000
,
0000
0000
0000
0000
,
0000
0000
0000
0000
,
0000
0000
0000
0000
0000
0000
0000
0001
,
0002
0000
0000
0000
1003
0000
0010
1000
0000
0000
0000
0000
0100
0000
0010
0000
,
0001
0000
0010
0000
0100
0000
0001
0100
0000
0000
0002
0000
0000
0000
2000
0000
,
0000
0000
0000
3003
0000
1000
0100
0010
,
0000
0001
0010
0001
0010
0001
0010
0000
,
0100
0010
0100
0010
,
0100
0000
0010
0000
1000
0010
1000
0000
1000
0010
1000
0000
0010
0000
0000
0000
,
1001
0000
0000
0000
0000
1000
0001
0000
1000
0000
0000
0000
0002
0000
0000
0000
,
1003
0000
0000
0000
0000
0000
1000
0010
1000
0000
0100
0000
0010
0000
0001
0000
,
0010
0000
0100
0001
0100
0000
0010
0000
1000
0000
0100
0010
0100
0000
0010
0000
,
2000
3002
0203
0320
,
1030
0000
0001
0000
0000
1000
0001
0000
0100
0000
0000
0000
0020
0000
0000
0000
,
1030
0000
0000
0000
0000
0000
1000
0001
1000
0000
0100
0000
0010
0000
0100
0000
,
1000
0000
0100
0010
0100
0000
0001
0000
1000
0000
0001
0100
0001
0000
1000
0000
,
1001
0000
0001
0000
0000
0001
1001
0000
,
1000
0000
0100
0000
0010
0000
0100
0000
0010
0000
0001
0010
0000
0001
0000
0020
,
0000
1000
0001
0100
,
1030
0000
0100
0010
0100
0000
0010
0000
0100
0000
0001
0000
0100
0000
0020
0000
,
0000
2030
0000
0002
0000
0000
0000
0000
,
3003
0000
1000
0010
1000
0000
0100
0000
0010
0000
0001
1000
0000
0001
0000
0010
,
0000
0000
1000
2000
0000
0000
3000
0100
,
0001
0100
0000
0010
0100
0010
0000
2000
,
0000
3100
0010
0001
0020
0100
0130
0000
,
2001
0010
0100
0001
,
0010
0001
0100
0001
,
3020
0100
1000
0001
,
0200
0000
0000
0000
,
0330
0000
0000
0000
0000
0000
0000
1000
,
0020
0000
0000
0000
1030
0000
0001
1000
0000
0000
0000
0000
0010
0000
0001
0000
,
0010
0000
0100
0000
1000
0000
0010
2000
0000
0000
0000
0000
0010
0000
0000
0000
,
3010
0010
0001
0010
0100
0010
0100
1000
,
0000
0001
1000
0001
1000
0010
0010
1000
,
0002
0000
0000
0000
1003
0000
0010
1000
0000
0000
0000
0000
0001
0000
0010
0000
,
0100
0000
1000
0000
0010
0000
1000
0010
0000
0000
2000
0000
0000
0000
0002
0000
,
0000
0000
0000
0000
3003
0001
0100
2000
,
0000
3010
0001
0010
0100
0010
0010
1000
,
0002
0000
0000
0000
1003
0000
0010
1000
0000
0000
0000
0000
0100
0000
0010
0000
,
0001
0000
0010
0000
0100
0000
0010
0200
0000
0000
0010
0000
0000
0000
0310
0000
,
0000
1000
0100
0010
0001
0010
0100
0002
,
0000
1003
0010
1000
0010
0100
0100
0010
,
2000
0000
0000
0000
3001
0000
0100
0002
0000
0000
0000
0000
1003
0000
0100
0000
,
0010
0000
0001
0000
1000
0000
0001
1000
0000
0000
2000
0000
0000
0000
0002
0000
,
0000
0000
0000
0000
3003
1000
0100
0010
,
0000
0001
0010
0001
0010
0001
0010
0000
,
1001
0000
0000
0000
0000
1000
0001
0000
1000
0000
0100
0000
0020
0000
0000
0000
,
0130
0000
0000
0000
0000
0000
1000
0010
1000
0000
0100
0000
0010
0000
0100
0000
,
0010
0000
0001
0100
0001
0000
0010
0000
1000
0000
0010
1000
0010
0000
0100
0000
,
0020
2030
3002
0203
,
0301
0000
0010
0000
0000
0001
1000
0000
0020
0000
0000
0000
2030
0000
0000
0000
,
3001
0000
0000
0000
0000
0000
0001
1000
0001
0000
0010
0000
0100
0000
1000
0000
,
0100
0000
0010
0100
0010
0000
0100
0000
0001
0000
0100
0001
0100
0000
0001
0000
,
1000
0000
1010
0000
0000
1000
1010
0000
,
0110
0000
0000
0000
;

//---------------dance-single - Destrier75----------------
#NOTES:
     dance-single:
     Destrier75:
     Medium:
     8:
     0.349,0.380,0.182,0.027,0.000: // measure 1
0000
0000
0000
0000
,  // measure 2
0000
0000
0000
0000
,  // measure 3
0000
0000
0000
0000
,  // measure 4
0000
0000
0000
0000
,  // measure 5
0000
0000
0000
0000
,  // measure 6
0000
0000
0000
0000
,  // measure 7
0000
0000
0000
0000
,  // measure 8
0000
0000
0000
0000
,  // measure 9
0000
0000
0000
0000
,  // measure 10
0100
0010
0100
0000
0001
1000
0001
0000
,  // measure 11
1000
0100
0010
0001
0010
0100
1000
0000
,  // measure 12
0001
0010
0100
0000
0001
1000
0100
0000
,  // measure 13
0110
0000
0000
1000
0100
1000
0100
1000
,  // measure 14
0100
0010
0001
0100
,  // measure 15
0001
0010
0001
0000
1000
0010
1000
0000
,  // measure 16
1000
0010
1000
0000
0100
0001
0100
0000
,  // measure 17
0101
0000
0000
1000
0001
1000
0001
1000
,  // measure 18
0000
0001
0100
0001
0000
1000
0010
1000
,  // measure 19
1001
0000
1001
0000
0000
1000
1010
0000
,  // measure 20
0000
0100
0010
0100
0000
0010
0100
0010
,  // measure 21
0100
0010
0001
0010
,  // measure 22
0000
1000
0010
1000
0000
0100
0001
0100
,  // measure 23
0001
0010
0100
1000
,  // measure 24
0000
0001
0100
0001
0000
0010
1000
0010
,  // measure 25
1000
0000
0100
0000
0010
0000
1000
0001
,  // measure 26
0010
0100
0000
1000
0100
0010
0000
0200
,  // measure 27
0000
0301
0010
0100
1000
0000
0000
0000
,  // measure 28
2010
0010
0010
0010
,  // measure 29
0010
0010
0010
3010
,  // measure 30
0102
0100
0100
0100
,  // measure 31
0100
0100
0100
0103
,  // measure 32
0101
0000
0000
0000
,  // measure 33
1000
0100
0010
0000
0001
1000
0001
0000
,  // measure 34
1000
0010
1000
0000
1010
0000
0010
0000
,  // measure 35
0001
0000
0100
0010
0100
0000
1000
0010
,  // measure 36
1000
0000
0001
0100
0001
0000
0101
0000
,  // measure 37
0100
0010
0100
0000
1000
0010
1000
0000
,  // measure 38
0100
0001
0100
0000
0100
0000
0110
0000
,  // measure 39
1000
0010
1000
0000
0100
0010
0100
0000
,  // measure 40
0001
0100
0001
0100
0001
0000
0000
0000
,  // measure 41
1000
0010
1000
0000
0100
0010
0100
0000
,  // measure 42
0001
0100
0001
0000
0010
0000
0100
0000
,  // measure 43
0101
0000
0100
0010
0100
0000
0001
1000
,  // measure 44
0001
0000
1000
0010
1000
0000
1010
0000
,  // measure 45
0100
0010
0100
0000
0001
0100
0001
0000
,  // measure 46
1000
0010
1000
0000
0100
0000
1100
0000
,  // measure 47
1000
0001
1000
0000
0100
0001
0100
0000
,  // measure 48
0010
0100
0010
0000
1000
0001
1000
0000
,  // measure 49
1001
0000
1000
0100
0010
0000
0010
0000
,  // measure 50
1010
0000
0000
0001
0010
0100
0010
0001
,  // measure 51
0010
0100
0010
1000
,  // measure 52
0001
0100
0001
0000
1000
0010
1000
0000
,  // measure 53
0110
0000
0100
0010
0100
0000
0001
0000
,  // measure 54
0101
0000
0000
1000
0100
0010
0100
1000
,  // measure 55
0000
0001
1000
0001
0000
0100
0001
0100
,  // measure 56
0010
0000
1010
0000
0000
0010
1010
0000
;

//---------------dance-single - Destrier75----------------
#NOTES:
     dance-single:
     Destrier75:
     Easy:
     4:
     0.253,0.253,0.055,0.027,0.000:
0000
0000
0000
0000
,
0000
0000
0000
0000
,
0000
0000
0000
0000
,
0000
0000
0000
0000
,
0000
0000
0000
0000
,
1000
0010
1000
0001
,
1000
0010
1000
0001
,
1000
0010
1000
0001
,
1000
0010
1000
0001
,
1000
1000
0001
0001
,
1000
0001
1000
1001
,
1000
0010
1000
0001
,
1000
0010
1000
0001
,
1000
0001
0100
0010
,
1000
0001
0100
0010
,
1010
0001
0100
1000
,
0010
0001
0100
0001
,
1000
0001
0100
0010
,
1000
0000
0001
0000
0000
1000
1000
0000
,
0001
1000
0010
1000
,
0001
0100
0010
0100
,
0001
1000
0001
0100
,
0010
1000
0100
0001
,
0010
1000
0001
0100
,
0001
1000
0010
0100
,
0001
0100
1000
0001
,
0100
0010
1000
0010
,
0200
0000
0000
0000
,
0000
0000
0000
0000
,
0302
0000
0000
0000
,
2000
0000
0000
0000
,
3003
0000
0000
0000
,
1000
0010
1000
0001
,
1000
0010
0100
0001
,
0010
0100
1000
0001
,
0100
1000
0001
0100
,
0010
1000
0001
0100
,
0010
1000
0001
0100
,
1000
0001
0100
0010
,
0001
1000
0001
0100
,
0010
1000
0001
0100
,
0001
1000
0001
0100
,
0010
0001
0010
0100
,
1000
0001
0100
1000
,
0001
0100
0010
0001
,
1000
0001
1000
0001
,
0100
0010
0001
1000
,
0100
0001
0010
0100
,
1001
0001
0100
0010
,
0001
1000
0010
0100
,
0001
0010
1000
0001
,
0100
0001
1000
0001
,
0011
1000
0010
0100
,
0001
0100
0010
1000
,
0001
1000
0001
0100
,
0101
0000
0000
0000
0000
1000
1001
0000
;

//---------------dance-single - Destrier75----------------
#NOTES:
     dance-single:
     Destrier75:
     Beginner:
     2:
     0.139,0.178,0.036,0.018,0.000:
0000
0000
0000
0000
,
0000
0000
0000
0000
,
0000
0000
0000
0000
,
0000
0000
0000
0000
,
0000
0000
0000
0000
,
1000
0000
1000
0000
,
1000
0000
0001
0000
,
0001
0000
0001
0000
,
1000
0000
1000
0000
,
1000
0000
0001
0000
,
2002
0000
0000
3003
,
1000
0000
0001
0000
,
1000
0000
0010
0000
,
0100
0000
0010
0000
,
1000
0000
0001
0000
,
1000
0000
0001
0000
,
1000
0000
0010
0000
,
0100
0000
0010
0000
,
0010
0000
0100
0000
,
0010
0000
0010
0000
,
0010
0000
0010
0000
,
1000
0000
1000
0000
,
1000
0000
1000
0000
,
0001
0000
0001
0000
,
0001
0000
0001
0000
,
0100
0000
0100
0000
,
0100
0000
0100
0000
,
0010
0000
0010
0000
,
0010
0000
0010
0000
,
0100
0000
0100
0000
,
0100
0000
0100
0000
,
0110
0000
0000
0000
,
1000
0000
0001
0000
,
1000
0000
1000
0000
,
0010
0000
1000
0000
,
0001
0000
0100
0000
,
0001
0000
1000
0000
,
0010
0000
1000
0000
,
0001
0000
0100
0000
,
0001
0000
1000
0000
,
0010
0000
1000
0000
,
0010
0000
0001
0000
,
0100
0000
0001
0000
,
1000
0000
0010
0000
,
1000
0000
0001
0000
,
0100
0000
0001
0000
,
1000
0000
0010
0000
,
1000
0000
0001
0000
,
1001
0000
1000
0000
,
0100
0000
1000
0000
,
0001
0000
0010
0000
,
0001
0000
1000
0000
,
0010
0000
1000
0000
,
0001
0000
0100
0000
,
0001
0000
1000
0000
,
0010
0000
1000
0000
,
1001
0000
0000
0000
;
