#TITLE:Oh My!;
#SUBTITLE:;
#ARTIST:Astra;
#TITLETRANSLIT:;
#SUBTITLETRANSLIT:;
#ARTISTTRANSLIT:;
#GENRE:;
#CREDIT:;
#MUSIC:Oh My!.ogg;
#BANNER:Oh My!.png;
#BACKGROUND:Oh My!-bg.png;
#CDTITLE:;
#SAMPLESTART:46.040;
#SAMPLELENGTH:15.000;
#SELECTABLE:YES;
#OFFSET:0.850;
#BPMS:0.000=127.950;
#STOPS:;
#BGCHANGES:;
#FGCHANGES:;

//--------------- dance-single - Destrier75 ----------------
#NOTES:
     dance-single:
     Destrier75:
     Beginner:
     3:
     0.204,0.205,0.018,0.018,0:
0000
0000
0000
0000
,
0000
0000
0000
0000
,
0000
0000
0000
0000
,
0000
0000
0000
0000
,
0000
0000
0000
0000
,
1000
0000
1000
0000
,
0001
0000
0001
0000
,
0100
0000
0100
0000
,
0010
0000
0010
0000
,
0100
0100
0100
0000
,
0001
0001
0001
0000
,
1000
1000
1000
0000
,
0001
0001
0001
0000
,
0100
0100
0100
0000
,
0010
0010
0010
0000
,
0100
0100
0100
0100
,
0100
0100
0100
0100
,
0100
0000
0100
0000
,
0100
0000
0010
0000
,
0010
0000
0010
0000
,
1000
0000
1000
0000
,
0001
0001
0001
0000
,
1000
1000
1000
0000
,
0001
0001
0001
0001
,
0001
0000
0000
0000
,
1000
1000
1000
0000
,
0001
0001
0001
0000
,
1000
1000
1000
0000
,
0010
0010
0010
0000
,
0100
0100
0100
0000
,
0001
0001
0001
0000
,
1000
1000
1000
0000
,
0001
0001
0001
0000
,
1000
1000
1000
0000
,
0001
0001
0001
0000
,
0100
0100
0100
0000
,
0010
0010
0010
0000
,
0100
0100
0100
0000
,
0010
0010
0010
0000
,
0100
0100
0100
0000
,
2002
0000
0000
3003
,
1000
0000
1000
0000
,
0001
0001
0001
0001
,
0001
0100
0000
0100
,
0100
0100
0100
0100
,
0100
0010
0000
0010
,
0010
0010
0010
0010
,
0010
1000
0000
1000
,
1000
1000
1000
1000
,
1000
0001
0000
0001
,
0001
0001
0001
0001
,
0001
0100
0000
0100
,
0100
0100
0100
0100
,
0100
0010
0000
0010
,
0010
0010
0010
0010
,
0010
0100
0000
0100
,
0100
0100
0100
0100
,
0110
0000
0000
0000
;

//--------------- dance-single - Destrier75 ----------------
#NOTES:
     dance-single:
     Destrier75:
     Easy:
     6:
     0.262,0.333,0.162,0.18,0:
0000
0000
0000
0000
,
0000
0000
0000
0000
,
0000
0000
0000
0000
,
0000
0000
0000
0000
,
0000
0000
0000
0000
,
1000
0010
1000
0010
,
0100
0001
0100
0001
,
0010
1000
0010
1000
,
0100
0001
0100
0001
,
0010
1000
0010
1000
,
0100
0001
0100
0001
,
0010
1000
0010
1000
,
0100
0001
0100
0001
,
0010
1000
0010
1000
,
0100
0001
0100
0001
,
1000
0001
1000
0001
,
1000
0010
1000
0010
,
1000
1010
0010
0011
,
0010
1010
0010
0011
,
0010
1010
0010
0011
,
0010
1010
0010
0011
,
1000
0010
1000
0010
,
1000
0010
1000
0010
,
2002
0000
0000
0000
,
3003
0000
0000
0000
,
1000
0100
1000
0100
,
0001
0100
0001
0100
,
1000
0001
1000
0001
,
0100
0001
0100
0001
,
0010
1000
0010
1000
,
0100
0001
0100
0001
,
1000
0010
1000
0010
,
0100
0010
0100
0010
,
0100
0100
0001
0100
,
0010
1000
0010
1000
,
0100
0001
0100
0001
,
0010
1000
0010
1000
,
0100
0010
0100
0010
,
0001
0100
0001
0100
,
0010
1000
0010
1000
,
2002
0000
0000
0000
,
3003
1000
0010
1000
,
2020
0000
0000
0000
,
3030
0100
0001
0100
,
0202
0000
0000
0000
,
0303
0010
0100
0010
,
0220
0000
0000
0000
,
0330
1000
0010
1000
,
2020
0000
0000
0000
,
3030
0100
0001
0100
,
0202
0000
0000
0000
,
0303
0010
1000
0010
,
2020
0000
0000
0000
,
3030
0100
0010
0100
,
0220
0000
0000
0000
,
0330
0100
0001
0100
,
0202
0000
0000
0000
,
0303
0000
0000
0000
;

//--------------- dance-single - Destrier75 ----------------
#NOTES:
     dance-single:
     Destrier75:
     Medium:
     9:
     0.417,0.384,0.072,0,0:
0000
0000
0000
0000
,
0000
0000
0000
0000
,
0000
0000
0000
0000
,
0000
0000
0000
0000
,
0000
0000
0000
0000
,
1000
0001
1000
0000
0100
0001
0100
0000
,
0010
1000
0010
0000
0100
0001
0100
0000
,
1000
0010
1000
0000
0100
0001
0100
0000
,
0001
1000
0001
0000
1000
0010
1000
0000
,
1000
0000
0010
1000
0010
0000
0100
0010
,
0100
0000
0001
0100
0001
0000
0010
0000
,
1000
0010
1000
0000
0100
0000
0010
0100
,
0010
0000
0100
0000
0001
0100
0001
0000
,
1000
0010
1000
0000
0100
0001
0100
0000
,
0010
1000
0010
0000
0100
0001
0100
0000
,
1000
0100
0010
0001
0010
0100
1000
0100
,
0010
0001
0010
0100
1000
0100
0010
0001
,
0001
1001
1000
1010
,
0010
0110
0100
0101
,
0001
1001
1000
1100
,
0100
0110
0010
0110
,
0001
0100
0001
0000
0100
0010
0100
0000
,
1000
0010
1000
0000
0100
0001
0100
0000
,
1000
0100
0010
0001
0100
0001
0100
0001
,
0100
0010
0100
0010
,
1000
0010
1000
0010
1000
0000
0100
0000
,
0010
0001
0010
0001
0010
0000
0001
0000
,
1000
0001
1000
0000
0100
0010
0100
0000
,
1000
0010
1000
0010
1000
0000
0100
0000
,
0010
0001
0010
0001
0010
0000
1000
0000
,
0010
1000
0010
1000
0010
0000
0100
0000
,
0100
0001
0100
0000
0010
1000
0010
0000
,
1000
0001
1000
0001
1000
0000
0001
0000
,
1000
0010
1000
0010
1000
0000
0100
0000
,
0001
0100
0001
0100
0001
0000
0010
0000
,
1000
0010
1000
0010
1000
0000
0001
0000
,
0100
0001
0100
0000
0010
1000
0010
0000
,
0100
0010
0100
0010
0100
0000
0001
0000
,
1000
0001
1000
0001
1000
0000
0100
0000
,
0010
0001
0010
0000
0010
0100
0010
0000
,
1000
0001
1000
0001
1000
0001
1000
0001
,
1000
0000
0100
0010
0100
0000
0001
0000
,
1000
0001
1000
0001
1000
0001
1000
0001
,
1000
0000
0001
0100
0001
0000
0010
0000
,
1000
0010
1000
0010
1000
0010
1000
0010
,
1000
0000
0100
0010
0100
0000
0001
0000
,
1000
0001
1000
0001
1000
0001
1000
0001
,
1000
0000
0001
0100
0001
0000
0010
0000
,
1000
0010
1000
0010
1000
0010
1000
0010
,
1000
0000
0100
0010
0100
0000
0001
0000
,
0100
0010
0100
0010
0100
0010
0100
0010
,
0100
0000
1000
0010
1000
0000
0010
0000
,
0100
0001
0100
0001
0100
0001
0100
0001
,
0100
0000
0001
0100
0001
0000
0010
0000
,
1000
0010
1000
0010
1000
0010
1000
0010
,
1000
0000
0100
0001
0100
0000
0010
0000
,
0100
0010
0100
0010
0100
0010
0100
0010
,
0100
0000
0000
0000
;

//--------------- dance-single - Destrier75 ----------------
#NOTES:
     dance-single:
     Destrier75:
     Hard:
     13:
     0.604,0.563,0.251,0.036,0.247:
0000
0000
0000
0000
,
0000
0000
0000
0000
,
0000
0000
0000
0000
,
0000
0000
0000
0000
,
0000
0000
0000
0000
,
1000
0100
1000
0100
0010
0001
0100
0001
,
0100
0010
0100
1000
0001
0100
0010
0001
,
0100
0001
1000
0001
0100
0010
0100
0001
,
0100
0010
1000
0001
0100
0001
0100
0001
,
0010
0000
0001
0000
0100
0010
0100
0000
0010
0000
1000
0000
0010
0100
0010
0000
,
0001
0000
0100
0000
0001
1000
0001
0000
0100
0000
0010
0000
0100
0000
0010
0000
,
0100
0000
0001
0000
0100
0001
0100
0000
0010
0000
0100
0000
0010
0100
0010
0000
,
1000
0000
0001
0000
1000
0001
1000
0000
0100
0000
0001
0000
0100
0000
1000
0000
,
0010
0010
1000
1000
0001
0001
0100
0100
,
0010
0010
0100
0100
0010
0010
0100
0100
,
0010
0100
0010
0000
1000
0001
1000
0000
0100
0001
0100
0000
0010
1000
0010
0000
,
0100
0001
0100
0000
0010
1000
0010
0000
0100
0010
0100
0000
0100
0001
0100
0000
,
1010
0110
0101
0011
,
1001
1010
0110
0101
,
1010
0110
0101
1010
,
0110
0101
1010
1010
,
0001
0010
0001
0010
0100
0010
0100
0010
,
0100
1000
0100
1000
0100
0010
0100
0010
,
0100
0001
0100
0000
0010
1000
0010
0000
0100
0001
0100
0000
0010
1000
0010
0000
,
1000
0000
0010
1000
0010
0000
1000
0000
2000
0000
0000
0000
0010
0000
0010
0000
,
3010
1000
0100
0001
1000
0100
0010
1010
,
0010
1000
0010
0100
1000
0010
0001
0101
,
0001
0000
1000
0001
0000
1000
0001
0000
1000
0000
0010
0000
1000
0000
1010
0000
,
1000
0100
0010
0001
1000
0010
2000
0000
,
3010
0100
0001
0100
0010
1000
0010
0100
,
0010
1000
0001
0100
0010
1000
0001
0100
,
0001
0000
0100
0001
0000
0100
0001
0000
0010
0000
1000
0000
0010
0000
0100
0000
,
0001
0100
0001
1000
0002
0000
0010
0000
,
1003
0010
1000
0100
0010
0001
0010
0001
,
0010
0100
1000
0100
1000
0010
1000
0010
,
1000
0000
0100
0010
0000
0010
1000
0000
0010
0000
0100
0000
0001
0000
0100
0000
,
0001
0010
0100
1000
0010
1000
0002
0000
,
1003
0100
0010
0001
1000
0010
1000
0001
,
1000
0010
1000
0010
0100
0001
0100
0001
,
0100
0000
0001
0100
0000
0001
0100
0000
0010
0000
0100
0000
0010
0000
1000
0000
,
0010
1000
0010
0000
0100
0000
0010
0000
0100
0001
0100
0000
0001
0000
1000
0000
,
1001
0000
0000
0000
1000
0000
0010
1000
0010
0000
0001
0000
1000
0000
0001
0000
,
1000
0010
1000
0000
0100
0000
0010
0000
0100
0001
0100
0000
0001
0000
0100
0000
,
0101
0000
0000
0000
1000
0000
0010
0100
0010
0000
1000
0000
0001
0000
0100
0000
,
0010
0100
0010
0000
0001
0000
1000
0000
0100
0001
0100
0000
0010
0000
0001
0000
,
0101
0000
0000
0000
1000
0000
0010
1000
0010
0000
0100
0000
0010
0000
0001
0000
,
0010
0100
0010
0000
1000
0000
0001
0000
0100
0001
0100
0000
0010
0000
1000
0000
,
1010
0000
0000
0000
1000
0000
0010
1000
0010
0000
0100
0000
0001
0000
1000
0000
,
0010
0001
0010
0000
1000
0010
1000
0000
0100
0001
0100
0000
0010
1000
0010
0000
,
1010
0000
0000
0000
0100
0000
0001
0100
0001
0000
0010
0000
1000
0000
0001
0000
,
0100
0010
0100
0000
0001
0000
1000
0000
0100
0001
0100
0000
0010
0000
1000
0000
,
1010
0000
0000
0000
0100
0000
0010
0100
0010
0000
0001
0000
1000
0000
0001
0000
,
0100
0001
0100
0000
0010
0000
1000
0000
0010
0100
0010
0000
0100
0000
0001
0000
,
0101
0000
0000
0000
0010
0000
1000
0010
1000
0000
0100
0000
0010
0000
0100
0000
,
0001
1000
0001
0000
0100
0000
0010
0000
1000
0010
1000
0000
0100
0000
0001
0000
,
0101
0000
0000
0000
0001
0000
0100
0010
0100
0000
0010
0000
1000
0000
0010
0000
,
1000
0010
1000
0000
0100
0000
0001
0000
0100
0010
0100
0000
0010
0000
0001
0000
,
1001
0000
0000
0000
;

//--------------- dance-single - Destrier75 ----------------
#NOTES:
     dance-single:
     Destrier75:
     Challenge:
     15:
     0.735,0.742,0.144,0.18,0.75:
0000
0000
0000
0000
,
0000
0000
0000
0000
,
0000
0000
0000
0000
,
0000
0000
0000
0000
,
0000
0000
0000
0000
,
0200
0000
0000
0000
0301
0100
0001
0100
0002
0000
0000
0000
1003
0010
1000
0010
,
2000
0000
0000
0000
3100
0010
0100
0010
0200
0000
0000
0000
0301
0100
0001
0100
,
0002
0000
0000
0000
0103
0010
0100
0010
0200
0000
0000
0000
0310
1000
0010
1000
,
0020
0000
0000
0000
0031
0100
0001
0100
0002
0000
0000
0000
1003
0100
1000
0100
,
2000
0000
0000
0000
3010
1000
0010
1000
0020
0000
0000
0000
0031
0010
0001
0010
,
0002
0000
0000
0000
0103
0001
0100
0001
0200
0000
0000
0000
0310
1000
0010
1000
,
0020
0000
0000
0000
0130
0001
0100
0001
0200
0000
0000
0000
0310
1000
0010
1000
,
0020
0000
0000
0000
0130
0001
0100
0001
0200
0000
0000
0000
0310
1000
0010
1000
,
0010
0010
0001
0001
1000
1000
0100
0100
,
0010
0010
0001
0001
1000
1000
0001
0001
,
0001
0010
0100
1000
0001
0010
0100
1000
0001
0010
0100
1000
0001
0010
0100
1000
,
0001
0010
0100
1000
0001
0010
0100
1000
0001
0010
0100
1000
0001
0010
0100
1000
,
0001
1010
0110
0101
,
1001
1010
0110
0101
,
1010
0110
0101
1001
,
0110
1010
0101
0110
,
1000
0010
1000
0000
0100
0001
0100
0000
0010
0100
0010
0000
1000
0001
1000
0000
,
0001
0100
0001
0000
1000
0010
1000
0000
0100
0010
0100
0000
0010
0001
0010
0000
,
1000
0100
0010
0001
1000
0100
0010
0001
1000
0100
0010
0001
1000
0100
0010
0001
,
1000
0000
0010
0100
0010
0000
0100
0000
0020
0000
0000
0000
0100
0000
0130
0000
,
1000
0000
0010
0000
1000
0000
0100
0000
1000
0000
0100
0010
0001
0000
0100
0000
,
0001
0000
0010
0000
0100
0000
0010
0000
1000
0000
0100
0010
0001
0000
0100
0000
,
0001
0000
1000
0010
0000
0010
1000
0000
0100
0000
0001
0010
0100
0000
0001
0000
,
1000
0000
0010
0000
0100
0000
0010
0000
1000
0000
0001
0100
0001
0000
0010
0000
,
0001
0000
0100
0000
0010
0000
1000
0000
0001
0000
0100
0010
0001
0000
1000
0000
,
0010
0000
0100
0000
0010
0000
1000
0000
0001
0000
0100
0010
0001
0000
1000
0000
,
0010
0000
1000
0001
0000
0001
1000
0000
0010
0000
0100
0010
0100
0000
0001
0000
,
1000
0010
1000
0010
2000
0000
3002
0000
,
0103
0000
0001
0000
1000
0000
0010
0000
1000
0000
0100
0010
0001
0000
0100
0000
,
1000
0000
0010
0000
0100
0000
0001
0000
0100
0000
1000
0100
0010
0000
0001
0000
,
0100
0000
0001
1000
0000
1000
0001
0000
0100
0000
0010
0001
0010
0000
1000
0000
,
0010
0000
0100
0000
0001
0000
0100
0000
0010
0000
1000
0010
1000
0000
0100
0000
,
0001
0000
0010
0000
0100
0000
0010
0000
1000
0000
0100
0001
0100
0000
0010
0000
,
1000
0000
0010
0000
0100
0000
0001
0000
1000
0000
0010
0100
0010
0000
0100
0000
,
1001
0000
1000
0001
0000
0001
1000
0000
0010
0000
0100
0010
0100
0000
0001
0000
,
1000
0100
0010
0001
1000
0100
0010
0001
1000
0100
0010
0001
1000
0100
0010
0001
,
1000
0000
0000
0000
1000
0000
0001
0100
0001
0000
0010
0000
0100
0000
0001
0000
,
0001
0010
0100
1000
0001
0010
0100
1000
0001
0010
0100
1000
0001
0010
0100
1000
,
0001
0000
0000
0000
0100
0000
0010
0100
0010
0000
1000
0000
0001
0000
0100
0000
,
1000
0100
0010
0001
1000
0100
0010
0001
1000
0100
0010
0001
1000
0100
0010
0001
,
1000
0000
0000
0000
1000
0000
0010
1000
0010
0000
0100
0000
0001
0000
0100
0000
,
0001
0010
0100
1000
0001
0010
0100
1000
0001
0010
0100
1000
0001
0010
0100
1000
,
0001
0000
0000
0000
0100
0000
0010
0100
0010
0000
1000
0000
0001
0000
0100
0000
,
0010
0100
0010
0100
0010
0100
0010
0100
0010
0100
0010
0100
0010
0100
0010
0100
,
0020
0000
0000
0000
1030
0000
0100
1000
0100
0000
0010
0000
1000
0000
0001
0000
,
0100
0010
1000
0001
0100
0010
1000
0001
0100
0010
1000
0001
0100
0010
1000
0001
,
0100
0000
0000
0000
0001
0000
0100
0001
0100
0000
0010
0000
1000
0000
0001
0000
,
1000
0100
0010
0001
1000
0100
0010
0001
1000
0100
0010
0001
1000
0100
0010
0001
,
1000
0000
0000
0000
0010
0000
0100
0001
0100
0000
0010
0000
1000
0000
0001
0000
,
0001
0010
0100
1000
0001
0010
0100
1000
0001
0010
0100
1000
0001
0010
0100
1000
,
0001
0000
0000
0000
1000
0000
0010
1000
0010
0000
0100
0000
0001
0000
0010
0000
,
1000
0010
0100
0001
1000
0010
0100
0001
1000
0010
0100
0001
1000
0010
0100
0001
,
1000
0000
0000
0000
;
