#TITLE:New Solution;
#SUBTITLE:;
#ARTIST:KARUT;
#TITLETRANSLIT:;
#SUBTITLETRANSLIT:;
#ARTISTTRANSLIT:;
#CREDIT:;
#BANNER:New Solution BN.png;
#BACKGROUND:New Solution BG.png;
#LYRICSPATH:;
#CDTITLE:;
#MUSIC:New Solution.ogg;
#OFFSET:0.300;
#SAMPLESTART:15.380;
#SAMPLELENGTH:15.000;
#SELECTABLE:YES;
#BPMS:0.000=110.000;
#STOPS:;
#BGCHANGES:;

//---------------dance-single - Destrier75----------------
#NOTES:
     dance-single:
     Destrier75:
     Hard:
     11:
     0.345,0.415,0.134,0.187,0.036: // measure 1
0000
0000
0000
0000
,  // measure 2
0000
0000
0000
0000
,  // measure 3
0000
0000
0000
0000
,  // measure 4
0000
0000
0000
0000
,  // measure 5
0000
0000
0000
0000
,  // measure 6
0000
0000
0000
0000
,  // measure 7
0000
0000
0100
0010
0100
0010
0100
0010
,  // measure 8
0100
0000
1000
0010
1000
0010
1000
0000
,  // measure 9
0100
0000
0001
0100
0001
0100
0001
0000
,  // measure 10
0010
0000
1000
0010
1000
0010
1000
0000
,  // measure 11
0100
0000
0010
0100
0010
0100
0010
0000
,  // measure 12
0100
0000
0001
0100
0001
0100
0001
0000
,  // measure 13
0010
0000
1000
0010
1000
0010
1000
0000
,  // measure 14
0100
0000
0001
0100
0001
0100
0001
0000
,  // measure 15
0100
0000
0010
0100
0010
0100
0010
0000
,  // measure 16
0100
0200
0010
1000
,  // measure 17
0010
2300
0001
0100
,  // measure 18
0001
3200
0010
1000
,  // measure 19
0010
2300
0001
0010
,  // measure 20
0001
3020
0100
0001
,  // measure 21
0100
0032
1000
0010
,  // measure 22
1000
0000
1003
1001
0000
0000
0000
0000
,  // measure 23
0000
2000
3002
0203
,  // measure 24
0302
0000
1003
0100
1000
0000
0010
0100
,  // measure 25
0010
0000
1000
0010
1010
0000
0001
0100
,  // measure 26
0101
0000
0000
0000
0010
0000
0100
0000
0110
0000
0100
0000
0001
1000
0001
1000
,  // measure 27
0001
0000
1000
0001
1001
0000
0100
0001
,  // measure 28
0101
0000
0000
0000
0001
0000
1000
0000
1001
0000
0100
0000
1000
0010
1000
0010
,  // measure 29
1000
0000
1000
0010
1010
0000
0001
0100
,  // measure 30
0101
0000
0000
0000
0010
0000
0100
0000
0110
0000
0100
0000
0100
0010
0100
0010
,  // measure 31
0100
0000
1000
0001
1001
0000
0100
0001
,  // measure 32
0101
0000
0000
0000
0010
0000
1000
0000
1010
0000
0010
0000
1000
0010
1000
0010
,  // measure 33
1000
0200
0001
1000
,  // measure 34
0001
0320
0100
0001
,  // measure 35
0100
0032
1000
0010
,  // measure 36
1000
0023
0100
0001
,  // measure 37
0100
0032
1000
0100
,  // measure 38
1000
0203
0010
1000
,  // measure 39
0010
0000
1300
1100
0000
0000
0000
0000
,  // measure 40
0000
2000
3002
0203
,  // measure 41
0320
0000
1030
0100
1000
0010
1000
0000
,  // measure 42
0001
0000
0100
0010
0100
0001
0100
0000
,  // measure 43
0001
0000
1000
0010
1000
0100
0010
0000
,  // measure 44
0100
0000
0001
0100
0001
0100
0010
0000
,  // measure 45
0100
0000
0001
0100
0001
0100
0010
0000
,  // measure 46
1000
0000
0100
1000
0100
1000
0100
0000
,  // measure 47
0010
0000
0100
0001
0100
0001
0100
0001
,  // measure 48
0100
0010
0001
0010
0100
1000
0100
0010
,  // measure 49
0001
0100
0102
0000
0000
0000
0000
0000
,  // measure 50
0103
0000
0000
0000
;

//---------------dance-single - Destrier75----------------
#NOTES:
     dance-single:
     Destrier75:
     Medium:
     7:
     0.294,0.284,0.018,0.303,0.000:
0000
0000
0000
0000
,
0000
0000
0000
0000
,
0000
0000
0000
0000
,
0000
0000
0000
0000
,
0000
0000
0000
0000
,
0000
0000
0000
0000
,
0000
0000
0100
0010
0100
0000
0010
0100
,
0010
0000
1000
0001
1000
0000
0100
0000
,
0010
0000
1000
0010
1000
0000
0100
0000
,
0001
0000
0010
0001
0010
0000
0100
0000
,
1000
0000
0100
0001
0100
0000
0001
0000
,
1000
0000
0100
1000
0100
0000
0010
0000
,
0001
0000
0100
0001
0100
0000
0010
0000
,
1000
0000
0100
0010
0100
0000
0001
0000
,
1000
0000
0100
0010
0100
0000
0001
0000
,
1000
0020
1000
2030
,
0001
3002
0100
0203
,
0010
0320
0000
2030
,
0001
3002
0100
0203
,
0001
0302
1000
2003
,
0100
3200
0001
0302
,
0100
0103
0000
0000
,
0000
2000
3002
2003
,
3002
1003
0000
0000
,
0000
0000
1000
0010
1000
0000
0010
0001
,
0010
0000
0100
0010
0100
0000
1000
0001
,
1000
0000
0100
0001
0100
0000
0010
1000
,
0010
0000
0100
0001
0100
0000
0010
0100
,
0010
0000
1000
0010
1000
0000
0100
0001
,
0100
0000
0010
0001
0010
0000
1000
0100
,
1000
0000
0100
0010
0100
0000
0001
0100
,
0001
0000
1000
0010
1000
0000
0100
0001
,
0100
0200
0010
0320
,
1000
2030
0001
3002
,
0100
0203
0010
0320
,
1000
2030
0100
3200
,
0001
0302
0100
0203
,
0010
0320
1000
2030
,
0001
3001
0000
0000
,
0000
0200
0320
0230
,
0320
0000
0130
0001
0100
0000
0010
0000
,
1000
0000
0100
0010
0100
0000
0001
0000
,
0100
0000
1000
0010
1000
0000
0100
0000
,
0010
0000
1000
0010
1000
0000
0100
0000
,
1000
0000
0100
0001
0100
0000
0010
0000
,
1000
0000
0001
0100
0001
0000
1000
0000
,
0001
0000
0100
0010
0100
0000
0001
0000
,
1000
0000
0100
0010
0100
0000
0001
0100
,
0001
2002
3003
0000
,
1001
0000
0000
0000
;

//---------------dance-single - Destrier75----------------
#NOTES:
     dance-single:
     Destrier75:
     Easy:
     5:
     0.200,0.219,0.018,0.161,0.000:
0000
0000
0000
0000
,
0000
0000
0000
0000
,
0000
0000
0000
0000
,
0000
0000
0000
0000
,
0000
0000
0000
0000
,
0000
0000
0000
0000
,
0000
1000
0010
1000
,
0010
0100
0010
0100
,
0010
1000
0001
1000
,
0001
0010
1000
0010
,
1000
0100
0001
0100
,
0001
0100
0010
0100
,
0010
1000
0010
1000
,
0010
0100
0001
0100
,
0001
0010
1000
0010
,
1000
0200
0000
0001
,
0000
0302
0000
1000
,
0000
2003
0000
0010
,
0000
3020
0000
1000
,
0000
2030
0000
0001
,
0000
3002
0000
1000
,
0000
1003
0000
0000
,
0000
2010
0010
0010
,
3010
1010
0000
0000
,
0000
1000
0010
1000
,
0010
0100
0001
0100
,
0001
0100
0010
0100
,
0010
0100
1000
0100
,
1000
0100
0001
0100
,
0001
0010
1000
0010
,
1000
0100
0010
0100
,
0010
0100
0001
0100
,
0001
2000
0000
0010
,
0000
3002
0000
0100
,
0000
2003
0000
0010
,
0000
3002
0000
0100
,
0000
2003
0000
0010
,
0000
3002
0000
0100
,
0000
0103
0000
0000
,
0000
0200
0320
0230
,
0320
0130
0001
0100
,
0001
1000
0010
1000
,
0010
0100
0010
0100
,
0010
1000
0100
1000
,
0100
0001
0100
0001
,
0100
0001
0010
0001
,
0010
0100
0010
0100
,
0010
1000
0010
1000
,
0010
2000
0000
0000
,
3001
0000
0000
0000
;

//---------------dance-single - Destrier75----------------
#NOTES:
     dance-single:
     Destrier75:
     Beginner:
     2:
     0.135,0.153,0.027,0.107,0.000:
0000
0000
0000
0000
,
0000
0000
0000
0000
,
0000
0000
0000
0000
,
0000
0000
0000
0000
,
0000
0000
0000
0000
,
0000
0000
0000
0000
,
0000
0010
0000
0010
,
0000
0100
0000
0100
,
0000
0010
0000
0010
,
0000
1000
0000
1000
,
0000
0001
0000
0001
,
0000
1000
0000
1000
,
0000
0010
0000
0010
,
0000
0100
0000
0100
,
0000
0001
0000
0001
,
0000
2000
0000
0000
,
0000
3002
0000
0000
,
0000
2003
0000
0000
,
0000
3002
0000
0000
,
0000
2003
0000
0000
,
0000
3002
0000
0000
,
0000
1003
0000
0000
,
0000
0100
0100
0100
,
0100
0110
0000
0000
,
0000
1000
1000
1000
,
0000
0001
0001
0001
,
0000
1000
1000
1000
,
0000
0010
0010
0010
,
0000
0100
0100
0100
,
0000
0010
0010
0010
,
0000
0100
0100
0100
,
0000
0010
0010
0010
,
0000
0200
0000
0000
,
0000
0320
0000
0000
,
0000
0230
0000
0000
,
0000
0320
0000
0000
,
0000
0230
0000
0000
,
0000
0320
0000
0000
,
0000
0130
0000
0000
,
0000
0010
0010
0010
,
0010
1000
1000
1000
,
0000
0001
0001
0001
,
0000
1000
1000
1000
,
0000
0010
0010
0010
,
0000
0100
0100
0100
,
0000
0010
0010
0010
,
0000
0100
0100
0100
,
0000
1000
1000
1000
,
0000
1001
0000
0000
,
1001
0000
0000
0000
;
