#TITLE:NO RICE NO LIFE;
#SUBTITLE:;
#ARTIST:風神RIZING!;
#TITLETRANSLIT:;
#SUBTITLETRANSLIT:;
#ARTISTTRANSLIT:Fujin Rizing!;
#CREDIT:;
#BANNER:NO RICE NO LIFE BN.png;
#BACKGROUND:NO RICE NO LIFE Jacket.png;
#LYRICSPATH:;
#CDTITLE:;
#MUSIC:NO RICE NO LIFE.ogg;
#OFFSET:0.320;
#SAMPLESTART:58.440;
#SAMPLELENGTH:15.000;
#SELECTABLE:YES;
#BPMS:0.000=153.000;
#STOPS:;
#BGCHANGES:0.813=NO RICE NO LIFE.avi=1.000=1=1=0,
99999=-nosongbg-=1.000=0=0=0 // don't automatically add -songbackground-
;

//---------------dance-single - Destrier75----------------
#NOTES:
     dance-single:
     Destrier75:
     Hard:
     13:
     0.593,0.536,0.128,0.385,0.010:
0000
0000
0000
0000
,
0000
0000
0000
0000
,
0000
0000
0000
0000
,
0000
0000
0000
0000
,
0000
0000
0000
0000
,
0000
0000
0000
0000
,
1000
0010
1000
0010
0001
0010
1000
0010
,
0001
0010
1000
0010
0001
0010
1000
0000
,
0010
0100
0010
0100
0001
0100
2000
0000
,
3100
0010
0001
0010
0100
1000
0002
0000
,
1003
0100
0010
0001
0010
0100
1000
0010
,
1000
0010
0100
0010
0100
0010
0001
0010
,
0000
2000
0000
3010
0100
0010
0200
0000
,
0301
0010
0100
1000
0000
1010
0000
0110
,
0000
0001
0100
0001
0100
0000
0020
0000
,
1030
0100
0010
0001
0010
0100
1000
0010
,
0000
2000
0000
3001
1000
0000
0002
0000
,
0013
0100
1000
0100
0010
0001
0010
0100
,
0000
1000
0010
1000
0010
1000
0010
0000
,
0000
0000
1000
0100
0010
0001
0010
0100
,
0000
2000
0000
3001
0100
0001
0200
0000
,
0320
0000
1030
0100
0010
0001
0010
0100
,
0000
0001
1000
0001
1000
0000
0002
0000
,
1003
0100
0010
0001
0010
0100
1000
0100
,
0000
0001
1000
0001
1000
0000
0020
0000
,
0230
0000
0310
0001
0010
0100
1000
0100
,
0000
0010
0100
0010
0100
0000
0002
0000
,
2003
0000
3100
0010
0001
0010
0100
1000
,
0000
1000
0001
1000
0001
0000
1001
0000
,
1000
0000
0001
0010
0100
0010
0001
0010
,
0000
1000
0001
1000
0001
0000
1001
0000
,
1000
0000
0010
0100
1000
0100
0010
0100
,
0000
0100
0010
0100
0010
0100
0010
0000
,
0110
0000
0001
0100
0001
0100
0001
0200
,
0000
0010
0010
0000
0001
0301
0000
0000
,
1000
0001
1000
0001
0000
1001
0000
1000
,
0100
0010
0001
0100
0001
0100
0001
0000
,
0100
0010
0100
0000
1000
0100
0020
0000
,
0000
1030
0010
1000
0100
0010
0001
0010
,
0100
1000
0010
0100
0001
0100
0001
2000
,
0000
3020
0000
1030
0001
0000
0002
0000
,
0023
0000
2030
0000
3100
0010
0200
0000
,
0300
0000
0001
0000
0000
0001
1000
0000
0010
0000
0100
0000
0020
0000
0000
0000
,
1030
0100
0020
0000
1030
0001
2000
0000
,
0000
3001
0000
1001
0000
1000
0010
0000
,
0110
0000
1001
0000
0001
0010
0100
0010
,
0100
0001
0100
0001
0010
0100
1000
0100
,
0010
0001
1000
0001
1000
0001
1000
0001
,
0000
2000
0000
3010
0020
0000
0032
0000
,
0013
0100
1000
0000
0010
0001
0020
0000
,
0000
0000
1030
0000
0000
0001
1000
0000
0010
0000
0100
0000
2000
0000
0000
0000
,
3001
0100
0002
0000
1003
0010
1000
0010
,
2000
0000
0000
3001
0010
1000
1100
0000
,
1010
0000
1001
0000
0000
0000
0000
1000
,
0010
1000
0010
1000
0010
1000
0001
0100
,
0001
0010
0100
1000
0100
0010
0001
0100
,
0001
0010
0100
0010
0100
0001
2000
0000
,
3002
0000
0203
0000
0320
0000
1030
0100
,
1000
0100
0010
0001
0010
0001
0010
0100
,
0010
0100
1000
0100
1000
0100
0010
0100
,
0010
0100
0010
0100
0010
0001
2000
0000
,
3001
0010
0100
1000
0100
0010
0002
0000
,
1003
0100
0010
0001
0010
0100
1000
0010
,
1000
0010
1000
0001
1000
0001
0010
0110
;

//---------------dance-single - Destrier75----------------
#NOTES:
     dance-single:
     Destrier75:
     Medium:
     9:
     0.428,0.441,0.099,0.039,0.000:
0000
0000
0000
0000
,
0000
0000
0000
0000
,
0000
0000
0000
0000
,
0000
0000
0000
0000
,
0000
0000
0000
0000
,
0000
0000
0000
0000
,
0000
1000
0010
1000
0000
0001
0100
0001
,
0000
0001
0000
1000
0000
1001
0000
0000
,
0000
0010
0100
0010
0000
0000
1000
0100
,
1000
0000
1000
0001
1000
0000
0001
0100
,
0001
0000
0001
1000
0001
0000
0000
1000
,
0010
0001
0000
1000
0010
1000
0010
1000
,
0000
0010
0100
1000
0000
0010
1000
0100
,
0010
0001
1000
0001
,
0000
0010
0100
0010
0100
0000
0100
0000
,
0001
0000
0010
1000
0010
1000
0010
1000
,
0000
0010
0100
0010
0000
0000
1000
0000
,
0001
0000
1000
0100
0010
0000
0001
0000
,
1000
0001
0100
0010
,
1000
0100
0010
0000
0001
0100
0001
0000
,
1000
0010
1000
0010
1000
0000
0100
0000
,
0010
0100
0001
1000
,
0100
0010
0100
0010
0100
0000
0010
0000
,
1000
0010
0001
1000
,
0001
1000
0001
1000
0001
0000
0010
0000
,
1000
0010
0100
0001
,
1000
0010
1000
0010
1000
0000
0100
0000
,
0010
0001
0100
1000
,
0000
1000
0001
1000
0001
0000
1000
0000
,
0010
0000
0010
0100
0010
0100
0010
0000
,
0000
0010
0100
0010
0100
0000
0001
0000
,
1000
0010
0001
1000
,
0000
1000
0001
1000
0001
0000
0010
0000
,
1000
0000
0001
0000
0100
0000
0000
0220
,
0000
0000
0000
0000
0000
0000
0000
0330
,
0100
0001
0100
0000
0010
0000
1000
0010
,
0001
0000
0001
0010
1000
0000
1001
0000
,
1000
0001
1000
0000
0010
0100
0010
0000
,
0100
0000
0001
0000
1000
0010
1000
0000
,
0100
0000
0001
0000
1000
0010
1000
0000
,
0100
0000
0010
0000
0001
0100
0001
0000
,
1000
0000
0010
0000
0100
0010
0100
0000
,
0001
0000
0100
0000
0001
0100
0001
0000
,
1000
0000
0010
0000
1000
0010
1000
0000
,
0100
0000
0010
0000
0100
0001
0101
0000
,
0101
0000
0101
0000
0010
1000
0010
0000
,
0100
0000
0010
0000
1000
0010
1000
0000
,
0100
0000
0001
0000
0100
0001
0100
0000
,
0010
0000
1000
0000
0010
1000
0010
0000
,
0100
0000
0010
0000
0001
0100
0001
0000
,
1000
0000
0100
0010
0100
0000
0001
0000
,
1000
0000
1000
0001
1000
0000
0001
0100
,
0002
0203
0310
1001
,
1001
1001
0000
0000
,
1000
0010
1000
0010
1000
0000
0100
0000
,
0010
0001
0010
0100
,
0010
0100
0010
0100
0010
0000
1000
0000
,
0100
0010
0100
1000
,
0001
1000
0001
1000
0001
0000
0100
0000
,
0010
0001
0010
0100
,
1000
0010
1000
0010
1000
0000
0000
0010
,
1000
0010
0000
0100
0010
0100
0000
0001
,
0100
0001
0000
1000
0010
1000
0000
0001
,
0010
0100
0000
1000
0100
0010
0000
1001
;

//---------------dance-single - Destrier75----------------
#NOTES:
     dance-single:
     Destrier75:
     Easy:
     6:
     0.309,0.347,0.148,0.069,0.000:
0000
0000
0000
0000
,
0000
0000
0000
0000
,
0000
0000
0000
0000
,
0000
0000
0000
0000
,
0000
0000
0000
0000
,
0000
0000
0000
0000
,
0100
0100
0010
0010
,
0001
0001
1000
1000
,
0001
0001
1000
1000
,
0000
1001
0000
0001
,
0000
0000
0101
0000
0000
0000
0000
1000
,
0000
0000
0001
0000
0000
0001
0000
1001
,
0000
1000
0010
1000
,
0001
0100
0001
1000
,
0010
1000
0001
0100
,
0001
1000
0010
1000
,
0001
0100
0001
1000
,
0010
1000
0001
0100
,
0001
1000
0010
1010
,
0000
0000
0000
0000
,
1000
0010
1000
0100
,
0010
0100
0001
0010
,
0001
1000
0010
1000
,
0001
0100
0001
0100
,
0001
0100
0010
1000
,
0010
0100
0010
0100
,
0001
1000
0001
0100
,
0001
0100
0010
1000
,
2000
0000
0001
0000
,
0001
0000
0001
0000
,
3002
0000
1000
0000
,
1000
0000
1000
0000
,
0023
0000
1000
0000
,
1000
0000
1000
0000
,
1030
0100
0010
0001
,
0010
0100
1000
0001
,
1000
0001
1000
2002
,
0000
0000
3003
1000
,
1000
0100
0100
0010
,
0010
0001
0001
0010
,
0010
0100
0100
1000
,
1000
0100
0100
0001
,
1000
0001
0100
0001
,
0100
0010
0100
0010
,
1000
0010
1000
0001
,
1000
1001
0000
0001
,
0001
0010
0010
0100
,
0100
1000
1000
0100
,
0100
0010
0010
0001
,
0001
1000
0010
1000
,
0001
1000
0010
0001
,
1000
0100
0010
0001
,
2002
0000
3003
1001
,
1001
1001
0000
0000
,
1000
0001
1000
0001
,
1000
0001
1001
0000
,
0100
0010
0100
0010
,
0100
0010
0110
0000
,
1000
1000
0100
0100
,
0001
0001
1000
1000
,
0001
1000
0001
0000
0100
0001
0100
0000
,
0000
0110
0000
1000
,
0000
0000
1001
0000
0000
0000
0000
0001
,
0000
0000
1000
0000
0000
0001
0000
1001
;

//---------------dance-single - Destrier75----------------
#NOTES:
     dance-single:
     Destrier75:
     Beginner:
     3:
     0.166,0.189,0.099,0.000,0.000: // measure 1
0000
0000
0000
0000
,  // measure 2
0000
0000
0000
0000
,  // measure 3
0000
0000
0000
0000
,  // measure 4
0000
0000
0000
0000
,  // measure 5
0000
0000
0000
0000
,  // measure 6
0000
0000
0000
0000
,  // measure 7
1000
0000
1000
0000
,  // measure 8
1000
0000
1000
0000
,  // measure 9
0000
0001
0000
1001
,  // measure 10
0000
0000
0000
0110
,  // measure 11
0000
0000
0000
0000
0000
0000
0000
0110
,  // measure 12
0000
0000
0000
0000
0000
0000
0000
1001
,  // measure 13
0000
0100
0000
0100
,  // measure 14
0000
0100
0000
0100
,  // measure 15
0000
0001
0000
1000
,  // measure 16
0000
1000
0000
1000
,  // measure 17
0000
1000
0000
1000
,  // measure 18
0000
1000
0000
1000
,  // measure 19
0000
0010
0000
0110
,  // measure 20
0000
0000
0000
0000
,  // measure 21
0000
0001
0000
0001
,  // measure 22
0000
0001
0000
0001
,  // measure 23
0000
0001
0000
0001
,  // measure 24
0000
1000
0000
1000
,  // measure 25
0000
1000
0000
1000
,  // measure 26
0000
0001
0000
0001
,  // measure 27
0000
0001
0000
0001
,  // measure 28
0000
0100
0000
0100
,  // measure 29
0000
0100
0000
0010
,  // measure 30
0000
0100
0000
0010
,  // measure 31
0000
1000
0000
0001
,  // measure 32
0000
1000
0000
0001
,  // measure 33
0000
0100
0000
0010
,  // measure 34
0000
0100
0000
0010
,  // measure 35
0000
1000
0000
0001
,  // measure 36
0000
1000
0000
0001
,  // measure 37
0001
0001
0001
1001
,  // measure 38
0000
0000
0000
1000
,  // measure 39
0000
1000
0000
0100
,  // measure 40
0000
0100
0000
0010
,  // measure 41
0000
0010
0000
0001
,  // measure 42
0000
0001
0000
0001
,  // measure 43
0000
0001
0000
0010
,  // measure 44
0000
0010
0000
0100
,  // measure 45
0000
0100
0000
1000
,  // measure 46
0000
1000
0000
0010
,  // measure 47
0000
0010
0000
0100
,  // measure 48
0000
0100
0000
1000
,  // measure 49
0000
1000
0000
0001
,  // measure 50
0000
0001
0000
0001
,  // measure 51
0000
0001
0000
1000
,  // measure 52
0000
1000
0000
0100
,  // measure 53
0000
0100
0000
0010
,  // measure 54
0000
0010
0000
0000
,  // measure 55
0000
1000
0000
1000
,  // measure 56
0000
1000
0000
1000
,  // measure 57
0000
0001
0000
0001
,  // measure 58
0000
0001
0000
1000
,  // measure 59
0000
1000
0000
0001
,  // measure 60
0000
0001
0000
1000
,  // measure 61
0000
1000
0000
1001
,  // measure 62
0000
0000
0000
0110
,  // measure 63
0000
0000
0000
0000
0000
0000
0000
1001
,  // measure 64
0000
0000
0000
0000
0000
0000
0000
1001
;
