#TITLE:LookNumOakRerg;
#SUBTITLE:;
#ARTIST:LookNum R-Siam;
#TITLETRANSLIT:;
#SUBTITLETRANSLIT:;
#ARTISTTRANSLIT:;
#CREDIT:;
#BANNER:LookNumOakRerg.png;
#BACKGROUND:LookNumOakRerg-bg.png;
#LYRICSPATH:;
#CDTITLE:;
#MUSIC:LookNumOakRerg.ogg;
#OFFSET:1.220;
#SAMPLESTART:51.000;
#SAMPLELENGTH:15.000;
#SELECTABLE:YES;
#BPMS:0.000=124.000;
#STOPS:;
#BGCHANGES:2.500=LookNumOakRerg.avi=1.000=1=1=0,
99999=-nosongbg-=1.000=0=0=0 // don't automatically add -songbackground-
;

//---------------dance-single - Destrier75----------------
#NOTES:
     dance-single:
     Destrier75:
     Hard:
     11:
     0.453,0.403,0.175,0.135,0.028: // measure 1
0000
0000
0000
0000
,  // measure 2
0000
0000
0000
0000
,  // measure 3
0000
0000
0000
0000
,  // measure 4
0000
0000
1000
0010
0100
0010
0001
0100
,  // measure 5
0010
0100
2000
0000
0010
0000
3001
0000
,  // measure 6
0001
0100
0010
0000
0001
0100
0010
0100
,  // measure 7
0001
1000
0200
0000
0010
0000
0301
0001
,  // measure 8
0100
0010
2000
0000
3001
0100
0010
0100
,  // measure 9
0001
0100
2000
0000
0001
0000
3010
1000
,  // measure 10
0010
1000
0010
0001
0100
0001
0100
0001
,  // measure 11
0100
0010
0100
0001
1000
0010
0100
0010
,  // measure 12
1000
0010
1000
0010
1000
0010
0100
0000
,  // measure 13
0010
0000
0100
0001
0100
0001
0010
0000
,  // measure 14
1000
0000
0100
0010
0100
0001
0010
0000
,  // measure 15
0100
0000
0001
0100
0010
0001
1000
0000
,  // measure 16
0100
0000
0010
0100
0010
0100
0001
0000
,  // measure 17
1000
0000
0100
0001
0100
0010
0100
0000
,  // measure 18
0001
0000
1000
0001
1000
0100
0010
0000
,  // measure 19
0100
0000
0001
0101
0000
0101
0000
0000
,  // measure 20
0010
0000
1000
0010
1000
0010
1000
0000
,  // measure 21
0100
0000
0001
0100
0001
0100
0001
0000
,  // measure 22
0010
0000
0100
0010
0100
0010
0100
0000
,  // measure 23
0001
0000
1000
0001
1000
0001
1000
0000
,  // measure 24
0010
0000
0100
0010
0100
0010
0100
0000
,  // measure 25
0001
0000
1000
0010
1000
0010
1000
0000
,  // measure 26
0001
1001
0000
1001
,  // measure 27
0000
0000
0100
0110
0000
0110
0000
0000
,  // measure 28
0100
0010
0100
0001
0010
0001
0100
0001
,  // measure 29
0100
0001
2000
0000
0010
0000
3100
0000
,  // measure 30
0001
0100
0010
0100
0001
0010
0100
1000
,  // measure 31
0010
1000
0002
0000
0100
0000
0013
0000
,  // measure 32
0100
0010
0100
0001
0100
1000
0010
0100
,  // measure 33
0010
0100
0002
0000
1000
0000
0103
0000
,  // measure 34
1000
0010
1000
0001
1000
0010
0100
1000
,  // measure 35
0010
0100
0220
0000
0000
0000
0330
0000
,  // measure 36
1001
0000
0000
0000
1010
0000
0000
0010
0000
0000
0011
0000
0000
0000
0010
0000
,  // measure 37
0000
0010
0000
0000
1010
0000
1000
0001
1000
0000
0001
0000
1000
0000
0000
0000
,  // measure 38
0000
0010
0000
0000
0010
0000
0000
0001
0000
0010
0100
0000
0000
0000
0100
0000
,  // measure 39
0000
0100
0000
0000
0100
0000
0101
0000
0000
0000
0101
0000
0000
0000
0000
0000
,  // measure 40
0010
0000
1000
0010
1000
0010
1000
0000
,  // measure 41
0001
0000
0100
0010
0100
0010
0100
0000
,  // measure 42
0010
0000
1000
0001
1000
0001
1000
0000
,  // measure 43
0001
0000
0100
0001
0100
0001
0100
0000
,  // measure 44
0010
0000
1000
0010
1000
0010
1000
0000
,  // measure 45
0010
0000
1000
0001
1000
0001
1000
0000
,  // measure 46
0010
0110
0000
1010
,  // measure 47
0000
0000
0101
0101
0000
0101
0000
0000
,  // measure 48
0010
0100
0010
0100
0001
0100
0010
1000
,  // measure 49
0001
0100
0002
0000
0100
0000
1003
0000
,  // measure 50
0001
0100
0010
0001
1000
0001
0100
0010
,  // measure 51
0100
0001
2000
0000
0010
0000
3100
0000
,  // measure 52
0001
1000
0010
0100
0010
0001
0100
0010
,  // measure 53
0100
0001
2000
0000
0001
0000
3100
0000
,  // measure 54
0010
1000
0001
0100
0010
0100
0010
0100
,  // measure 55
0001
0100
0202
0000
0000
0000
0303
0000
,  // measure 56
1000
0010
1000
0001
1000
0010
1000
0000
,  // measure 57
0001
1001
0001
0100
,  // measure 58
1000
0100
1000
0010
1000
0001
1000
0010
,  // measure 59
0000
1010
0000
0000
1000
0000
0010
1000
,  // measure 60
0100
0010
2000
0000
3010
0010
0001
0100
,  // measure 61
0001
0100
0020
0000
0000
0000
1030
0100
,  // measure 62
0010
0001
0200
0000
0301
0010
1000
0010
,  // measure 63
0001
1000
0010
0001
0010
0100
0001
0100
,  // measure 64
0100
0010
0101
0000
0000
0000
0000
0000
;

//---------------dance-single - Destrier75----------------
#NOTES:
     dance-single:
     Destrier75:
     Easy:
     5:
     0.265,0.227,0.127,0.000,0.000:
0000
0000
0000
0000
,
0000
0000
0000
0000
,
0000
0000
0000
0000
,
0000
1000
0010
1000
,
0010
1000
0001
1000
,
0001
0001
0100
0001
,
0100
0001
0100
0010
,
0100
0100
0010
0100
,
0010
0100
0001
0100
,
0001
1000
0010
1000
,
0010
1000
0000
1001
,
0000
0100
0010
0100
,
0010
0100
0010
0100
,
0010
1000
0001
1000
,
0001
1000
0010
0100
,
0001
0100
0001
0100
,
0001
0100
0010
1000
,
0100
0010
1000
0010
,
1000
0010
0100
0001
,
0100
1000
0001
1000
,
0001
1000
0001
1000
,
0010
1000
0010
1000
,
0001
1000
0001
1000
,
0001
0100
0010
0100
,
0001
1000
0001
1000
,
0001
1001
0000
1001
,
0000
0000
1001
0000
0000
1001
0000
0000
,
0000
1000
0010
1000
,
0010
1000
1000
1000
,
1000
0001
0100
0001
,
0100
0100
0100
0100
,
0010
0100
0010
0100
,
0010
0010
0010
0010
,
0100
0001
0100
0001
,
0100
0101
0000
0000
,
0000
0100
0100
0100
,
0010
0010
0010
0100
,
0100
0100
0010
0010
,
0010
0000
1001
0000
0000
1001
0000
0000
,
0000
0100
0010
0100
,
0010
0100
0010
0100
,
0001
1000
0001
1000
,
0010
1000
0010
1000
,
0001
1000
0001
1000
,
0001
1000
0010
1000
,
0010
1010
0000
1010
,
0000
0000
1010
0000
0000
1010
0000
0000
,
0000
1000
0010
1000
,
0010
1000
1000
1000
,
1000
0001
0100
0001
,
0100
0001
0001
0001
,
0001
0100
0010
0100
,
0010
0100
0100
0100
,
0100
0010
0001
0010
,
0001
0011
0000
0000
,
0000
1000
0001
1000
,
0001
1000
0000
0010
,
0000
0100
0010
0100
,
0010
0100
0000
0010
,
0000
1000
0010
1000
,
0010
1000
0100
0001
,
0100
0001
0100
0010
,
1000
1010
0000
1010
,
0000
1010
0000
0000
;

//---------------dance-single - Destrier75----------------
#NOTES:
     dance-single:
     Destrier75:
     Medium:
     7:
     0.353,0.328,0.135,0.008,0.000:
0000
0000
0000
0000
,
0000
0000
0000
0000
,
0000
0000
0000
0000
,
0000
0000
1000
0000
0100
0010
0100
0000
,
0001
0000
1000
0000
0100
0001
0100
0000
,
0010
0000
1000
0000
0001
0100
0001
0000
,
0010
0000
0100
0000
0010
1000
0010
0000
,
0100
0000
1000
0010
1000
0000
0010
0000
,
0100
0000
0001
0100
0001
0000
0010
0000
,
0100
0000
1000
0001
1000
0000
0100
0000
,
0001
0000
0010
1000
0010
0000
0100
0001
,
0100
0000
0010
0100
0010
0000
0010
0000
,
0100
0000
0001
1000
0001
0000
1000
0000
,
0001
0000
0100
0000
0010
0000
0100
0001
,
0100
0000
0010
0000
1000
0000
0100
0010
,
0100
0000
0001
0000
0100
0000
0001
0100
,
0001
0000
0010
0000
1000
0000
0010
1000
,
0010
0000
0100
0000
0010
0000
0100
0001
,
0100
0000
0001
0001
0000
1001
0000
0000
,
0000
0000
1000
0010
1000
0010
1000
0000
,
0100
0001
0100
0001
,
1001
0000
1000
0010
1000
0010
1000
0000
,
0100
0010
0100
0010
,
1010
0000
0100
0010
0100
0010
0100
0000
,
0001
1000
0010
0100
,
0010
0110
0000
1001
,
0000
0000
0001
0001
0000
1001
0000
0000
,
0000
0000
1000
0010
1000
0000
0100
0000
,
0010
0000
0001
0100
0001
0000
0100
0000
,
0010
0000
0001
0100
0001
0000
1000
0000
,
0010
0000
0100
0010
0100
0000
0001
0000
,
1000
0000
0010
1000
0010
0000
0100
0001
,
0100
0001
1000
1001
,
0000
0000
1000
0010
1000
0000
0100
0010
,
0100
0001
1000
0001
,
1000
0000
1000
0001
1000
0001
1000
0000
,
0010
0000
0100
0000
0010
0100
0010
0100
,
0010
0000
1000
0010
1000
0010
1000
0000
,
0001
0000
0001
0100
0000
0101
0000
0000
,
0000
0000
1000
0001
1000
0001
1000
0000
,
0100
0001
0100
0001
,
0101
0000
1000
0001
1000
0001
1000
0000
,
0001
0010
0100
0010
,
1010
0000
0100
0001
0100
0001
0100
0000
,
1000
0010
0100
0001
,
1000
1001
0000
1001
,
0000
0000
0001
1000
0000
1001
0000
0000
,
0000
0000
1000
0010
1000
0010
1000
0000
,
0100
0000
0010
0100
0010
0100
0010
0000
,
0100
0000
1000
0010
1000
0010
1000
0000
,
0100
0000
0001
0100
0001
0100
0001
0000
,
0100
0000
0010
0100
0010
0100
0010
0000
,
1000
0000
0100
0001
0100
0001
0100
0000
,
0010
0000
1000
0010
1000
0010
1000
0000
,
0001
2001
0000
0000
,
3001
0000
0010
0100
0010
0000
0100
0000
,
0010
0110
0010
0100
,
0001
0000
1000
0010
1000
0000
0010
0000
,
1000
1010
0010
1000
,
0000
0000
1000
0010
1000
0000
0010
0000
,
0100
0000
0001
0100
0001
0000
0010
0000
,
0100
0000
1000
0010
1000
0000
0100
0000
,
0001
0000
1000
0001
1000
0000
0001
0100
,
0001
0110
0000
0000
;

//---------------dance-single - Destrier75----------------
#NOTES:
     dance-single:
     Destrier75:
     Beginner:
     2:
     0.184,0.176,0.120,0.000,0.000:
0000
0000
0000
0000
,
0000
0000
0000
0000
,
0000
0000
0000
0000
,
0000
0100
0000
0100
,
0000
0010
0000
0010
,
0000
0001
0000
0001
,
0000
1000
0000
1000
,
0000
0001
0001
0001
,
0000
1000
1000
1000
,
0000
0001
0001
0001
,
0000
1001
0000
1001
,
0000
1000
0000
1000
,
0000
0001
0000
0001
,
0000
0100
0000
0100
,
0000
0010
0000
0010
,
0000
0100
0000
0100
,
0000
0001
0000
0001
,
0000
1000
0000
1000
,
0000
1001
0000
0000
,
0000
1000
1000
1000
,
0000
0001
0001
0001
,
0000
0100
0100
0100
,
0000
0010
0010
0010
,
0000
0100
0100
0100
,
0000
0010
0010
0010
,
0000
0110
0000
0110
,
0000
0110
0000
0000
,
0000
0010
0010
0010
,
0000
0100
0100
0100
,
0000
0001
0001
0001
,
0000
1000
1000
1000
,
0000
0001
0001
0001
,
0000
0100
0100
0100
,
0000
0010
0010
0010
,
0000
0110
0000
0000
,
0000
1000
0000
1000
,
0000
0001
0000
0001
,
0000
1000
0000
1000
,
0000
1001
0000
0000
,
0000
0100
0100
0100
,
0000
0010
0010
0010
,
0000
1000
1000
1000
,
0000
0001
0001
0001
,
0000
1000
1000
1000
,
0000
0010
0010
0010
,
0000
1001
0000
1001
,
0000
1001
0000
0000
,
0000
1000
1000
1000
,
0000
0001
0001
0001
,
0000
0100
0100
0100
,
0000
0010
0010
0010
,
0000
0100
0100
0100
,
0000
0001
0001
0001
,
0000
1000
1000
1000
,
0000
1001
0000
0000
,
0000
1000
0000
1000
,
0000
0001
0000
0001
,
0000
1000
0000
1000
,
0000
0001
0000
0001
,
0000
1000
1000
1000
,
0000
0001
0001
0001
,
0000
0100
0100
0100
,
0000
0110
0000
1001
,
0000
1001
0000
0000
;
