#TITLE:Let us sing "Peaky!!";
#SUBTITLE:;
#ARTIST:Peaky P-key;
#TITLETRANSLIT:;
#SUBTITLETRANSLIT:;
#ARTISTTRANSLIT:;
#CREDIT:;
#BANNER:Let us sing Peaky!!.png;
#BACKGROUND:Let us sing Peaky!!-bg.png;
#LYRICSPATH:;
#CDTITLE:;
#MUSIC:Let us sing Peaky!!.ogg;
#OFFSET:0.400;
#SAMPLESTART:70.120;
#SAMPLELENGTH:15.000;
#SELECTABLE:YES;
#BPMS:0.000=140.000;
#STOPS:;
#BGCHANGES:0.938=Let us sing Peaky!!.avi=1.000=1=1=0,
99999=-nosongbg-=1.000=0=0=0 // don't automatically add -songbackground-
;

//---------------dance-single - Destrier75----------------
#NOTES:
     dance-single:
     Destrier75:
     Beginner:
     2:
     0.188,0.198,0.026,0.000,0.000:
0000
0000
0000
0000
,
0000
0000
0000
0000
,
0000
0000
0000
0000
,
0000
0000
0000
0000
,
0000
0000
1000
0000
,
1000
0000
0001
0000
,
0001
0000
0100
0000
,
0100
0000
0100
0000
,
0100
0000
1000
1000
,
1000
0000
0001
0001
,
0001
0000
0100
0100
,
0100
0000
0010
0010
,
0010
0000
0100
0100
,
0100
0000
0010
0010
,
0010
0000
0100
0000
,
0100
0000
0010
0000
,
0010
0000
1000
0000
,
1000
0000
0001
0000
,
0001
0000
0100
0000
,
0100
0000
0010
0000
,
0010
0000
1000
0000
,
1000
0000
0001
0000
,
0001
0000
1000
0000
,
1000
0000
0010
0000
,
0010
0000
0001
0000
,
0001
0000
0100
0000
,
0100
0000
1000
1000
,
1000
0000
1000
0000
,
1000
0000
0001
0001
,
0001
0000
0001
0000
,
0001
0000
0100
0100
,
0100
0000
0010
0010
,
0010
0000
1000
1000
,
1000
0000
1001
0000
,
0000
0000
0000
0000
,
0000
0010
0100
0100
,
0100
0000
0001
0001
,
0001
0000
1000
1000
,
1000
0000
0010
0010
,
0010
0000
0100
0100
,
0100
0000
0001
0001
,
0001
0000
1000
0000
,
1000
0000
0001
0000
,
0001
0000
0100
0000
,
0100
0000
0010
0000
,
0010
0000
1000
0000
,
1000
0000
0001
0000
,
0001
0000
0100
0000
,
0100
0000
0010
0000
,
0010
0000
1000
1000
,
1000
0000
0001
0001
,
0001
0000
0100
0100
,
0100
0000
0010
0010
,
0010
0000
1000
1000
,
1000
0000
0001
0001
,
0001
0000
0100
0100
,
0100
0000
0010
0010
,
0010
0000
1000
0000
,
1000
0000
0001
0000
,
0001
0000
0100
0000
,
0100
0000
0010
0000
,
0010
0000
1000
1000
,
1000
0000
0001
0001
,
0001
0000
0100
0100
,
0100
0000
0010
0010
,
0010
0000
0110
0000
,
0000
0110
0000
0000
;

//---------------dance-single - Destrier75----------------
#NOTES:
     dance-single:
     Destrier75:
     Easy:
     5:
     0.289,0.283,0.137,0.094,0.000:
0000
0000
0000
0000
,
0000
0000
0000
0000
,
0000
0000
0000
0000
,
0000
0000
0000
0000
,
0000
0000
0100
0100
,
0100
0100
0001
0001
,
0001
0001
1000
1000
,
1000
1000
0001
0001
,
0001
0001
1000
1000
,
1000
0000
0001
0001
,
0001
0000
0100
0100
,
0100
0000
0010
0010
,
0010
0000
1000
1000
,
1000
0000
0001
0001
,
0001
0000
1000
1000
,
1000
0000
0010
0010
,
0010
0000
0100
0010
,
0100
0010
0100
0010
,
0100
0010
1000
1000
,
1000
1000
0001
0001
,
0001
0001
1000
1000
,
1000
1000
0010
0010
,
0010
0010
1000
0001
,
1000
0001
0100
0001
,
0100
0001
1000
0010
,
1000
0010
1000
0001
,
1000
0000
0001
0000
1001
0000
0000
2002
,
0000
0000
0000
0000
,
0000
0000
3003
0000
0110
0000
0000
0220
,
0000
0000
0000
0000
,
0000
0000
0330
0000
1010
0000
0000
2020
,
0000
0000
3030
0000
0101
0000
0000
0202
,
0000
0303
0000
0000
1001
0000
0000
0000
,
1001
0000
2002
0000
,
0000
0000
0000
0000
,
0000
3003
1000
0010
,
1000
0010
0100
0001
,
0100
0001
1000
1000
,
0001
0001
1000
1000
,
0001
0001
0100
0100
,
0010
0010
0100
0100
,
0110
0000
1000
0010
,
1000
0010
0100
0001
,
0100
0001
0010
1000
,
0010
0100
0010
0001
,
1000
0001
1000
0001
,
1000
0100
0010
0001
,
1000
0001
0100
0010
,
1000
0001
0100
0010
,
1001
0000
1000
0010
,
1000
0010
0100
0001
,
0100
0001
0010
1000
,
0010
1000
0001
0100
,
0001
0100
0001
1000
,
0001
1000
0001
1000
,
0001
0100
0001
0100
,
0001
1000
0020
1030
,
0000
0000
1000
1000
,
1000
1000
0001
0001
,
0001
0001
0100
0100
,
0100
0100
0010
0010
,
0010
0010
0100
0100
,
0100
0100
0001
0001
,
0001
0001
1000
1000
,
1000
1000
0010
0010
,
0010
0000
0010
0000
0110
0000
0000
0110
,
0000
0110
0000
0000
;

//---------------dance-single - Destrier75----------------
#NOTES:
     dance-single:
     Destrier75:
     Medium:
     8:
     0.416,0.425,0.162,0.197,0.051:
0000
0000
0000
0000
,
0000
0000
0000
0000
,
0000
0000
0000
0000
,
0000
0000
0000
0000
,
0000
0000
0000
0000
1000
0010
1000
0000
,
0100
0000
0010
0000
0001
0100
0001
0000
,
1000
0000
0001
0000
0100
0001
0100
0000
,
0010
0000
1000
0000
0001
1000
0001
0000
,
1000
0000
0000
0000
0001
0000
0000
0000
1000
0000
0000
0010
0000
0000
2020
0000
,
0000
0000
0000
0000
3030
0000
0000
0000
0100
0000
0000
0010
0000
0000
0220
0000
,
0000
0000
0000
0000
0330
0000
0000
0000
1000
0000
0000
0100
0000
0000
2020
0000
,
0000
0000
0000
0000
,
0000
0000
0000
0000
3030
0000
0000
0000
0001
0000
0000
0100
0000
0000
0202
0000
,
0000
0000
0000
0000
0303
0000
0000
0000
1000
0000
0000
0001
0000
0000
2002
0000
,
0000
0000
0000
0000
3003
0000
0000
0000
1000
0000
0000
0010
0000
0000
2020
0000
,
0000
0000
3030
0000
1000
0010
1000
0000
,
0100
0001
0100
0000
1000
0010
1000
0010
,
1000
0000
0010
0000
0100
0001
0100
0001
,
0100
0000
0100
0000
0010
0100
0010
0100
,
0010
0000
0010
0000
1000
0001
1000
0001
,
1000
0000
1000
0000
0100
0001
0100
0000
,
0001
1000
0001
0000
0010
1000
0010
0000
,
1010
0000
1010
0000
0100
0001
0100
0001
,
0100
0000
0010
0000
1000
0001
1000
0001
,
1000
0000
1000
0000
0100
0001
0100
0000
,
0010
1000
0010
0000
0010
1000
0010
1000
,
0010
0000
0000
0000
0010
0000
0000
0000
0100
0000
0000
0010
0000
0000
0220
0000
,
0000
0000
0000
0000
,
0000
0000
0000
0000
0330
0000
0000
0000
1000
0000
0000
0001
0000
0000
2002
0000
,
0000
0000
0000
0000
,
0000
0000
0000
0000
3003
0000
0000
0000
1000
0000
0000
0010
0000
0000
2020
0000
,
0000
0000
0000
0000
3030
0000
0000
0000
0001
0000
0000
0100
0000
0000
0202
0000
,
0000
0000
0000
0000
0303
0000
0000
0000
0100
0000
0000
0001
0000
0000
1000
0000
,
0001
0000
0000
0010
0000
0000
1000
0000
2010
0000
0000
0000
0000
0000
0000
0000
,
0000
0000
0000
0000
,
0000
0001
3001
0000
0100
0001
0100
0001
,
0100
0000
0010
0000
1000
0010
1000
0010
,
1000
0000
0100
0000
0001
0100
0001
0100
,
0001
0000
0001
0000
1000
0001
1000
0001
,
1000
0000
0010
0000
1000
0010
1000
0000
,
0100
0001
0100
0000
0010
0001
0010
0001
,
0010
0000
0000
0000
1000
0010
1000
0010
,
1000
0000
0010
0000
0100
0001
0100
0001
,
0100
0000
0001
0000
0010
0100
0010
0100
,
0010
0000
0100
0000
1000
0001
1000
0001
,
1000
0000
0010
0000
0100
0001
0100
0001
,
0100
0000
1000
0000
0010
1000
0010
1000
,
0010
0000
0010
0000
0100
0001
0100
0001
,
0100
0001
0100
0000
0100
0000
1100
0000
,
1000
0000
1010
0000
1000
0001
1000
0001
,
1000
0000
0010
0000
0100
0010
0100
0010
,
0100
0000
1000
0000
0001
0100
0001
0100
,
0001
0000
0001
0000
1000
0010
1000
0010
,
1000
0000
0010
0000
0100
0010
0100
0000
,
0010
0000
0100
0000
1000
0010
1000
0000
,
0001
0000
1000
0000
0001
1000
0001
0000
,
1000
0001
1000
0000
2002
0000
3003
0000
,
0000
0000
1000
0000
1000
0100
1000
0100
,
1000
0000
1000
0000
0001
0100
0001
0100
,
0001
0000
0001
0000
0010
0100
0010
0100
,
0010
0000
0010
0000
1000
0010
1000
0010
,
1000
0000
1000
0000
0001
0100
0001
0100
,
0001
0000
0001
0000
1000
0010
1000
0010
,
1000
0000
1000
0000
0100
0001
0100
0001
,
0100
0000
0100
0000
0001
0010
0001
0000
,
1000
0010
1000
0000
1001
0000
0000
1001
,
0000
1001
0000
0000
;

//---------------dance-single - Destrier75----------------
#NOTES:
     dance-single:
     Destrier75:
     Challenge:
     14:
     0.634,0.682,0.547,0.299,0.406: // measure 1
0000
0000
0000
0000
,  // measure 2
0000
0000
0000
0000
,  // measure 3
0000
0000
0000
0000
,  // measure 4
0000
0000
0000
0000
,  // measure 5
0000
0000
0000
0000
0000
0000
0000
0000
1000
0000
0000
0010
0000
0000
1000
0000
,  // measure 6
0000
0000
0000
0000
0000
0000
1000
0001
1000
0000
0000
0001
0000
0000
1001
0000
,  // measure 7
0000
0000
1010
0000
0000
0000
0000
0000
1000
0000
0000
0010
0000
0000
1000
0000
,  // measure 8
0000
0000
0000
0000
0010
0000
0000
0000
0110
0000
0000
0110
0000
0000
0110
0000
,  // measure 9
0100
0000
0010
0100
0010
0000
1000
0000
1010
0000
0000
0110
0000
0000
0202
0000
,  // measure 10
0000
0000
0000
0000
0000
0000
0303
0000
0110
0000
0000
1010
0000
0000
0202
0000
,  // measure 11
0000
0000
0000
0000
0000
0000
0303
0000
0110
0000
0000
1010
0000
0000
0220
0000
,  // measure 12
0000
0000
0000
0330
0000
0000
0000
1000
,  // measure 13
0001
0000
1000
0000
0001
0000
1000
0000
1001
0000
0000
0101
0000
0000
0220
0000
,  // measure 14
0000
0000
0000
0000
0000
0000
0330
0000
1010
0000
0000
0101
0000
0000
2020
0000
,  // measure 15
0000
0000
0000
0000
0000
0000
3030
0000
0110
0000
0000
0101
0000
0000
0220
0000
,  // measure 16
0000
0000
0000
0000
0000
0000
0330
0000
1000
0000
0010
1000
0010
0000
1000
0000
,  // measure 17
1000
0010
1000
0000
0010
0000
1000
0000
0010
0000
1000
0000
0100
0000
0010
0000
,  // measure 18
0001
1000
0001
1000
0001
0100
0001
0010
,  // measure 19
1000
0010
1000
0010
1000
0100
0010
0001
,  // measure 20
0100
0000
0001
0100
0000
0000
0001
0000
0100
0000
0010
0000
1000
0000
0010
0000
,  // measure 21
1000
0000
0001
1000
0000
0000
0001
0000
1000
0000
0010
0100
0000
0000
0001
0000
,  // measure 22
1000
0000
0001
1000
0000
0000
0100
0000
0010
0000
1000
0001
0000
0000
1000
0000
,  // measure 23
1010
0000
0101
0000
1001
0010
1000
0001
,  // measure 24
1000
0001
0010
0100
0001
1000
0010
0100
,  // measure 25
0010
0000
0100
0010
0000
0000
0100
0000
0010
0000
1000
0000
0010
0000
1000
0000
,  // measure 26
1010
0000
0010
0000
0001
0000
0010
0000
0011
0000
0000
0110
0000
0000
1001
0000
,  // measure 27
1001
0000
0000
0000
1001
0000
0000
0000
1001
0000
0000
0101
0000
0000
2020
0000
,  // measure 28
0000
0000
0000
0000
,  // measure 29
0000
0000
0000
0000
0000
0000
3030
0000
1001
0000
0000
1010
0000
0000
2200
0000
,  // measure 30
0000
0000
0000
0000
,  // measure 31
0000
0000
0000
0000
0000
0000
3300
0000
1001
0000
0000
0101
0000
0000
0022
0000
,  // measure 32
0000
0000
0000
0000
0000
0000
0033
0000
1001
0000
0000
0110
0000
0000
2002
0000
,  // measure 33
0000
0000
0000
0000
0000
0000
3003
0000
1010
0000
0000
0110
0000
0000
0101
0000
,  // measure 34
0101
0000
0000
0110
0000
0000
1010
0000
2020
0000
0000
0000
0000
0000
0000
0000
,  // measure 35
0000
0000
0000
0000
,  // measure 36
3030
0000
1000
0000
1001
0000
0000
0000
1000
0000
0001
1000
0000
0001
1000
0000
,  // measure 37
0100
0000
0010
0000
1000
0000
0010
0000
1000
0000
0010
1000
0000
0010
1000
0000
,  // measure 38
0100
0000
0001
0000
0100
0000
0010
0000
1000
0100
1000
0000
0010
0001
0010
0000
,  // measure 39
1000
0010
1000
0000
0100
0010
0100
0000
0010
0001
0010
0000
1000
0010
1000
0000
,  // measure 40
0010
0001
0010
0000
1000
0010
1000
0000
0100
0010
0100
0000
0010
0000
1000
0000
,  // measure 41
0100
0001
0100
0000
0010
0000
1000
0000
0100
0000
0001
0100
0000
0001
0100
0000
,  // measure 42
0001
0000
0100
0000
0001
0000
0010
0000
1000
0000
0010
1000
0000
0010
1000
0000
,  // measure 43
0100
0000
0010
0000
1000
0000
0001
0000
0100
0000
0001
0100
0000
0001
0100
0000
,  // measure 44
0010
0000
1000
0000
0010
0000
0100
0000
0010
0000
0100
0010
0000
0100
0010
0000
,  // measure 45
1000
0000
0001
0000
1000
0000
0010
0000
1000
0000
0010
1000
0000
0010
1000
0000
,  // measure 46
0010
0000
0100
0000
0001
0000
0100
0000
0001
0000
0001
0100
0000
0001
0100
0000
,  // measure 47
1000
0000
0001
0000
0100
0000
0010
0000
1000
0000
1000
0010
0000
1000
0010
0000
,  // measure 48
1000
0001
1000
0010
1000
1000
0001
0001
,  // measure 49
1000
0010
1000
0000
0001
0100
0001
0000
2002
0000
0000
0000
3003
0000
0000
0000
,  // measure 50
0110
0000
0000
1100
0000
0000
0110
0000
1000
0000
0001
1000
0000
0001
1000
0000
,  // measure 51
0100
0000
0010
0000
1000
0000
0001
0000
0100
0000
0001
0100
0000
0001
0100
0000
,  // measure 52
0010
0000
1000
0000
0010
0000
1000
0000
0010
0000
1000
0010
0000
1000
0010
0000
,  // measure 53
0100
0000
0010
0000
0100
0000
0001
0000
0100
0000
0001
0100
0000
0001
0100
0000
,  // measure 54
0010
0000
0100
0000
0001
0000
1000
0000
0010
0000
0001
0100
0000
0001
0100
0000
,  // measure 55
0001
0000
0100
0000
1000
0000
0010
0000
1000
0000
0010
1000
0000
0010
1000
0000
,  // measure 56
0100
0000
0010
0000
0100
0000
0001
0000
1000
0000
0001
1000
0000
0001
1000
0000
,  // measure 57
0001
0000
1000
0010
0000
1000
0010
0000
2020
0000
0000
0000
0000
0000
0000
0000
,  // measure 58
3030
0000
0000
0000
0000
0000
0000
0000
1000
0000
0010
1000
0000
0010
1000
0000
,  // measure 59
0100
0000
0001
0100
0001
0000
0100
0000
0010
0000
1000
0010
0000
1000
0010
0000
,  // measure 60
0100
0000
1000
0100
1000
0000
0100
0000
0001
0000
1000
0001
0000
1000
0001
0000
,  // measure 61
0100
0000
0001
0100
0001
0000
0010
0000
1000
0000
0100
0010
0000
0100
0010
0000
,  // measure 62
0001
0000
0100
0001
0100
0000
0001
0000
1010
0000
1000
0001
0000
1000
0001
0000
,  // measure 63
0100
0000
0010
0100
0010
0000
0001
0000
1000
0000
0001
0100
0000
0001
0100
0000
,  // measure 64
0010
0000
0001
1000
0001
0000
0100
0000
1010
0000
0000
0110
0000
0000
0202
0000
,  // measure 65
0000
0303
2000
0000
3001
0001
1000
1000
,  // measure 66
0010
0000
0010
1000
0000
0010
1000
0000
0220
0000
0000
0000
0330
0000
2002
0000
,  // measure 67
0000
3003
0220
0000
0330
0000
0000
0000
;

//---------------dance-single - Destrier75----------------
#NOTES:
     dance-single:
     Destrier75:
     Hard:
     10:
     0.471,0.483,0.145,0.256,0.098:
0000
0000
0000
0000
,
0000
0000
0000
0000
,
0000
0000
0000
0000
,
0000
0000
0000
0000
,
0000
0000
0000
0000
1000
0010
1000
0000
,
0100
0001
0100
0000
1000
0010
1000
0000
,
0100
0010
0100
0000
0001
0100
0001
0000
,
1000
0000
0001
0000
1000
0000
0000
0000
0001
0000
0000
1000
0000
0000
0001
0000
,
1001
0000
0000
0000
0000
0000
0000
0000
1000
0000
0000
0010
0000
0000
2020
0000
,
0000
0000
0000
0000
3030
0000
0000
0000
0100
0000
0000
0001
0000
0000
0202
0000
,
0000
0000
0000
0000
0303
0000
0000
0000
0100
0000
0000
0010
0000
0000
0220
0000
,
0000
0000
0330
0000
1000
0100
1000
0000
,
1000
0000
0001
0000
1000
0000
0000
0000
1000
0000
0000
0001
0000
0000
2002
0000
,
0000
0000
0000
0000
3003
0000
0000
0000
0001
0000
0000
0100
0000
0000
0202
0000
,
0000
0000
0000
0000
0303
0000
0000
0000
1000
0000
0000
0010
0000
0000
2020
0000
,
0000
0000
3030
0000
1000
0010
1000
0000
,
0001
0100
0001
0000
1000
0010
1000
0100
,
0010
1000
0001
0000
0100
0010
0100
0001
,
1000
0001
0100
0000
0010
1000
0100
0010
,
0001
0100
0010
0000
1000
0001
1000
0001
,
1000
0010
0100
0000
0001
0100
0001
1000
,
0001
0100
0001
0000
1000
0001
1000
0010
,
1000
0000
1010
0000
0100
0010
0100
0010
,
0100
0010
0100
0000
0001
1000
0001
1000
,
0001
1000
0001
0000
1000
0010
1000
0010
,
1000
0000
0010
0000
1000
0000
0000
0000
0100
0000
0000
0010
0000
0000
0100
0000
,
0010
0000
0000
0000
0110
0000
0000
0000
1000
0000
0000
0001
0000
0000
2002
0000
,
0000
0000
0000
0000
,
0000
0000
0000
0000
3003
0000
0000
0000
0100
0000
0000
0010
0000
0000
0220
0000
,
0000
0000
0000
0000
,
0000
0000
0000
0000
0330
0000
0000
0000
1000
0000
0000
0010
0000
0000
2020
0000
,
0000
0000
0000
0000
3030
0000
0000
0000
0001
0000
0000
0100
0000
0000
0202
0000
,
0000
0000
0000
0000
0303
0000
0000
0000
1000
0000
0000
0010
0000
0000
1000
0000
,
0010
0000
0000
1000
0000
0000
0001
0000
2000
0000
0000
0000
0000
0000
0000
0000
,
0000
0000
0000
0000
,
0000
0001
3001
0000
1000
0010
1000
0100
,
1000
0010
1000
0000
0001
0100
0001
0010
,
0001
0100
0001
0000
1000
0001
1000
0001
,
1000
0001
1000
0001
1000
0010
1000
0010
,
1000
0010
1000
0010
1000
0100
1000
0100
,
1000
0100
1000
0001
1000
0001
1000
0001
,
1000
0000
0000
0000
0000
0000
0000
0000
1000
0000
0001
1000
0000
0000
0010
0000
,
1000
0000
0000
0000
0100
0000
0000
0000
0001
0000
0010
0001
0000
0000
0010
0000
,
0001
0000
0000
0000
0100
0000
0000
0000
0010
0000
1000
0010
0000
0000
1000
0000
,
0010
0000
0100
0010
0002
0000
0000
1000
,
1003
0000
1001
0000
0010
1000
0100
0010
,
0001
0100
0010
0000
1000
0010
1000
0100
,
0010
0001
1000
0000
0100
0010
0100
0010
,
0001
0100
0001
0000
1000
0010
1000
0010
,
0100
0000
0000
0010
0000
0000
0100
0000
0001
0000
0100
0001
0000
0000
0100
0000
,
0001
0000
0000
0000
0010
0000
0000
0000
1000
0000
0010
1000
0000
0000
0010
0000
,
1000
0000
0000
0000
0100
0000
0000
0000
0010
0000
0100
0010
0000
0000
0100
0000
,
0010
0000
1000
0001
2000
0000
0001
0000
,
0010
0000
3001
0000
1000
0010
1000
0001
,
1000
0010
1000
0000
0001
0100
0010
0001
,
0100
0001
0100
0000
0010
1000
0010
0100
,
0010
0001
0100
0000
0010
1000
0001
0100
,
0010
0100
0010
0000
1000
0010
1000
0100
,
1000
0010
1000
0000
0001
0100
0001
0010
,
0001
0100
0001
0000
0100
0010
0100
0001
,
0100
0010
0100
0000
1000
0010
1000
0001
,
1000
0010
1000
0000
0100
0010
0100
0001
,
0100
0010
0100
0000
1000
0001
1000
0010
,
1000
0000
0100
0000
1000
0000
0000
0000
1000
0000
0000
0010
0000
0000
2000
0000
,
0000
0001
3001
0000
,
1000
0000
0010
1000
0000
0000
0010
0000
2020
0000
0000
0000
3030
0000
0220
0000
,
0000
0330
0202
0000
0303
0000
0000
0000
;
