#TITLE:Let Me See Your Dance;
#SUBTITLE:;
#ARTIST:kors k vs BEMANI Sound Team "SYUNN";
#TITLETRANSLIT:;
#SUBTITLETRANSLIT:;
#ARTISTTRANSLIT:;
#CREDIT:;
#BANNER:Let Me See Your Dance.png;
#BACKGROUND:Let Me See Your Dance-bg.png;
#LYRICSPATH:;
#CDTITLE:;
#MUSIC:Let Me See Your Dance.ogg;
#OFFSET:1.440;
#SAMPLESTART:12.980;
#SAMPLELENGTH:15.000;
#SELECTABLE:YES;
#BPMS:0.000=150.000;
#STOPS:;
#BGCHANGES:;

//---------------dance-single - Destrier75----------------
#NOTES:
     dance-single:
     Destrier75:
     Hard:
     15:
     0.650,0.871,0.087,0.206,0.265: // measure 1
0000
0000
0000
0000
,  // measure 2
0000
0000
0000
0000
,  // measure 3
0000
0000
0000
0000
,  // measure 4
0000
0000
0000
0000
,  // measure 5
0000
0000
0000
0000
,  // measure 6
0002
0000
0000
0000
,  // measure 7
0003
0000
1000
0100
0010
0001
0100
0001
,  // measure 8
0100
0010
0100
0001
0100
0010
1000
0010
,  // measure 9
0100
0010
0100
0010
0100
0010
0100
0010
,  // measure 10
0110
0100
0001
0100
0001
0000
0101
0000
,  // measure 11
1010
0000
1000
0000
0010
0000
0100
0010
0100
0000
0001
0000
0100
0000
0010
1000
,  // measure 12
0010
0000
0100
0000
0001
0000
0100
0010
0100
0000
0001
0000
1000
0000
0001
1000
,  // measure 13
0001
0000
0100
0000
0010
0000
0100
0001
0100
0000
0010
0000
1000
0000
0010
1000
,  // measure 14
0010
0100
0001
1000
0010
0100
0001
0010
,  // measure 15
0110
0000
0100
0000
0001
0000
0100
0001
0100
0000
0010
0000
0100
0000
0010
0100
,  // measure 16
0010
0000
0010
0000
1000
0000
0001
0100
0001
0000
0010
0000
0100
0000
0010
0100
,  // measure 17
0010
0000
0001
0000
1000
0000
0001
0100
0001
0000
0010
0000
1000
0000
0010
1000
,  // measure 18
0010
0100
0001
0010
0100
0010
1000
0010
,  // measure 19
0010
0000
0000
0000
0110
0000
0000
0000
0100
0000
0000
0001
0000
0000
0001
0000
,  // measure 20
0100
0000
0000
0100
0010
0000
0100
0000
0010
0000
0000
0100
0010
0000
0001
0000
,  // measure 21
1001
1010
0110
0101
,  // measure 22
1000
0100
1000
0100
1000
0001
1000
0001
1000
0100
1000
0100
1000
0010
1000
0010
,  // measure 23
2000
0000
0000
0000
3001
0100
0010
0100
,  // measure 24
0001
0010
0100
1000
0010
0001
0100
0000
,  // measure 25
0020
0000
0000
0000
1030
0001
1000
0100
,  // measure 26
0010
0001
0100
0001
0100
0001
0100
0000
,  // measure 27
0002
0000
0000
0000
1003
0010
1000
0001
,  // measure 28
1000
0100
0010
0001
0100
0001
0100
0000
,  // measure 29
0020
0000
0000
0000
1030
0001
1000
0100
,  // measure 30
0010
0001
0100
0001
0100
0010
0100
0010
,  // measure 31
0200
0000
0000
0000
0301
0010
1000
0001
,  // measure 32
0100
0010
1000
0001
0100
0010
0100
0000
,  // measure 33
0002
0000
0000
0000
1003
0010
1000
0010
,  // measure 34
0100
0001
0100
0010
1000
0001
0100
0000
,  // measure 35
2000
0000
0000
0000
3001
0100
0010
0100
,  // measure 36
0001
1000
0001
0100
0010
0001
0100
0001
,  // measure 37
1000
0001
1000
0000
0100
0010
0100
0000
0001
0100
0001
0000
1000
0010
1000
0000
,  // measure 38
0100
0010
0100
0010
0100
0001
0100
0001
0100
1000
0100
1000
0100
0001
0100
0001
,  // measure 39
0100
0000
0200
0000
0310
0001
0020
0000
,  // measure 40
0000
0000
2030
0000
3010
0001
0020
0000
,  // measure 41
0000
0000
2030
0000
3100
0010
0200
0000
,  // measure 42
0000
0010
1000
0001
,  // measure 43
0010
0000
0302
0000
1003
0010
2000
0000
,  // measure 44
0000
0000
3020
0000
0031
0100
0002
0000
,  // measure 45
0000
0000
2003
0000
3010
1000
0020
0000
,  // measure 46
0230
0302
2003
3020
,  // measure 47
1030
0000
0010
0000
1000
0000
0100
0000
0010
0000
1000
0001
1000
0000
0010
0000
,  // measure 48
0100
0000
0001
0000
0100
0000
0010
0000
1000
0000
0010
0100
0010
0000
0100
0000
,  // measure 49
0001
0000
0100
0000
0010
0000
1000
0000
0010
0000
0100
0010
0100
0000
0010
0000
,  // measure 50
1000
0000
0001
0000
0100
0000
0010
0000
0001
0000
0100
0001
0100
0000
0010
0000
,  // measure 51
1000
0000
0001
0000
0100
0000
0010
0000
1000
0000
0010
1000
0010
0000
0100
0000
,  // measure 52
0001
0000
1000
0000
0010
0000
0100
0000
0001
0000
0100
0010
0100
0000
0001
0000
,  // measure 53
1000
0000
0001
0000
0100
0000
0010
0000
1000
0000
0001
1000
0001
0000
0100
0000
,  // measure 54
0010
0001
0100
0010
0100
0001
0100
0010
,  // measure 55
1000
0010
1000
0010
1000
0001
1000
0001
,  // measure 56
1000
0100
1000
0100
1000
0001
1000
0001
,  // measure 57
1000
0010
1000
0010
1000
0100
1000
0100
1000
0001
1000
0001
1000
0010
1000
0010
,  // measure 58
1000
0100
0010
0001
0010
0000
0011
0000
,  // measure 59
1000
0000
0010
0000
1000
0000
0010
0000
0100
0000
0001
0100
0001
0000
1000
0000
,  // measure 60
0010
0000
0100
0000
0001
0000
0100
0000
0010
0000
0100
0010
0100
0000
0010
0000
,  // measure 61
0100
0000
1000
0000
0010
0000
0100
0000
0001
0000
1000
0010
1000
0000
0010
0000
,  // measure 62
1000
0010
0000
0010
0000
0010
0100
0010
,  // measure 63
0100
0000
0001
0000
0100
0000
0010
0000
0100
0000
0010
0100
0010
0000
0001
0000
,  // measure 64
0100
0000
0010
0000
1000
0000
0010
0000
0100
0000
0010
0100
0010
0000
0100
0000
,  // measure 65
0001
0000
0100
0000
1000
0000
0010
0000
1000
0000
0001
1000
0001
0000
0100
0000
,  // measure 66
0010
0000
1000
0010
1000
0010
1000
0010
1000
0000
0100
0000
0010
0000
0001
0000
,  // measure 67
1000
0000
0010
0000
1000
0000
0001
0000
0100
0000
0010
0100
0010
0000
0100
0000
,  // measure 68
0001
0000
0100
0000
1000
0000
0010
0000
0100
0000
0001
0100
0001
0000
0010
0000
,  // measure 69
1000
0000
0001
0000
0100
0000
0010
0000
1000
0000
0010
0100
0010
0000
0001
0000
,  // measure 70
0100
0000
0010
0000
0001
0000
0100
0000
0010
0000
1000
0000
0010
0100
0010
0100
,  // measure 71
0010
0000
0100
0000
0001
0000
0100
0000
0010
0000
1000
0100
1000
0000
0100
0000
,  // measure 72
0001
0000
0100
0000
0010
0000
1000
0000
0010
0000
0100
0001
0100
0000
0010
0000
,  // measure 73
1000
0000
0001
0000
0100
0000
0010
0000
1000
0000
0010
0100
0010
0000
0100
0000
,  // measure 74
0001
0100
0001
0010
0100
0010
1000
0100
,  // measure 75
2002
0000
0000
0000
,  // measure 76
0000
0000
0000
0000
,  // measure 77
3003
0000
0000
0000
;

//---------------dance-single - Destrier75----------------
#NOTES:
     dance-single:
     Destrier75:
     Medium:
     12:
     0.545,0.631,0.079,0.609,0.091:
0000
0000
0000
0000
,
0000
0000
0000
0000
,
0000
0000
0000
0000
,
0000
0000
0000
0000
,
0000
0000
0000
0000
,
0000
0000
0000
0000
,
0000
0000
2000
0000
3001
0100
0002
0000
,
0000
0000
2003
0000
3010
0100
0010
0001
,
1000
0001
1000
0100
0010
0001
0010
0100
,
0110
0100
0001
0100
0001
0000
0101
0000
,
1000
0000
0010
0000
1000
0000
0100
0000
0010
0000
0100
0001
0100
0000
0010
0000
,
1000
0000
0100
0000
0010
0000
0100
0000
0001
0000
0100
0001
0100
0000
0010
0000
,
0100
0000
0001
0000
1000
0000
0010
0000
0100
0000
0010
1000
0010
0000
0100
0000
,
1000
0010
0100
0001
0100
0010
1000
0010
,
1010
0000
0010
0000
1000
0000
0001
0000
0100
0000
0010
0001
0010
0000
0100
0000
,
0001
0000
0100
0000
0010
0000
1000
0000
0010
0000
0100
0010
0100
0000
0010
0000
,
1000
0000
0010
0000
0100
0000
0001
0000
0100
0000
0001
0100
0001
0000
0010
0000
,
1000
0010
1010
0101
,
1001
0000
0000
0000
0001
0000
0000
0000
1000
0000
0000
0010
0000
0000
0010
0000
,
1000
0000
0000
0001
1000
0000
0001
0000
1000
0000
0000
0100
0010
0000
0100
0000
,
0010
0100
0010
0001
0010
0100
0001
1000
,
0100
0010
0100
0001
1000
0010
1000
0001
,
1001
0010
2000
3020
,
2030
3020
0032
0023
,
1030
0100
0002
0203
,
0320
2030
3020
0230
,
0310
0001
2000
3020
,
0230
0302
0203
0320
,
0130
0001
0002
2003
,
3001
0100
0001
0010
0001
0100
1000
0010
,
1001
0000
2000
3002
,
0203
0320
2030
3002
,
0103
0010
2000
3020
,
0230
0302
0203
0320
,
1030
0100
1000
0100
1000
0000
0010
0000
,
0100
0001
0100
0001
0100
0000
0001
0000
,
1000
0000
0100
0000
0010
0000
0001
0000
0100
0010
0100
0000
0010
0100
0010
0000
,
0100
0010
0100
0000
0010
0100
0010
0000
0100
0000
0010
0000
0100
0000
0010
0000
,
0100
0000
0010
0000
1000
0100
0020
0000
,
0000
0000
0031
0000
0010
0100
2000
0000
,
0000
0000
3001
0000
0100
0010
0002
0000
,
0000
0000
0000
0003
0200
0000
0000
0000
,
0000
0000
2300
0000
3010
0001
0020
0000
,
0000
0000
0230
0000
0301
0010
0002
0000
,
0000
0000
2003
0000
3001
0010
0002
0000
,
2003
0000
3002
0000
,
0003
0000
0200
0000
0301
0010
0002
0000
,
0000
0000
2003
0000
3010
0100
0020
0000
,
0000
0000
2030
0000
3001
0100
0001
2000
,
0000
0000
0000
0000
0000
0100
0010
0001
,
3010
0000
2000
0000
3010
0100
0020
0000
,
0000
0000
0230
0000
0301
0100
0002
0000
,
0000
0000
2003
0000
3010
0100
0020
0000
,
2030
0000
0000
3000
0002
0000
0000
0000
,
1003
0010
1000
0100
1000
0001
1000
0100
,
1000
0010
1000
0001
1000
0001
1000
0010
,
1000
0100
1000
0000
0001
0010
0001
0000
1000
0010
1000
0000
0100
0001
0100
0000
,
0010
0100
0010
0100
0001
0000
1001
0000
,
1000
0000
0010
0000
1000
0000
0100
0000
0010
0000
0001
0100
0001
0000
0000
0000
,
0100
0000
0001
0000
0010
0000
0100
0000
1000
0000
0010
1000
0010
0000
0001
0000
,
1000
0000
0010
0000
0100
0000
0001
0000
0100
0000
0010
0100
0010
0000
0100
0000
,
0001
0001
0001
0001
,
1000
0000
0010
0000
1000
0000
0010
0000
0100
0000
0010
0100
0010
0000
0100
0000
,
0001
0000
0010
0000
1000
0000
0001
0000
0100
0000
0010
0001
0010
0000
0100
0000
,
1000
0000
0001
0000
0100
0000
0001
0000
1000
0000
0100
0001
0100
0000
0010
0000
,
1000
0010
1000
0001
0100
0010
0100
0001
,
1000
0100
0020
0000
0130
0010
0200
0000
,
0000
0000
0302
0000
0103
1000
0200
0000
,
0000
0000
0302
0000
0103
0010
0100
0002
,
0000
0000
0000
0000
0000
0010
0100
1003
,
0100
0000
0002
0000
1003
0010
2000
0000
,
0000
0000
3002
0000
1003
0010
2000
0000
,
0000
0000
3020
0000
1030
0001
2000
0000
,
3020
0000
0100
0000
0230
0000
0001
0300
,
2002
0000
0000
0000
,
0000
0000
0000
0000
,
3003
0000
0000
0000
;

//---------------dance-single - Destrier75----------------
#NOTES:
     dance-single:
     Destrier75:
     Easy:
     8:
     0.390,0.511,0.103,0.403,0.000:
0000
0000
0000
0000
,
0000
0000
0000
0000
,
0000
0000
0000
0000
,
0000
0000
0000
0000
,
0000
0000
0000
0000
,
0000
0000
0000
0000
,
0000
0000
1000
0000
0001
0100
0001
0000
,
0000
0000
0010
0000
0100
0010
0100
0000
,
0000
0000
0001
0000
1000
0001
1000
0000
,
1001
0000
0000
0000
,
1000
0010
1000
0000
0100
0000
0001
0000
,
0100
0001
0100
0000
0010
0000
1000
0000
,
0100
0010
0100
0000
0001
0000
0100
0000
,
0001
0100
0001
0000
1000
0010
1000
0000
,
0100
0010
0100
0000
0001
0000
1000
0000
,
0100
0001
0100
0000
0010
0000
1000
0000
,
0100
0001
0100
0000
0010
0000
0100
0000
,
0010
1000
0001
0100
,
0010
1010
0010
0011
,
0010
1010
0010
0011
,
0010
0100
0010
0000
0001
1000
0001
0000
,
1000
1001
0001
1001
,
2002
3003
2000
3002
,
2003
3002
2003
3002
,
2003
0000
3020
2030
,
3020
2030
3020
2030
,
3002
0000
0203
0302
,
0203
0302
0203
0302
,
0023
0000
2030
3020
,
2030
3020
2030
3020
,
2030
0000
3002
0203
,
0302
0203
0302
0203
,
0320
0000
2030
3200
,
2300
3200
2300
3200
,
1300
0010
1000
0000
0100
0000
0010
0000
,
0001
0100
0001
0000
0010
0000
1000
0000
,
0100
0010
0100
0000
0001
0100
0001
0000
,
1000
0100
0010
0000
0001
0010
0100
0000
,
0110
0000
1000
0000
0010
1000
0010
0000
,
0000
0000
0100
0000
0001
0100
0001
0000
,
0000
0000
0010
0000
0100
0010
0100
0000
,
0000
0000
0010
0000
1000
0010
1000
0000
,
0000
0000
0100
0000
0001
0100
0001
0000
,
0000
0000
0010
0000
0100
0010
0100
0000
,
0000
0000
0001
0000
1000
0001
1000
0000
,
0000
0000
0100
0000
0001
0100
0001
0000
,
0000
0000
0100
0000
0010
0100
0010
0000
,
0000
0000
1000
0000
0001
1000
0001
0000
,
0000
0000
0100
0000
0001
0100
0001
0000
,
0000
0000
0100
0000
0010
0100
0010
0000
,
0000
0000
1000
0000
0001
1000
0001
0000
,
0000
0000
0100
0000
0010
0100
0010
0000
,
0000
0000
0001
0000
1000
0001
1000
0000
,
0002
0000
0200
0303
,
1000
1000
0100
0100
,
0010
0010
0001
0001
,
0010
0010
0100
0100
,
1001
0000
0000
0000
,
0100
0010
0100
0000
0001
0000
1000
0000
,
0001
0100
0001
0000
1000
0000
0010
0000
,
1000
0010
1000
0000
0100
0000
0001
0000
,
0001
0001
0001
0001
,
0001
0000
1000
0010
1000
0000
0100
0000
,
0010
0000
0100
0001
0100
0000
0010
0000
,
1000
0000
0100
0010
0100
0000
0001
0000
,
0100
0100
0100
0100
,
0100
0000
0010
0000
1000
0010
1000
0000
,
0000
0000
0001
0000
0100
0001
0100
0000
,
0000
0000
0010
0000
0100
0010
0100
0000
,
0000
0000
0001
0000
1000
0001
1000
0000
,
0000
0000
0100
0000
0001
0100
0001
0000
,
0000
0000
1000
0000
0010
1000
0010
0000
,
0000
0000
0001
0000
0100
0010
0100
0000
,
0220
0330
2002
3003
,
2002
0000
0000
0000
,
0000
0000
0000
0000
,
3003
0000
0000
0000
;

//---------------dance-single - Destrier75----------------
#NOTES:
     dance-single:
     Destrier75:
     Beginner:
     4:
     0.215,0.240,0.024,0.024,0.000:
0000
0000
0000
0000
,
0000
0000
0000
0000
,
0000
0000
0000
0000
,
0000
0000
0000
0000
,
0000
0000
0000
0000
,
0000
0000
0000
0000
,
0000
1000
0000
1000
,
0000
0001
0000
0001
,
0000
1000
0000
1000
,
1001
0000
0000
0000
,
0000
0100
0100
0100
,
0000
0010
0010
0010
,
0000
0100
0100
0100
,
0000
0010
0010
0010
,
0000
0100
0100
0100
,
0000
0010
0010
0010
,
0000
0100
0100
0100
,
0000
0010
0010
0010
,
0000
1000
0000
1000
,
0000
0001
0000
0001
,
0000
1000
0000
1000
,
0000
0001
0000
0001
,
1001
0000
1000
1000
,
1000
1000
1000
1000
,
0000
0000
0001
0001
,
0001
0001
0001
0001
,
0000
0000
1000
1000
,
1000
1000
1000
1000
,
0000
0000
0001
0001
,
0001
0001
0001
0001
,
0000
0000
0100
0100
,
0100
0100
0100
0100
,
0000
0000
0010
0010
,
0010
0010
0010
0010
,
0000
0000
0100
0100
,
0100
0000
0010
0010
,
0010
0000
1000
1000
,
1000
0001
0001
0001
,
0000
1000
0000
1000
,
0000
0001
0000
0001
,
0000
1000
0000
1000
,
0000
0010
0000
0010
,
0000
0100
0000
0100
,
0000
0001
0000
0001
,
0000
1000
0000
1000
,
0000
0010
0000
0010
,
0000
0100
0100
0100
,
0000
0010
0010
0010
,
0000
1000
1000
1000
,
0000
0001
0001
0001
,
0000
0100
0100
0100
,
0000
0001
0001
0001
,
0000
1000
1000
1000
,
0000
0001
0001
0001
,
0000
0100
0100
0100
,
0000
0010
0010
0010
,
0000
0100
0100
0100
,
1001
0000
0000
0000
,
0000
0100
0100
0100
,
0000
0010
0010
0010
,
0000
0100
0100
0100
,
0000
0010
0000
0010
,
0000
1000
1000
1000
,
0000
0001
0001
0001
,
0000
1000
1000
1000
,
0000
0001
0000
0001
,
0000
0100
0010
0100
,
0000
0001
1000
0001
,
0000
1000
0001
1000
,
0000
0100
0010
0100
,
0000
0001
1000
0001
,
0000
1000
0001
1000
,
0000
0100
0010
0100
,
0020
0000
0230
0000
,
0320
0000
0000
0000
,
0000
0000
0000
0000
,
0030
0000
0000
0000
;
