#TITLE:Last Rebirth;
#SUBTITLE:;
#ARTIST:SHK;
#TITLETRANSLIT:;
#SUBTITLETRANSLIT:;
#ARTISTTRANSLIT:;
#CREDIT:;
#BANNER:Last Rebirth.png;
#BACKGROUND:Last Rebirth-bg.png;
#LYRICSPATH:;
#CDTITLE:;
#MUSIC:Last Rebirth.ogg;
#OFFSET:0.580;
#SAMPLESTART:19.400;
#SAMPLELENGTH:15.000;
#SELECTABLE:YES;
#BPMS:0.000=120.000,201.000=60.000,205.000=120.000;
#STOPS:;
#BGCHANGES:1.167=Last Rebirth.avi=1.000=1=1=0,
99999=-nosongbg-=1.000=0=0=0 // don't automatically add -songbackground-
;

//---------------dance-single - Destrier75----------------
#NOTES:
     dance-single:
     Destrier75:
     Challenge:
     14:
     0.616,0.737,0.149,0.167,0.596:
0000
0000
0000
0000
,
1000
0001
1000
0001
2000
0000
0000
0000
3010
0000
1000
0010
0000
0000
1010
0000
,
0100
0001
0100
0001
0200
0000
0000
0000
0301
0000
0100
0001
0000
0000
0101
0000
,
0001
1000
0001
1000
0002
0000
0000
0000
1003
0000
0010
1000
0000
0000
0010
0000
,
1000
0000
0001
0000
2000
0000
0000
0000
3002
0000
0000
0000
1003
0000
0000
0001
,
0000
0000
1000
0000
1001
0000
0000
0000
1000
0000
0001
1000
0000
0000
0010
0000
,
1000
0000
0100
0000
0010
0000
0001
0000
1000
0000
0010
1000
0000
0000
0010
0000
,
1000
0001
1000
1001
0001
0101
0100
0110
,
0010
0000
1010
0000
1000
0010
1000
0010
1000
0010
1000
0020
0000
0000
0000
0000
,
0000
0000
0032
0000
0000
0000
0000
0003
,
0100
0001
0100
0001
0100
0000
0010
0000
0001
0000
1000
0001
0000
0000
1000
0000
,
0001
0100
0001
0100
0002
0000
0000
0000
1003
0000
0010
1000
0000
0000
0010
0000
,
1000
0010
1000
0010
1000
0000
0000
0000
0100
0000
0010
0100
0000
0000
0001
0000
,
1000
0000
0010
0000
1000
0100
1000
0100
1000
0100
1000
0100
0000
0000
0010
0000
,
1000
0000
0010
0000
1010
0000
0000
0000
1000
0000
0010
1000
0000
0000
0100
0000
,
0010
0000
0001
0000
1000
0000
0010
0000
1000
0000
0001
1000
0000
0000
0001
0000
,
0100
0000
0001
0000
1000
0010
1000
0010
1000
0010
1000
0010
0000
0000
1000
0000
,
0001
0000
0100
0000
0001
0010
0001
0010
0001
0010
0001
0010
0000
0000
0001
0000
,
1000
0010
1010
0000
0010
0100
2000
0000
,
3001
0000
0100
0000
0001
0000
0010
0000
0100
0000
1000
0100
1000
0000
0200
0000
,
0000
0000
0301
0000
0001
0010
0200
0000
,
0301
0000
0010
0000
0100
0001
0100
0001
0100
0001
0100
0001
0100
0000
0010
0000
,
1000
0000
0100
0010
0100
0000
0001
0000
1000
0000
0010
1000
0010
0000
0100
0000
,
0001
0000
0100
0001
0100
0000
0010
0000
1000
0000
0100
0010
0100
0000
0001
0000
,
1000
0000
0010
0001
0010
0000
0001
0000
1000
0000
0100
0001
0100
0000
0010
0000
,
1000
0000
0010
0000
1000
0100
0010
0001
1000
0100
0010
0001
1000
0100
0010
0001
,
1000
0100
0010
0001
1000
0000
0010
0000
0100
0000
0001
0000
0100
0000
0000
0101
,
0000
0000
0010
0000
0000
0000
1010
0000
0000
0000
1000
0000
0001
0000
0000
1000
,
0000
0000
0001
1000
0000
0000
1001
0000
0000
0010
0000
0000
0100
0000
0000
0010
,
0000
0000
0110
0000
0000
0000
0001
0000
0000
0000
1000
0000
0001
0000
0000
1000
,
0000
0000
0001
1000
0001
0000
0000
0000
1000
0000
0100
0000
0010
0000
0001
0000
,
1000
0000
0001
0000
1000
0000
0000
1010
0000
0000
0010
0000
0000
0010
0000
0001
,
1000
0010
1010
0000
1000
0010
1000
0001
,
1000
0000
0010
0000
1000
0000
0100
0000
0010
0000
0100
0000
1000
0001
1000
0001
,
1000
0001
1000
0001
2000
0000
0000
0000
3010
0000
0100
0001
0000
0000
0100
0000
,
0001
0100
0001
0100
0002
0000
0000
0000
1003
0000
0010
1000
0000
0000
0010
0000
,
1000
0010
1000
0010
2000
0000
0000
0000
3010
0000
0100
0010
0000
0000
0100
0000
,
0001
0000
1000
0000
0001
1000
0001
1000
0001
1000
0001
1000
0000
0000
0001
0000
,
1000
0010
0000
0000
1010
0000
0000
0000
1000
0000
0010
1000
0000
0000
0010
0000
,
1000
0000
0100
0000
0001
0000
1000
0000
0001
0000
0100
0001
0000
0000
1000
0000
,
0010
0000
0100
0000
0010
1000
0010
1000
0010
1000
0010
1000
0000
0000
0100
0000
,
0001
0000
0010
0000
1000
0100
0010
0001
1000
0100
0010
0001
0000
0000
1000
0000
,
0010
1000
0100
0010
0001
1000
0001
0100
,
0010
0000
0001
0000
1000
0010
1000
0010
1000
0010
1000
0010
1000
0010
1000
0010
,
2000
0000
0000
0000
3010
0100
0010
0100
0010
0100
0001
0100
0001
0100
0010
0100
,
0010
0100
0010
0100
1000
0010
1000
0010
1000
0100
1000
0100
1000
0001
1000
0001
,
2000
0000
3100
0010
1000
0001
0100
0010
,
0001
0000
1000
0000
0001
1000
0001
1000
0001
1000
0001
1000
0001
1000
0001
1000
,
0002
0000
0000
0000
1003
0100
1000
0100
1000
0001
1000
0001
1000
0010
1000
0010
,
1000
0100
1000
0100
1000
0100
0010
0001
1000
0100
0010
0001
1000
0100
0010
0001
,
1000
0100
0010
0001
1000
0000
0000
0000
0000
0000
0000
0000
0000
0000
0000
0000
,
0000
2002
0000
0000
,
0000
0000
0000
0000
,
0000
0000
0000
0000
,
0000
3003
0000
0000
;

//---------------dance-single - Destrier75----------------
#NOTES:
     dance-single:
     Destrier75:
     Hard:
     10:
     0.428,0.428,0.070,0.184,0.053:
0000
0000
0000
0000
,
0000
0000
0000
0000
,
0000
0000
0000
0000
,
0000
0000
0000
0000
,
0000
0000
0000
0000
,
0000
0000
0000
0000
1001
0000
0000
0000
0010
0000
1000
0010
0000
0000
0010
0000
,
0100
0000
0001
0000
0100
0000
0010
0000
0001
0000
1000
0001
0000
0000
0010
0000
,
1000
0010
1000
0100
0010
0001
1000
0001
,
0100
0010
1000
0001
1000
0001
2000
0000
,
0000
0002
0000
3003
,
1000
0000
0100
0000
0010
0000
0000
0000
1000
0000
0010
1000
0000
0000
0010
0000
,
1000
0000
0001
0000
1000
0000
0000
0000
1000
0000
0001
1000
0000
0000
0001
0000
,
1000
0000
0010
0000
2000
0000
0000
0000
3010
0000
0100
0001
0000
0000
0100
0000
,
1000
0001
1000
0100
1000
0010
1000
0010
,
0001
0000
1000
0000
1001
0000
0000
0000
1000
0000
0010
1000
0000
0000
0100
0000
,
0010
0000
1000
0000
0001
0000
0100
0000
0010
0000
0100
0010
0000
0000
1000
0000
,
0010
0100
0001
0010
0100
0001
1000
0001
,
1000
0010
1000
0100
1000
0010
1000
0001
,
1000
0100
1000
0000
1000
0100
1000
0100
,
1000
0010
1000
0010
1000
0010
1000
0010
,
1000
0000
0100
0001
0100
0001
0100
0010
,
0100
0010
0100
0001
0100
0010
0100
0001
,
0100
0000
1000
0010
1000
0010
1000
0100
,
0010
1000
0010
1000
0010
1000
0010
0100
,
0010
0000
1000
0010
1000
0001
1000
0010
,
0100
0001
1000
0010
1000
0001
1000
0001
,
1000
0001
2001
0000
0010
0000
3020
0000
,
0100
0230
0001
0302
,
1000
2003
0010
3020
,
0100
0230
0001
0302
,
0100
0000
0103
0000
0010
1000
0010
1000
,
0010
1000
0020
0000
1000
0000
2030
0000
,
0001
0000
3001
0000
0100
0001
0100
0001
,
0100
0001
0200
0000
0010
0000
0310
0000
,
0100
0000
0010
0000
0100
0000
0000
0000
0010
0000
0100
0001
0000
0000
0101
0000
,
1000
0000
0001
0000
1000
0000
0000
0000
0010
0000
1000
0010
0000
0000
1010
0000
,
1000
0000
0010
0000
2000
0000
0000
0000
3001
0000
0100
0001
0000
0000
0100
0000
,
0001
0010
1000
0010
1000
0010
0001
0010
,
1000
0000
0010
0000
2000
0000
0000
0000
3001
0000
0100
0001
0000
0000
0010
0000
,
1000
0000
0001
0000
1000
0000
0100
0000
0010
0000
0001
1000
0000
0000
0010
0000
,
1000
0001
1000
0100
0010
1000
0001
0100
,
0010
1000
0100
0010
1000
0010
1000
0010
,
1000
0010
1010
0100
0010
0001
1000
0001
,
1000
0001
1000
0010
1000
0010
1000
0010
,
2000
0000
3001
0100
0001
0100
0001
0100
,
0001
0010
0100
1000
0100
0010
0100
0010
,
0200
0000
1300
0100
0010
0001
1000
0001
,
1000
0001
1000
0100
0010
0001
1000
0001
,
2000
0000
3010
0001
0100
0001
0100
0001
,
0100
0010
0001
1000
0001
1000
0001
1000
,
0001
1000
1001
0000
0000
0000
0000
0000
,
0000
2002
0000
0000
,
0000
0000
0000
0000
,
0000
0000
0000
0000
,
0000
3003
0000
0000
;

//---------------dance-single - Destrier75----------------
#NOTES:
     dance-single:
     Destrier75:
     Medium:
     7:
     0.299,0.333,0.123,0.096,0.000:
0000
0000
0000
0000
,
0000
0000
0000
0000
,
0000
0000
0000
0000
,
0000
0000
0000
0000
,
0000
0000
0000
0000
,
0000
0000
1001
0000
1000
0010
1000
0000
,
0100
0000
0001
0100
0001
0000
0010
0000
,
1000
0000
1000
0010
1000
0000
0010
0000
,
0001
0000
1000
0001
1000
0001
1000
0000
,
0000
0220
0000
0330
,
1000
0001
1000
0000
0100
0000
0010
0000
,
0001
0100
0001
0000
0010
0000
1000
0000
,
0010
0100
0010
0000
1000
0010
1000
0000
,
0010
0000
0100
0001
0100
0001
0100
0000
,
0001
0000
1001
0000
1000
0010
1000
0000
,
0100
0010
0100
0000
0001
0100
0001
0000
,
0100
0000
0001
1000
0001
0000
0100
0000
,
0010
0000
1000
0010
1000
0000
0100
0000
,
0010
0000
1010
0000
1000
0010
1000
0000
,
0010
1000
0010
0000
0100
0000
0001
0000
,
0100
0000
0101
0000
1000
0001
1000
0000
,
0001
0100
0001
0000
0010
0000
1000
0000
,
0010
0000
1000
0010
1000
0000
0100
0000
,
0010
0000
0100
0010
0100
0000
0010
0000
,
0100
0000
0001
1000
0001
0000
1000
0000
,
0001
0000
0100
0010
0100
0000
0010
0000
,
0100
2000
0010
0000
,
0010
3002
0100
0000
,
0100
2003
0010
0000
,
0010
3002
0100
0000
,
0100
0023
1000
0000
,
1000
0032
0100
0000
,
0100
0023
1000
0000
,
1000
0130
0001
0100
,
0001
1000
0001
0000
0100
0000
0001
0000
,
0100
0010
0100
0000
0010
0000
1000
0000
,
0100
0010
0100
0000
0001
1000
0001
0000
,
1000
0000
0010
1000
0010
1000
0010
0000
,
1000
0000
0001
0000
1000
0010
1000
0000
,
0100
0001
0100
0000
0001
1000
0001
0000
,
0100
0000
1000
0010
1000
0000
0100
0000
,
0010
0000
0100
0001
0100
0000
0010
0000
,
0001
0000
1000
0010
1000
0000
0001
0100
,
0001
0001
0101
0100
,
1100
0000
1000
0001
1000
0000
0100
0001
,
0100
0100
0110
0010
,
1010
0000
1000
0010
1000
0000
0100
0001
,
0100
0001
0101
0100
,
0110
0000
0010
1000
0010
0000
0100
0001
,
0100
0100
0101
0001
,
1001
0000
0000
0000
,
0000
0220
0000
0000
,
0000
0000
0000
0000
,
0000
0000
0000
0000
,
0000
0330
0000
0000
;

//---------------dance-single - Destrier75----------------
#NOTES:
     dance-single:
     Destrier75:
     Easy:
     4:
     0.202,0.214,0.018,0.123,0.000:
0000
0000
0000
0000
,
0000
0000
0000
0000
,
0000
0000
0000
0000
,
0000
0000
0000
0000
,
0000
0000
0000
0000
,
0000
1000
0010
1000
,
0000
0001
0100
0001
,
0000
1000
0010
1000
,
0000
0100
0010
0100
,
0000
0110
0000
0000
,
0000
1000
0001
1000
,
0001
0100
0001
0100
,
0001
1000
0010
1000
,
0010
0100
0001
0100
,
0001
0010
1000
0010
,
1000
0100
0010
0100
,
0010
0100
0001
0100
,
0001
1000
0010
1000
,
0010
1000
1000
1000
,
1000
0010
0010
0010
,
0010
0100
0100
0100
,
0100
0001
0001
0001
,
0001
1000
1000
1000
,
1000
0001
0001
0001
,
0001
0100
0100
0100
,
0100
0010
0010
0010
,
0010
2000
0000
0001
,
0000
3002
0000
1000
,
0000
2003
0000
0001
,
0000
3002
0000
0100
,
0000
0203
0000
0010
,
0000
0320
0000
0100
,
0000
0230
0000
0010
,
0000
0320
0000
0000
,
0000
0130
0010
0100
,
0010
1000
0010
1000
,
0010
0001
0010
0001
,
1000
0010
1000
0010
,
0100
0010
0100
0010
,
0001
0100
0001
0100
,
1000
0010
1000
0010
,
0100
0001
0100
0001
,
0100
0010
0010
0010
,
0010
0200
0000
0000
,
0300
0001
0001
0001
,
0001
2000
0000
0000
,
3000
0100
0100
0100
,
0100
0002
0000
0000
,
0003
1000
1000
1000
,
1000
0020
0000
0000
,
0030
0000
0000
0000
,
0000
2002
0000
0000
,
0000
0000
0000
0000
,
0000
0000
0000
0000
,
0000
3003
0000
0000
;

//---------------dance-single - Destrier75----------------
#NOTES:
     dance-single:
     Destrier75:
     Beginner:
     2:
     0.140,0.135,0.018,0.000,0.000: // measure 1
0000
0000
0000
0000
,  // measure 2
0000
0000
0000
0000
,  // measure 3
0000
0000
0000
0000
,  // measure 4
0000
0000
0000
0000
,  // measure 5
0000
0000
0000
0000
,  // measure 6
0000
0100
0000
0100
,  // measure 7
0000
0010
0000
0010
,  // measure 8
0000
0100
0000
0100
,  // measure 9
0000
0010
0000
0010
,  // measure 10
0000
0110
0000
0000
,  // measure 11
0000
1000
1000
1000
,  // measure 12
0000
0001
0001
0001
,  // measure 13
0000
1000
1000
1000
,  // measure 14
0000
0001
0001
0001
,  // measure 15
0000
0100
0100
0100
,  // measure 16
0000
0010
0010
0010
,  // measure 17
0000
0100
0100
0100
,  // measure 18
0000
0010
0010
0010
,  // measure 19
0000
1000
0000
1000
,  // measure 20
0000
0001
0000
0001
,  // measure 21
0000
1000
0000
1000
,  // measure 22
0000
0001
0000
0001
,  // measure 23
0000
0100
0000
0100
,  // measure 24
0000
0010
0000
0010
,  // measure 25
0000
0100
0000
0100
,  // measure 26
0000
0010
0000
0010
,  // measure 27
0000
1000
0000
1000
,  // measure 28
0000
0001
0000
0001
,  // measure 29
0000
1000
0000
1000
,  // measure 30
0000
0001
0000
0001
,  // measure 31
0000
0100
0000
0100
,  // measure 32
0000
0010
0000
0010
,  // measure 33
0000
0100
0000
0100
,  // measure 34
0000
0010
0000
0010
,  // measure 35
0000
1000
1000
1000
,  // measure 36
0000
0001
0001
0001
,  // measure 37
0000
1000
1000
1000
,  // measure 38
0000
0001
0001
0001
,  // measure 39
0000
0100
0100
0100
,  // measure 40
0000
0010
0010
0010
,  // measure 41
0000
0100
0100
0100
,  // measure 42
0000
0010
0010
0010
,  // measure 43
0000
1000
0000
1000
,  // measure 44
0000
0001
0001
0001
,  // measure 45
0000
0100
0000
0100
,  // measure 46
0000
0010
0010
0010
,  // measure 47
0000
0001
0000
0001
,  // measure 48
0000
1000
1000
1000
,  // measure 49
0000
0100
0000
0100
,  // measure 50
0000
0010
0010
0010
,  // measure 51
0000
0000
0000
0000
,  // measure 52
0000
1001
0000
0000
;
