#TITLE:LOVE POTION;
#SUBTITLE:;
#ARTIST:GAIA;
#TITLETRANSLIT:;
#SUBTITLETRANSLIT:;
#ARTISTTRANSLIT:;
#CREDIT:;
#BANNER:LOVE POTION.png;
#BACKGROUND:LOVE POTION-bg.png;
#LYRICSPATH:;
#CDTITLE:;
#MUSIC:LOVE POTION.ogg;
#OFFSET:0.480;
#SAMPLESTART:40.720;
#SAMPLELENGTH:15.000;
#SELECTABLE:YES;
#BPMS:0.000=117.000;
#STOPS:;
#BGCHANGES:0.938=LOVE POTION.avi=1.000=1=1=0,
99999=-nosongbg-=1.000=0=0=0 // don't automatically add -songbackground-
;

//---------------dance-single - Destrier75----------------
#NOTES:
     dance-single:
     Destrier75:
     Hard:
     11:
     0.456,0.426,0.424,0.068,0.000:
0000
0000
0000
0000
,
0000
0000
0000
0000
,
0000
0000
0000
0000
,
0000
0000
1000
0100
0010
0001
0000
0001
,
1001
0000
1000
0010
1000
0010
1000
0000
,
0100
0000
0001
0100
0001
0100
0001
0000
,
0010
0000
1000
0100
1000
0100
1000
0000
,
0010
0000
0001
0100
0001
0100
0001
0000
,
0010
0000
1000
0100
1000
0100
1000
0000
,
0010
0000
0001
0100
0001
0100
0001
0000
,
0010
0000
0100
0010
0100
0010
0100
0000
,
0001
0000
1000
0000
1000
1001
0000
0001
,
1001
0000
1000
0010
1000
0100
0010
0001
,
0100
0001
0101
0000
1010
0000
0101
0000
,
1010
0000
1000
0010
0100
0010
0001
0010
,
0100
0010
0101
0000
1100
0000
0101
0000
,
1100
0000
1000
0010
0100
1000
0010
1000
,
0100
0010
0001
0010
0100
0001
0010
0100
,
1000
0010
1010
0000
1010
0000
0101
0000
,
0110
0000
0100
0010
0100
0010
0000
0100
,
0110
0000
1000
0010
1000
0100
0010
0001
,
0100
0001
0101
0000
0110
0000
1010
0000
,
0110
0000
1000
0100
0010
0001
0100
0001
,
0100
0001
0101
0000
0110
0000
1010
0000
,
0101
0000
0100
0010
0100
0010
0100
0000
,
0001
0000
1000
0010
1000
0010
1000
0000
,
0010
0000
0100
0001
0100
0001
0100
0000
,
0010
0000
1000
0100
1000
0100
1000
0000
,
0010
0000
0100
0010
0100
0010
0100
0000
,
0010
0000
1000
0100
0010
0001
0010
0100
,
0010
0000
1000
0010
1000
0010
1000
0000
,
1010
0000
0001
0100
0001
0100
0001
0000
,
0101
0000
0100
0010
0100
0010
0100
0000
,
0110
0000
1000
0010
1000
0010
1000
0000
,
1010
0000
0100
0010
0100
0010
0100
0000
,
0110
0000
0001
0100
0001
0100
0001
0000
,
0101
0000
1000
0010
1000
0010
1000
0000
,
1010
0000
0010
0000
1000
1010
0000
0010
,
1010
0000
1000
0100
1000
0100
0010
0100
,
0010
0001
0011
0000
0110
0000
1100
0000
,
0110
0000
0001
0100
0001
0100
0010
0100
,
0010
0100
1100
0000
0110
0000
0011
0000
,
0110
0000
1000
0001
1000
0001
1000
0100
,
1000
0100
1000
0010
1000
0010
1000
0100
,
0001
0010
1010
0000
1001
0000
0110
0000
,
0110
0000
1000
0001
1000
0001
0000
1000
,
1001
0000
1000
0010
1000
0010
1000
0010
,
1000
0010
0110
0000
0101
0000
1010
0000
,
0110
0000
0001
0100
0001
0100
0010
0001
,
0100
0001
0101
0000
0110
0000
1010
0000
,
0101
0000
1000
0100
1000
0100
1000
0000
,
0010
0000
0100
0001
0100
0001
0100
0000
,
0010
0000
0100
0010
0100
0010
0100
0000
,
0001
0000
1000
0001
1000
0001
1000
0000
,
0001
0000
1000
0100
1000
0100
1000
0100
,
0010
0001
0010
0000
0100
0000
0010
0100
,
0010
0100
0010
0001
0010
1000
0100
0010
,
0001
0010
2000
0000
3020
0000
0032
0000
,
2003
0000
3010
1000
0100
0010
0001
0100
,
0001
0000
0010
0000
0110
0000
1000
0100
,
1000
0100
0010
0000
0010
0000
1010
0000
,
0000
2000
3002
0203
,
0320
0200
0330
0000
;

//---------------dance-single - Destrier75----------------
#NOTES:
     dance-single:
     Destrier75:
     Medium:
     8:
     0.369,0.354,0.258,0.038,0.000:
0000
0000
0000
0000
,
0000
0000
0000
0000
,
0000
0000
0000
0000
,
0000
0000
1000
0001
1000
0001
0000
0001
,
1001
0000
1000
0010
1000
0000
0010
0000
,
1010
0000
0100
0001
0100
0000
0001
0000
,
0101
0000
0100
0010
0100
0000
0010
0000
,
0110
0000
1000
0010
1000
0000
1000
0000
,
1010
0000
0001
0100
0001
0000
0001
0000
,
0101
0000
0100
0010
0100
0000
0010
0000
,
0110
0000
1000
0010
1000
0000
0010
0000
,
1010
0000
1000
0000
0001
1001
0000
1000
,
1001
0000
0100
0001
0100
0000
0010
0000
,
1000
0000
0100
0001
0100
0000
0010
0000
,
0100
0000
1000
0010
1000
0000
0100
0000
,
0001
0000
0100
0001
0100
0000
0010
0000
,
0001
0000
1000
0010
1000
0000
0100
0000
,
0010
0000
1000
0010
1000
0000
0001
0000
,
0100
0000
0001
0100
0001
0000
0010
0000
,
1000
0000
0001
1000
0001
1000
0000
0001
,
1001
0000
1000
0010
1000
0000
0010
0000
,
0100
0001
0100
0000
0010
0000
1000
0010
,
1000
0000
0100
0000
0001
0100
0001
0000
,
0100
0000
1000
0010
1000
0000
0010
0000
,
1010
0000
0100
0010
0100
0000
0110
0000
,
1000
0010
1000
0000
1010
0000
0001
0100
,
0001
0000
0101
0000
1000
0010
1000
0000
,
1010
2000
3002
0203
,
0320
0230
0310
0010
,
0010
0000
1000
0100
1000
0000
0001
0100
,
0001
0000
1000
0010
1000
0000
1000
0000
,
1001
0000
0100
0001
0100
0000
0001
0000
,
0101
0000
1000
0010
1000
0000
0010
0000
,
1010
0000
0001
1000
0001
0000
1000
0000
,
1001
0000
0100
0001
0100
0000
0001
0000
,
0101
0000
1000
0010
1000
0000
0010
0000
,
1010
0000
0001
1000
0001
0000
1000
0000
,
1001
0000
0100
0000
0010
0110
0000
0100
,
0110
0000
1000
0001
1000
0000
0001
0000
,
0100
0001
0100
0000
1000
0010
1000
0000
,
0100
0000
0010
0000
0001
0100
0001
0000
,
1000
0000
0010
0000
1000
0001
1000
0000
,
0001
0000
0100
0000
0001
0100
0001
0000
,
1000
0000
0010
0000
0100
0010
0100
0000
,
0001
0000
1000
0000
0001
1000
0001
0000
,
1000
0000
0010
1000
0010
1000
0000
0010
,
1010
0000
1000
0001
1000
0000
0100
0000
,
0001
0000
0100
0010
0100
0000
1000
0000
,
0100
0000
0001
0100
0001
0000
0010
0000
,
1000
0000
0100
0001
0100
0000
0010
0000
,
1000
0000
0100
0001
0100
0000
0010
0000
,
1000
0000
0100
0001
0100
0000
0010
0000
,
0100
0000
0010
0100
0010
0000
0001
0000
,
1000
0000
0001
1000
0001
0000
1000
0000
,
0010
0000
1000
0010
1000
0000
0010
0000
,
1010
0000
0100
0001
0100
0000
0001
0000
,
0101
0000
0010
0100
0010
0000
0100
0000
,
0110
0000
1000
0001
1000
0000
0001
0000
,
1001
0000
0010
0100
0010
0000
0010
0000
,
0110
0000
1000
0010
1000
0000
0010
0000
,
1010
0000
0100
0001
0100
0000
0001
0000
,
0101
0000
0100
0010
0100
0000
0010
0100
,
0010
0110
0000
0000
;

//---------------dance-single - Destrier75----------------
#NOTES:
     dance-single:
     Destrier75:
     Easy:
     5:
     0.255,0.212,0.091,0.015,0.000:
0000
0000
0000
0000
,
0000
0000
0000
0000
,
0000
0000
0000
0000
,
0000
0110
0000
0110
,
0000
0100
0001
0100
,
0001
1000
0001
1000
,
0001
0100
0010
0100
,
0010
1000
0010
1000
,
0010
0100
0001
0100
,
0001
0010
0001
0010
,
0001
1000
0010
1000
,
0010
1010
0000
1010
,
0000
1000
1000
0010
,
0010
0100
0100
0001
,
0001
0010
0010
0100
,
0100
1000
1000
0001
,
0001
0100
0100
0010
,
0010
0100
0100
0010
,
0010
0100
0100
0001
,
0001
1001
0000
1001
,
0000
1000
1000
0001
,
0001
1000
1000
0001
,
0001
0100
0100
0010
,
0010
0100
0100
0010
,
0010
1000
0100
1000
,
0100
0001
0100
0001
,
0100
1000
0010
1000
,
0010
0001
0100
0001
,
0100
0001
0000
0001
,
0000
2002
0000
0000
,
3003
1000
0010
1000
,
0010
0100
0001
0100
,
0001
0010
0001
0010
,
0001
1000
0010
1000
,
0010
1000
0100
1000
,
0100
0001
0100
0001
,
0100
1000
0010
1000
,
0010
0101
0000
0101
,
0000
0001
0001
1000
,
1000
0010
0010
0100
,
0100
0010
0010
0001
,
0001
1000
1000
0100
,
0100
0001
0001
1000
,
1000
0010
0010
0100
,
0100
0010
0010
0100
,
0100
0110
0000
0110
,
0000
1000
1000
0001
,
0001
1000
1000
0001
,
0001
0100
0100
0010
,
0010
0100
0100
0010
,
0010
0001
1000
0001
,
1000
0001
0100
0001
,
0100
1000
0010
1000
,
0010
0100
0010
0100
,
0010
1000
1000
1000
,
1000
0001
0001
0001
,
0001
0100
0100
0100
,
0100
0010
0010
0010
,
0010
1000
1000
1000
,
1000
0001
0001
0001
,
0001
0100
0100
0100
,
0100
0001
0001
0001
,
0001
1001
0000
0000
;

//---------------dance-single - Destrier75----------------
#NOTES:
     dance-single:
     Destrier75:
     Beginner:
     2:
     0.163,0.141,0.008,0.000,0.000: // measure 1
0000
0000
0000
0000
,  // measure 2
0000
0000
0000
0000
,  // measure 3
0000
0000
0000
0000
,  // measure 4
0000
1000
0000
1000
,  // measure 5
0000
0001
0000
0001
,  // measure 6
0000
1000
0000
1000
,  // measure 7
0000
0010
0000
0010
,  // measure 8
0000
0100
0000
0100
,  // measure 9
0000
0001
0000
0001
,  // measure 10
0000
1000
0000
1000
,  // measure 11
0000
0001
0000
0001
,  // measure 12
0000
1000
0000
1000
,  // measure 13
0000
0100
0100
0100
,  // measure 14
0000
0010
0010
0010
,  // measure 15
0000
0100
0100
0100
,  // measure 16
0000
0001
0001
0001
,  // measure 17
0000
1000
1000
1000
,  // measure 18
0000
0001
0001
0001
,  // measure 19
0000
0100
0100
0100
,  // measure 20
0000
0010
0000
0010
,  // measure 21
0000
1000
0000
1000
,  // measure 22
0000
1000
1000
1000
,  // measure 23
0000
0001
0000
0001
,  // measure 24
0000
0001
0001
0001
,  // measure 25
0000
0100
0100
0100
,  // measure 26
0000
0010
0010
0010
,  // measure 27
0000
0100
0100
0100
,  // measure 28
0000
0010
0010
0010
,  // measure 29
0000
0100
0000
0100
,  // measure 30
0000
0010
0000
0010
,  // measure 31
0000
1000
0000
1000
,  // measure 32
0000
0001
0000
0001
,  // measure 33
0000
1000
0000
1000
,  // measure 34
0000
0001
0000
0001
,  // measure 35
0000
0100
0000
0100
,  // measure 36
0000
0010
0000
0010
,  // measure 37
0000
0100
0000
0100
,  // measure 38
0000
0010
0000
0010
,  // measure 39
0000
0100
0100
0100
,  // measure 40
0000
0010
0010
0010
,  // measure 41
0000
0100
0100
0100
,  // measure 42
0000
0010
0010
0010
,  // measure 43
0000
0000
0000
0000
,  // measure 44
0000
0001
0001
0001
,  // measure 45
0000
1000
1000
1000
,  // measure 46
0000
0001
0000
0001
,  // measure 47
0000
0100
0000
0100
,  // measure 48
0000
0100
0100
0100
,  // measure 49
0000
0010
0000
0010
,  // measure 50
0000
0010
0010
0010
,  // measure 51
0000
0100
0100
0100
,  // measure 52
0000
0010
0010
0010
,  // measure 53
0000
0100
0100
0100
,  // measure 54
0000
0010
0010
0010
,  // measure 55
0000
1000
1000
1000
,  // measure 56
0000
0001
0001
0001
,  // measure 57
0000
1000
1000
1000
,  // measure 58
0000
0001
0001
0001
,  // measure 59
0000
0010
0010
0010
,  // measure 60
0000
0100
0100
0100
,  // measure 61
0000
0010
0010
0010
,  // measure 62
0000
0100
0100
0100
,  // measure 63
0000
0110
0000
0000
;
