#TITLE:声;
#SUBTITLE:;
#ARTIST:モーニング娘。;
#TITLETRANSLIT:Koe;
#SUBTITLETRANSLIT:;
#ARTISTTRANSLIT:Morning Musume;
#CREDIT:;
#BANNER:Koe.png;
#BACKGROUND:Koe-bg.png;
#LYRICSPATH:;
#CDTITLE:;
#MUSIC:Koe.ogg;
#OFFSET:0.600;
#SAMPLESTART:58.040;
#SAMPLELENGTH:15.000;
#SELECTABLE:YES;
#BPMS:0.000=92.000,170.000=69.000,173.000=92.000;
#STOPS:;
#BGCHANGES:;

//---------------dance-single - Destrier75----------------
#NOTES:
     dance-single:
     Destrier75:
     Hard:
     7:
     0.262,0.298,0.060,0.321,0.017:
0000
0000
0000
0000
,
0000
0000
0000
0000
,
0000
0000
0000
0000
,
0000
0000
0000
0000
,
0000
0000
0000
0000
0100
0000
0001
0100
,
0001
0000
1000
0000
0100
0010
0100
0000
,
0001
0000
1000
0001
1000
0000
0100
0000
,
1000
0100
1000
0000
0100
0000
0001
0100
,
0001
0001
0200
0000
,
0000
0000
0000
0320
0000
0000
0000
0000
,
0000
0000
0032
0000
,
0000
0000
0000
2003
0000
0000
0000
3002
,
0000
0000
0000
0000
0103
0000
0100
0010
,
0100
0000
0001
1000
0001
0000
0010
1000
,
0010
0000
1000
0001
1000
0000
0100
0001
,
0100
0000
1000
0100
1000
0010
0001
2002
,
0000
0000
0000
3003
1000
0010
1000
0000
,
0100
0000
0001
0100
0001
0000
0010
0000
,
1000
0010
1000
0000
0100
0000
0010
0100
,
0010
0000
0001
0000
0100
0001
0100
0000
,
0010
0000
1000
0010
1000
0000
0100
0000
,
0001
0100
0001
0000
0010
0000
1000
0010
,
1000
1001
0200
0302
,
2003
3002
0203
0320
,
2030
3002
0203
0320
,
2030
3200
0010
0010
,
0010
0000
0310
0000
0001
0100
0001
0000
,
0010
0000
1000
0100
1000
0000
0100
0000
,
0010
0100
0010
0000
1000
0000
0100
0001
,
0100
0000
0001
0000
1000
0010
1000
0000
,
0010
1001
2000
3200
,
0320
0032
0023
0230
,
2300
3200
0320
0032
,
0023
0230
2300
0100
,
0100
0000
3100
0000
1000
0010
1000
0000
,
0100
0000
0010
0100
0010
0000
0001
0000
,
1000
0010
1000
0000
0100
0000
0010
0001
,
0010
0000
0000
0000
1000
0000
0000
0000
0100
0000
0000
0010
0000
0000
0220
0000
,
0000
0330
2000
3002
,
0203
0000
0000
0000
0310
0000
0001
0000
1000
0000
0000
0001
0000
0000
2000
0000
,
0000
0000
3100
0010
0002
0000
2003
0000
,
3002
0000
0000
0000
0000
0000
0000
0000
1003
0000
0000
0001
0000
0000
2002
0000
,
0000
0000
0000
0000
3003
0000
0000
0000
1000
0000
0000
1010
0000
0000
2001
0000
,
0000
0000
0000
0000
3001
0000
0000
1000
0000
0000
2002
0000
0000
0000
0000
0000
,
0000
0000
0000
0000
,
3003
0000
0001
0000
0100
0000
0010
0100
,
0010
0000
0100
0000
1000
0010
1000
0000
,
0100
0000
0010
0100
0010
0000
0100
0000
,
0001
0100
0001
0000
0100
0000
0001
0100
,
0001
0000
0100
0000
0010
1000
0010
0000
,
0100
0000
0010
0001
0010
0000
0100
0000
,
1000
0010
1000
0000
0010
0000
0001
0010
,
0100
0000
0001
0000
0001
0100
1000
0000
,
0001
2002
0000
0000
,
0000
0000
0000
0000
,
0000
0000
0000
3003
;

//---------------dance-single - Destrier75----------------
#NOTES:
     dance-single:
     Destrier75:
     Medium:
     5:
     0.207,0.241,0.067,0.107,0.000: // measure 1
0000
0000
0000
0000
,  // measure 2
0000
0000
0000
0000
,  // measure 3
0000
0000
1000
0010
,  // measure 4
0001
0010
1000
0010
,  // measure 5
0001
0010
1000
0010
,  // measure 6
0001
0010
1000
0010
,  // measure 7
0001
0010
1000
0010
,  // measure 8
0001
0010
1000
0010
,  // measure 9
0001
0000
2000
0000
,  // measure 10
0000
0000
0000
3002
0000
0000
0000
0000
,  // measure 11
0000
0000
2003
0000
,  // measure 12
0000
0000
0000
3002
0000
0000
0000
2003
,  // measure 13
0000
3000
0001
0010
,  // measure 14
0100
1000
0001
0010
,  // measure 15
0100
1000
0001
0010
,  // measure 16
0100
1000
0001
0010
,  // measure 17
0100
1000
1000
0010
,  // measure 18
1000
0010
0100
0001
,  // measure 19
0100
0001
0100
0010
,  // measure 20
0100
0010
1000
0010
,  // measure 21
1000
0010
0100
0001
,  // measure 22
0100
0001
1000
0010
,  // measure 23
1000
0010
2010
0010
,  // measure 24
0010
3010
0021
0001
,  // measure 25
0001
0031
1002
1000
,  // measure 26
1000
1000
1003
0100
,  // measure 27
1010
0000
0010
0000
1000
0010
1000
0000
,  // measure 28
0100
0001
0100
0000
0010
1000
0010
0000
,  // measure 29
0100
0001
0100
0000
0000
0000
1000
0000
,  // measure 30
0100
0010
0002
1000
,  // measure 31
1000
1003
2001
0001
,  // measure 32
0001
3001
0210
0010
,  // measure 33
0010
0310
2010
0010
,  // measure 34
0010
0010
3010
0100
,  // measure 35
0101
0000
1000
0000
0001
0100
0001
0000
,  // measure 36
1000
0010
1000
0000
0100
0001
0100
0000
,  // measure 37
1000
0010
1000
0000
0001
0000
0010
0000
,  // measure 38
0100
1000
0001
1000
,  // measure 39
0001
0000
1000
0100
,  // measure 40
0010
0001
1000
0100
,  // measure 41
0010
0001
1000
0001
,  // measure 42
1000
0001
1000
0001
,  // measure 43
0100
0010
1000
1000
,  // measure 44
1000
2002
0000
0000
,  // measure 45
0000
0000
0000
0000
,  // measure 46
3003
1000
0100
0010
,  // measure 47
0001
0001
0010
0100
,  // measure 48
1000
1000
0100
0010
,  // measure 49
0001
0001
0010
0100
,  // measure 50
1000
1000
0100
0010
,  // measure 51
0001
0001
0010
0100
,  // measure 52
1000
1000
0100
0010
,  // measure 53
0001
0001
0010
0100
,  // measure 54
1000
2002
0000
0000
,  // measure 55
0000
0000
0000
0000
,  // measure 56
0000
0000
3003
0000
;

//---------------dance-single - Destrier75----------------
#NOTES:
     dance-single:
     Destrier75:
     Easy:
     3:
     0.135,0.148,0.013,0.067,0.000:
0000
0000
0000
0000
,
0000
0000
0000
0000
,
0000
0000
0000
0000
,
0000
0000
0000
0000
,
0000
0000
1000
1000
,
1000
0000
0001
0001
,
0001
0000
1000
1000
,
1000
0000
0001
0001
,
0001
0000
0100
0000
,
0100
0000
0010
0000
,
0010
0000
0100
0000
,
0100
0000
0010
0000
,
0010
0000
1000
0000
,
1000
0000
0001
0000
,
0001
0000
1000
0000
,
1000
0000
0001
0000
,
0001
0000
1000
1000
,
1000
0000
0001
0001
,
0001
0000
1000
1000
,
1000
0000
0001
0001
,
0001
0000
0100
0100
,
0100
0000
0010
0010
,
0010
0000
1000
1000
,
1000
1000
0001
0001
,
0001
0001
1000
1000
,
1000
1000
1001
0000
,
0000
0000
1000
1000
,
1000
0000
0001
0001
,
0001
0000
0100
0100
,
0100
0000
0010
0010
,
0010
0000
0100
0100
,
0100
0100
0010
0010
,
0010
0010
0100
0100
,
0100
0100
0100
0000
,
0000
0000
1000
1000
,
1000
0000
0001
0001
,
0001
0000
1000
1000
,
1000
0000
0001
0001
,
0001
0000
0200
0000
,
0300
0000
0020
0000
,
0030
0000
0200
0000
,
0300
0000
0020
0000
,
0030
0000
2000
0000
,
0000
3000
0000
0002
,
0000
2003
0000
3002
,
0000
0003
1000
1000
,
1000
0000
0001
0001
,
0001
0000
0100
0100
,
0100
0000
0010
0010
,
0010
0000
0100
0100
,
0100
0000
0010
0010
,
0010
0000
1000
1000
,
1000
0000
0001
0001
,
0001
2002
0000
0000
,
0000
0000
0000
0000
,
0000
0000
3003
0000
;

//---------------dance-single - Destrier75----------------
#NOTES:
     dance-single:
     Destrier75:
     Beginner:
     1:
     0.089,0.093,0.020,0.013,0.000:
0000
0000
0000
0000
,
0000
0000
0000
0000
,
0000
0000
0000
0000
,
0000
0000
0000
0000
,
0000
0000
1000
0000
,
1000
0000
0001
0000
,
0001
0000
0100
0000
,
0100
0000
0010
0000
,
0010
0000
1000
0000
,
0000
0000
1000
0000
,
0000
0000
0001
0000
,
0000
0000
0001
0000
,
0000
0000
0100
0000
,
0000
0000
0100
0000
,
0000
0000
0010
0000
,
0000
0000
0010
0000
,
0000
0000
1000
0000
,
1000
0000
0001
0000
,
0001
0000
1000
0000
,
1000
0000
0001
0000
,
0001
0000
1000
0000
,
1000
0000
0001
0000
,
0001
0000
0100
0000
,
0100
0000
0010
0000
,
0010
0000
0100
0000
,
0100
0000
0110
0000
,
0000
0000
1000
0000
,
1000
0000
0001
0000
,
0001
0000
0100
0000
,
0100
0000
0010
0000
,
0010
0000
1000
0000
,
1000
0000
0001
0000
,
0001
0000
1000
0000
,
1000
0000
1001
0000
,
0000
0000
1000
0000
,
1000
0000
0001
0000
,
0001
0000
1000
0000
,
1000
0000
0001
0000
,
0001
0000
1000
0000
,
1000
0000
0001
0000
,
0001
0000
1000
0000
,
1000
0000
0001
0000
,
0001
0000
1000
0000
,
0000
1000
0000
1000
,
0000
0001
0000
0001
,
0000
0001
0000
0100
,
0000
0100
0000
0010
,
0000
0010
0000
0100
,
0000
0100
0000
0010
,
0000
0010
0000
0100
,
0000
0100
0000
0010
,
0000
0010
0000
0001
,
0000
0001
0000
1000
,
0000
2002
0000
0000
,
0000
0000
0000
0000
,
0000
0000
3003
0000
;
