#TITLE:気まぐれプリンセス;
#SUBTITLE:;
#ARTIST:モーニング娘。;
#TITLETRANSLIT:Kimagure Princess;
#SUBTITLETRANSLIT:;
#ARTISTTRANSLIT:Morning Musume;
#CREDIT:;
#BANNER:Kimagure Princess.png;
#BACKGROUND:Kimagure Princess-bg.png;
#LYRICSPATH:;
#CDTITLE:;
#MUSIC:Kimagure Princess.ogg;
#OFFSET:0.200;
#SAMPLESTART:60.800;
#SAMPLELENGTH:15.000;
#SELECTABLE:YES;
#BPMS:0.000=134.000;
#STOPS:;
#BGCHANGES:0.438=Kimagure Princess.avi=1.000=1=1=0,
99999=-nosongbg-=1.000=0=0=0 // don't automatically add -songbackground-
;

//---------------dance-single - Destrier75----------------
#NOTES:
     dance-single:
     Destrier75:
     Hard:
     13:
     0.586,0.522,0.270,0.026,0.335: // measure 1
0000
0000
0000
0000
,  // measure 2
0000
0000
0000
0000
,  // measure 3
0000
0000
0000
0000
,  // measure 4
0000
0000
0000
0000
1000
0000
0000
1001
0000
0000
0001
0000
1000
0000
0000
1001
,  // measure 5
0000
0001
0101
0000
0000
0000
0000
0000
,  // measure 6
0000
0000
0000
0000
1000
0010
1000
0000
0100
0000
0010
0000
1000
0000
0001
0000
,  // measure 7
0100
0000
0001
0000
1000
0001
1000
0000
0100
0000
0010
0000
0001
0000
1000
0000
,  // measure 8
0001
0000
0100
0000
0010
0100
0010
0000
0100
0000
0010
0000
0001
0000
0010
0000
,  // measure 9
0100
0000
1000
0000
0001
0000
1000
0001
1000
0000
0001
0000
0000
0000
1000
0000
,  // measure 10
1001
0000
0000
0000
1000
0010
1000
0000
0100
0000
0010
0000
1000
0000
0001
0000
,  // measure 11
1000
0000
0010
0000
1000
0001
1000
0000
0100
0000
0010
0000
0001
0000
1000
0000
,  // measure 12
0001
0000
0100
0000
0010
0001
0010
0000
1000
0000
0001
0000
1000
0000
0100
0000
,  // measure 13
0010
0000
0001
0000
1010
0000
0000
1000
0010
0000
1000
0000
1001
0000
0000
0000
,  // measure 14
0110
0000
0000
0000
1000
0000
0000
0001
1000
0000
0000
1000
0001
0000
0001
0000
,  // measure 15
0010
0000
0100
0000
1000
0000
0000
0010
1000
0000
0000
1000
0001
0000
0001
0000
,  // measure 16
1001
0000
0000
0000
1000
0000
0000
0010
1000
0000
0000
1000
0001
0000
0010
0000
,  // measure 17
0100
0000
0001
0000
1000
0010
1000
0000
0100
0000
0010
0000
0001
0000
1001
0000
,  // measure 18
0000
0000
0000
0000
1000
0001
1000
0000
1000
0000
0001
0000
1000
0000
0001
0000
,  // measure 19
1000
0000
0010
0000
0100
0001
0100
0000
0001
0000
0010
0000
0100
0000
0001
0000
,  // measure 20
0100
0000
0000
0000
1001
0000
0000
0001
1000
0000
0000
1000
0010
0000
0100
0000
,  // measure 21
1000
0000
0100
0000
0010
0000
0000
0100
0010
0000
0000
0010
0001
0000
1000
0000
,  // measure 22
1001
0000
0000
0000
1001
0000
0000
0001
0100
0000
0000
0100
0001
0000
0010
0000
,  // measure 23
1000
0000
0001
0000
1000
0001
1000
0000
0001
0000
0100
0000
1000
0000
1001
0000
,  // measure 24
0000
0000
0000
0000
1000
0010
1000
0000
0100
0000
1000
0000
0100
0000
0010
0000
,  // measure 25
0001
0000
1000
0000
0010
0100
0010
0000
0100
0000
0001
0000
0100
0000
0010
0000
,  // measure 26
1000
0000
0001
0000
1000
0001
1000
0000
0100
0000
0010
0000
0001
0000
1000
0000
,  // measure 27
0010
0000
0100
0000
1001
0000
0000
1000
0001
0000
1000
0000
1001
0000
0000
0000
,  // measure 28
0110
0000
1000
0010
1000
0000
0100
0000
0010
0000
0001
0000
1000
0000
0001
0000
,  // measure 29
1000
0000
0001
0000
1000
0000
0010
1000
0010
0000
0100
0000
0010
0000
0001
0000
,  // measure 30
1000
0000
0001
1000
0001
0000
1000
0000
0001
0000
0100
0000
0010
0000
0100
0010
,  // measure 31
0000
0000
1000
0001
1000
0000
0100
0000
0001
0000
1000
0000
0001
0100
0001
0100
,  // measure 32
0000
0000
0001
1000
0001
0000
0100
0000
0010
0000
1000
0000
0001
0000
0010
0000
,  // measure 33
0100
0000
1000
0002
0000
0000
0000
0000
0000
0000
0000
0000
0000
0000
0000
0000
,  // measure 34
0000
0000
0003
0000
1001
0000
1000
0010
1000
0000
0100
0010
0100
0000
0001
0100
,  // measure 35
0001
0000
1000
0010
1000
0000
0100
0000
0010
0000
0001
1000
0000
0000
0100
0000
,  // measure 36
0010
0000
0001
0000
0100
0000
0001
0000
1000
0000
0001
1000
0000
0000
0000
0000
,  // measure 37
0000
0000
0010
0100
0010
0000
0001
0000
0100
0000
1000
0001
0000
0000
0100
0000
,  // measure 38
0010
0001
0110
0000
1010
0000
0101
0000
,  // measure 39
1001
0000
0000
0000
1000
0000
0010
0000
1000
0000
0001
2000
0000
0000
0000
0000
,  // measure 40
0010
0000
0000
0000
3001
0000
0000
0000
1000
0000
0010
1000
0000
0000
0100
0000
,  // measure 41
0001
0000
1000
0000
0001
0000
0010
0000
0100
0000
1000
0010
1000
0000
0100
0000
,  // measure 42
0001
0000
0100
0000
1000
0000
0000
1010
0000
0000
0010
0000
0001
0000
0000
0101
,  // measure 43
0000
0000
0100
0010
0100
0000
0010
0000
1000
0000
0001
0000
1000
0000
0100
0000
,  // measure 44
0010
0000
0001
0000
0100
0000
0001
0000
0100
0000
0001
0100
0000
0000
0000
0000
,  // measure 45
0000
0000
0010
0100
0010
0000
0100
0000
0010
0000
0001
1000
0000
0000
0001
0000
,  // measure 46
0100
0010
0110
0000
1010
0000
0101
0000
,  // measure 47
1001
0000
0000
0000
1000
0000
0001
0000
1000
0000
0001
2000
0000
0000
0000
0000
,  // measure 48
0100
0000
0000
0000
3001
0000
0000
0000
0100
0000
0001
0100
0000
0000
0010
0000
,  // measure 49
1000
0000
0000
0000
0000
0000
0001
0000
0000
0000
0000
0000
1000
0000
0000
0000
0000
0000
0000
0000
0000
0001
0000
0000
0000
0000
0000
0000
0000
0000
0010
0000
0000
0000
0000
0000
1000
0000
0000
0000
0010
0000
0000
0000
0100
0000
0000
0000
,  // measure 50
0001
0000
0000
0000
0010
0000
0000
0000
0100
0000
0000
0000
1000
0000
0000
0000
0000
0000
0000
0000
0000
0000
0000
0000
0100
0000
0000
0000
0000
0000
0010
0000
0000
0100
0000
0000
0000
0000
0000
0000
0000
0000
0001
0000
0000
0000
0000
0000
,  // measure 51
0010
0000
0000
0000
0001
0000
0010
0000
0100
0000
1000
0000
0100
0000
0100
0010
,  // measure 52
0100
0000
0000
0001
0000
0000
1000
0000
0100
0000
0010
0000
0001
0000
1000
0000
0100
0000
0010
0000
0000
0000
0000
0000
,  // measure 53
0000
0000
0000
0000
1000
0001
1000
0000
0100
0000
0010
0000
0001
0000
1000
0000
,  // measure 54
0001
0000
0010
0000
0100
0010
0100
0000
0001
0000
0100
0000
0010
0000
1000
0000
,  // measure 55
0001
0000
0100
0000
0010
1000
0010
0000
0100
0000
0001
0000
1000
0000
0001
0000
,  // measure 56
1000
0000
0010
0000
1000
0000
0001
0100
0001
0000
0100
0000
0000
0000
0001
0000
,  // measure 57
0101
0000
0000
0000
1000
0000
0001
1000
0001
0000
0100
0000
0001
0000
1000
0000
,  // measure 58
0010
0000
0100
0000
0010
0100
0010
0000
1000
0000
0100
0000
0010
0000
0001
0000
,  // measure 59
0100
0000
0001
0000
0100
0001
0100
0000
0010
0000
1000
0000
0001
0000
0100
0000
,  // measure 60
0010
0000
1000
0000
1001
0000
0000
1000
0001
0000
1000
0000
1001
0000
0000
0000
,  // measure 61
0110
0000
0000
0000
;

//---------------dance-single - Destrier75----------------
#NOTES:
     dance-single:
     Destrier75:
     Medium:
     9:
     0.467,0.443,0.330,0.070,0.057:
0000
0000
0000
0000
,
0000
0000
0000
0000
,
0000
0000
0000
0000
,
0000
0000
0000
0000
0100
0000
0000
0100
0000
0000
0010
0000
0100
0000
0000
0100
,
0000
0010
0220
0000
0000
0000
0000
0000
,
0330
0000
1000
0001
1000
0010
1000
0000
,
1001
0000
0001
0010
0001
0010
0100
0000
,
0101
0000
0100
0010
0100
0010
0001
0000
,
1000
0010
1000
0010
0001
0010
0000
0010
,
0110
0000
1000
0010
1000
0001
1000
0000
,
1001
0000
0001
0100
0001
0100
0010
0000
,
0110
0000
1000
0010
1000
0001
1000
0000
,
0001
0100
0001
0000
1000
0100
0010
0000
,
1010
0000
1000
0010
1000
0000
0010
0100
,
0001
0000
0001
0100
0001
0000
0100
0010
,
0100
0000
1000
0001
1000
0000
0010
1000
,
0010
0000
0100
0001
0100
0000
0101
0000
,
1001
0000
1000
0010
1000
0010
1000
0000
,
1010
0000
0100
0001
0100
0001
0100
0000
,
0101
0000
1000
0001
1000
0000
0100
0001
,
0100
0000
1000
0010
1000
0000
0010
0100
,
0010
0000
1000
0010
1000
0000
0001
0100
,
0001
0000
1000
0010
1000
0000
1010
0000
,
1001
0000
0100
0010
0100
0010
0100
0000
,
0110
0000
0100
0001
0100
0001
0100
0000
,
0101
0000
1000
0010
1000
0010
1000
0000
,
0001
0010
0100
0000
0100
0001
0100
0000
,
0000
0000
1000
0100
0010
0000
0010
0100
,
1000
0000
0001
0100
0001
0000
0101
0000
,
0110
0001
1000
0001
1000
0000
1001
0000
,
0000
0010
0100
0010
0100
0000
0110
0000
,
0000
1000
0001
1000
0001
0000
1000
0010
,
1000
0010
2000
0000
0000
0000
0000
0000
,
0000
3002
2003
3002
,
2003
0000
3010
0100
1000
0100
0010
1000
,
0001
1000
0001
0000
1000
0000
1001
0000
,
0000
1000
0010
0100
0001
0010
0100
1000
,
0100
0010
1010
0000
1010
0000
1010
0000
,
1010
0000
1000
0001
1000
0000
0001
0100
,
0001
0000
1001
0000
0001
0100
0001
0000
,
1000
0010
1000
0000
0010
0100
1000
0100
,
0001
0000
1000
0000
0001
0000
0000
0100
0000
0000
1000
0000
0100
0000
0000
0001
,
0000
1000
0001
1000
0001
1000
0001
1000
,
0001
1000
0100
0000
0011
0000
1001
0000
,
0000
1000
0010
1000
0001
1000
0010
1000
,
0001
0100
0101
0000
0101
0000
0101
0000
,
0101
0000
1000
0010
1000
0000
0100
0010
,
0100
0000
0101
0000
0001
1000
0001
0000
,
1000
0000
0000
0000
0000
0000
0010
0000
0000
0000
0000
0000
1000
0000
0000
0000
0000
0000
0000
0000
0000
0001
0000
0000
0000
0000
0000
0000
0000
0000
1000
0000
0000
0000
0000
0000
0100
0000
0000
0000
0010
0000
0000
0000
0100
0000
0000
0000
,
0010
0100
0010
0100
0000
0000
0000
0000
0000
0000
0000
0000
,
0000
0000
1000
0100
0010
0001
0010
0001
,
0010
0000
0000
0001
0000
0000
1000
0000
0100
0000
1000
0000
0100
0000
1000
0000
0100
0000
2000
0000
0000
0000
0000
0000
,
0000
0000
3001
0010
1000
0001
1000
0000
,
1001
0000
0100
0010
1000
0001
0100
0000
,
0110
0000
1000
0001
1000
0010
1000
0000
,
0001
0100
0001
1000
0010
1000
0000
0010
,
1010
0000
1000
0010
1000
0001
1000
0000
,
1001
0000
0100
0001
0100
0010
1000
0000
,
1010
0000
1000
0001
1000
0010
1000
0000
,
1000
0100
0010
0000
0010
1000
0001
0000
,
1001
0000
0000
0000
;

//---------------dance-single - Destrier75----------------
#NOTES:
     dance-single:
     Destrier75:
     Easy:
     6:
     0.288,0.313,0.243,0.043,0.000:
0000
0000
0000
0000
,
0000
0000
0000
0000
,
0000
0000
0000
0000
,
0000
1001
0000
1001
,
0000
1001
0000
0000
,
0000
1000
0001
1000
,
0001
0100
0010
0100
,
0010
1000
0010
1000
,
0010
0001
0100
0001
,
0100
1000
0001
1000
,
0001
0100
0001
0100
,
0001
0010
1000
0010
,
1000
1001
0000
1001
,
0000
1000
0001
1000
,
0001
1000
0001
1000
,
1001
0100
0010
0100
,
0010
0100
0010
0110
,
0000
1000
0010
1000
,
0010
0100
0001
0100
,
0001
1000
0001
1000
,
0001
1000
0001
1000
,
1001
1000
0010
1000
,
0010
1000
0010
1010
,
0000
1000
0001
1000
,
0001
0100
0001
0100
,
0001
1000
0010
1000
,
0010
1010
0000
1010
,
0000
1000
0010
1000
,
0001
1000
0000
1001
,
0000
0001
0100
0001
,
1000
0001
0100
0010
,
1000
0001
0100
0010
,
1000
0002
0000
0000
,
0000
0103
0010
0100
,
0010
1000
0010
1000
,
0010
1000
0010
1010
,
0000
0001
0100
0001
,
0100
1001
1001
1001
,
1001
1000
0001
1000
,
0001
1000
0010
0100
,
0010
0100
0010
1000
,
0001
1000
0000
1001
,
0000
0001
0100
0001
,
0100
1000
0001
0101
,
0000
1000
0001
1000
,
0010
0110
0110
0110
,
0110
1000
0001
1000
,
0001
1000
0100
0010
,
0100
0010
0100
0220
,
0000
0330
0000
0000
,
0000
0100
0100
0010
,
0010
0220
0000
0330
,
0000
1000
0001
1000
,
0001
1000
0010
1000
,
0010
0100
0001
0100
,
0001
1000
0001
1000
,
1001
0100
0010
0100
,
0010
1000
0001
1000
,
0001
0100
0001
0100
,
0001
1000
0000
0110
,
1001
0000
0000
0000
;

//---------------dance-single - Destrier75----------------
#NOTES:
     dance-single:
     Destrier75:
     Beginner:
     3:
     0.176,0.183,0.017,0.043,0.000:
0000
0000
0000
0000
,
0000
0000
0000
0000
,
0000
0000
0000
0000
,
0000
0100
0000
0100
,
0000
0100
0000
0000
,
0000
1000
1000
1000
,
0000
0001
0001
0001
,
0000
1000
1000
1000
,
0000
0001
0001
0001
,
0000
0100
0100
0100
,
0000
0010
0010
0010
,
0000
0100
0100
0100
,
0000
0010
0010
0010
,
0000
1000
0000
1000
,
0000
1000
0000
1000
,
0000
0001
0000
0001
,
0000
0001
0000
0001
,
0000
1000
1000
1000
,
0000
0001
0001
0001
,
0000
0100
0000
0100
,
0000
0100
0000
0100
,
0000
0010
0000
0010
,
0000
0010
0000
0010
,
0000
0100
0100
0100
,
0000
0010
0010
0010
,
0000
1000
1000
1000
,
0000
0001
0001
0001
,
0000
1000
0000
1000
,
0000
1000
1000
1000
,
0000
0001
0000
0001
,
0001
1000
0000
1000
,
1000
0010
0000
0010
,
0010
0020
0000
0000
,
0030
0100
0000
0100
,
0000
0100
0000
0010
,
0000
0100
0000
0010
,
0000
1000
0000
0001
,
0000
1000
0000
0001
,
0000
0100
0000
0010
,
0000
0100
0000
0010
,
0000
0001
0000
1000
,
0000
0001
0000
1000
,
0000
0100
0000
0010
,
0000
0100
0000
0010
,
0000
1000
0000
0001
,
0000
1000
0000
0001
,
0000
0100
0000
0010
,
0000
0100
0000
0010
,
0000
0000
0000
0220
,
0000
0330
0000
0000
,
0000
1000
0000
1000
,
0000
2002
0000
3003
,
0000
1000
1000
1000
,
0000
0001
0001
0001
,
0000
1000
1000
1000
,
0000
0001
0001
0001
,
0000
0100
0100
0100
,
0000
0010
0010
0010
,
0000
0100
0100
0100
,
0000
0010
0010
0010
,
0100
0000
0000
0000
;
