#TITLE:KISS KISS;
#SUBTITLE:;
#ARTIST:LADIES’ CODE;
#TITLETRANSLIT:;
#SUBTITLETRANSLIT:;
#ARTISTTRANSLIT:;
#CREDIT:;
#BANNER:KISS KISS.png;
#BACKGROUND:KISS KISS-bg.png;
#LYRICSPATH:;
#CDTITLE:;
#MUSIC:KISS KISS.ogg;
#OFFSET:0.440;
#SAMPLESTART:44.160;
#SAMPLELENGTH:15.000;
#SELECTABLE:YES;
#BPMS:0.000=130.000;
#STOPS:;
#BGCHANGES:0.938=KISS KISS.avi=1.000=1=1=0,
99999=-nosongbg-=1.000=0=0=0 // don't automatically add -songbackground-
;

//---------------dance-single - Destrier75----------------
#NOTES:
     dance-single:
     Destrier75:
     Hard:
     12:
     0.472,0.456,0.704,0.065,0.000:
0000
0000
0000
0000
,
0000
0000
0000
0000
,
0000
0000
0000
0000
,
0000
0000
0000
0000
,
0000
0000
0000
0001
0010
0100
2000
0000
,
0001
0000
3001
0001
0010
0100
2000
0000
,
0010
0000
3010
1000
0100
0010
0001
0010
,
0001
0010
0001
0010
0100
1000
0100
1000
,
0100
0010
1001
0000
1000
0010
1000
0010
,
1000
0000
1000
0100
1000
0100
1000
0000
,
1001
0000
0101
0000
0001
0100
0001
0100
,
0001
0000
1000
0010
1000
0010
1000
0000
,
0110
0000
1001
0000
0001
0010
0100
1000
,
0100
0000
0010
0000
1000
0001
1000
0001
,
1000
0000
0010
0000
1000
0001
1000
0001
,
1000
0000
1000
0100
0010
0001
0010
0000
,
1010
0000
0110
0000
1000
0001
1000
0001
,
1000
0000
0100
0001
0100
0001
0100
0000
,
0110
0000
0110
0000
0100
0010
0100
0001
,
0100
0000
1000
0010
1000
0010
1000
0000
,
1001
0000
0101
0000
1000
0010
1000
0010
,
1000
0000
0010
0000
0100
0010
0100
0010
,
0100
0000
0001
0000
1000
0001
1000
0001
,
1000
0002
2003
3020
,
0130
1001
1010
0101
,
0110
0000
1001
0000
0000
1001
0000
0000
,
0000
1010
0110
1001
,
0101
0000
1010
0000
0000
1010
0000
0000
,
0000
0000
1000
0001
1000
0010
1000
0100
,
0010
0000
0001
0100
0001
0100
0001
0010
,
0100
0000
1000
0010
0001
0010
1000
0001
,
1000
0001
1001
0000
0101
0000
1010
0000
,
0110
1001
1010
0110
,
0101
0000
1010
0000
0000
0110
0000
0000
,
0000
1001
0110
1001
,
1010
0000
0101
0000
0000
0101
0000
0000
,
0000
0000
1000
0001
1000
0001
1000
0100
,
0010
0000
0001
0100
0001
0100
0001
0010
,
0100
0000
1000
0001
1000
0010
1000
0010
,
1000
0001
1001
0000
1001
0000
1001
0000
,
0110
1001
0110
1001
,
1001
0000
1001
0000
0000
1001
0000
0000
,
0000
0110
1001
1010
,
0101
0000
0101
0000
0000
0101
0000
0000
,
0000
0000
1000
0001
1000
0001
1000
0010
,
0100
0000
0001
0100
0001
0100
0001
0010
,
1000
0000
0001
0010
0100
0010
0001
1000
,
0001
1000
1010
0000
0110
0000
1001
0000
,
0101
1001
0110
1001
,
0110
0000
1010
0000
0000
1010
0000
0000
,
0000
1001
0110
1001
,
0110
0000
1001
0000
0000
1001
0000
0000
,
0000
0000
1000
0001
1000
0010
0100
0010
,
0100
0000
0001
0100
0001
0100
0001
0010
,
0100
0000
1000
0010
0001
1000
0001
0010
,
1000
0010
1010
0000
0110
0000
0101
0000
,
1001
2002
0000
0000
,
0000
0000
0000
0000
,
3003
0000
0000
0000
;

//---------------dance-single - Destrier75----------------
#NOTES:
     dance-single:
     Destrier75:
     Medium:
     8:
     0.384,0.403,0.361,0.056,0.000:
0000
0000
0000
0000
,
0000
0000
0000
0000
,
0000
0000
0000
0000
,
0000
0000
0000
0000
,
0000
0000
1000
0100
0010
0000
0010
0000
,
1000
0000
0001
0000
0001
0010
0100
0000
,
0100
0000
1000
0000
0001
1000
0001
0000
,
0100
0010
0100
0000
0001
0100
0001
0000
,
1000
0000
1001
0000
1000
0010
1000
0000
,
0010
0000
0010
0100
0010
0000
1000
0000
,
0001
0000
1001
0000
1000
0001
1000
0000
,
0001
0000
1000
0010
1000
0000
0010
0000
,
0010
0000
0110
0000
1000
0100
0010
0000
,
0010
0000
0100
0001
0100
0000
0001
0000
,
1000
0001
1000
0000
0100
0000
0010
0100
,
0010
0200
0000
0001
,
0301
0000
0101
0000
1000
0001
1000
0000
,
0010
0000
0100
0010
0100
0000
0010
0000
,
0100
0000
0110
0000
1000
0001
1000
0000
,
0100
0000
0001
0100
0001
0000
1000
0000
,
0001
0000
1001
0000
1000
0010
1000
0000
,
0100
0000
0001
0010
0001
0000
1000
0000
,
0010
1000
0010
0000
0100
0000
0010
0100
,
0010
2000
3002
2003
,
3001
0000
0100
0010
0100
0000
0001
1000
,
0001
0000
1001
0000
0000
1001
0000
0000
,
0000
0000
1000
0010
1000
0000
0100
0010
,
0100
0000
0110
0000
0000
0110
0000
0000
,
0000
0000
1000
0001
1000
0000
0100
0000
,
0010
0000
1000
0010
1000
0000
0001
0000
,
0100
0000
0001
0100
0001
0000
1000
0010
,
1000
1010
1010
1010
,
1010
0000
0100
0010
0100
0000
0001
0100
,
0001
0000
0011
0000
0000
0011
0000
0000
,
0000
0000
1000
0010
1000
0000
0001
1000
,
0001
0000
1001
0000
0000
1001
0000
0000
,
0000
0000
1000
0010
1000
0000
0100
0000
,
0001
0000
1000
0010
1000
0000
0010
0000
,
0100
0000
0001
1000
0001
0000
0100
0001
,
0100
1001
1001
1001
,
1001
0000
1000
0010
1000
0000
0100
0001
,
0100
0000
1010
0000
0000
1010
0000
0000
,
0000
0000
1000
0001
1000
0000
0100
0001
,
0100
0000
1001
0000
0000
1001
0000
0000
,
0000
0000
1000
0010
1000
0000
0010
0000
,
0100
0000
0001
0100
0001
0000
1000
0000
,
0001
0000
1000
0001
1000
0000
0100
0001
,
0100
0101
0101
0101
,
0101
0000
0100
0010
0100
0000
1000
0001
,
1000
0000
0101
0000
0000
0101
0000
0000
,
0000
0000
1000
0010
1000
0000
0100
0010
,
0100
0000
0110
0000
0000
0110
0000
0000
,
0000
0000
1000
0001
1000
0000
0100
0000
,
0001
0000
1000
0001
1000
0000
0100
0000
,
0001
0000
1000
0010
1000
0000
0100
0001
,
0100
0101
0101
0101
,
0101
0202
0000
0000
,
0000
0000
0000
0000
,
0303
0000
0000
0000
;

//---------------dance-single - Destrier75----------------
#NOTES:
     dance-single:
     Destrier75:
     Easy:
     4:
     0.272,0.260,0.139,0.009,0.000:
0000
0000
0000
0000
,
0000
0000
0000
0000
,
0000
0000
0000
0000
,
0000
0000
0000
0000
,
0000
1000
0001
1000
,
0001
1000
0010
1000
,
0010
0100
0001
0100
,
0001
1000
0010
1000
,
0010
1010
1000
0001
,
1000
0001
1000
0001
,
1000
1001
0001
0100
,
0001
0100
0001
0100
,
0001
0101
1000
0010
,
1000
0010
0001
0010
,
0001
0010
1000
0010
,
1000
0020
0000
0030
,
0000
1001
0001
1000
,
0001
1000
0001
1000
,
0001
1001
0100
0001
,
0100
0001
0100
0001
,
0100
0101
0010
1000
,
0010
0100
0001
0100
,
0001
0100
0010
1000
,
0010
1000
0001
1000
,
0001
1000
0001
1000
,
0001
0000
1000
0000
0000
1001
0000
0000
,
0000
1000
0010
1000
,
0010
0000
1000
0000
0000
1001
0000
0000
,
0000
0001
0100
0001
,
0100
0010
1000
0010
,
1000
0100
0010
0100
,
0010
0100
0100
0100
,
0100
0001
1000
0001
,
1000
0000
0001
0000
0000
1001
0000
0000
,
0000
1000
0010
1000
,
0010
0000
1000
0000
0000
1010
0000
0000
,
0000
1000
0010
1000
,
0010
0100
0001
0100
,
0001
1000
0001
1000
,
0001
1000
1000
1000
,
1000
0001
0100
0001
,
0100
0000
0001
0000
0000
0101
0000
0000
,
0000
1000
0010
1000
,
0010
0000
1000
0000
0000
1010
0000
0000
,
0000
0100
0010
0100
,
0010
0001
0100
0001
,
0100
1000
0010
1000
,
0010
1000
1000
1000
,
1000
0001
0100
0001
,
0100
0000
0001
0000
0000
0101
0000
0000
,
0000
1000
0100
1000
,
0100
0000
1000
0000
0000
1100
0000
0000
,
0000
0100
0010
0100
,
0010
0001
0100
0001
,
0100
0010
1000
0010
,
1000
0010
0010
0010
,
0010
0110
0000
0000
;

//---------------dance-single - Destrier75----------------
#NOTES:
     dance-single:
     Destrier75:
     Beginner:
     2:
     0.143,0.156,0.009,0.000,0.000: // measure 1
0000
0000
0000
0000
,  // measure 2
0000
0000
0000
0000
,  // measure 3
0000
0000
0000
0000
,  // measure 4
0000
0000
0000
0000
,  // measure 5
0000
0010
0010
0010
,  // measure 6
0000
0100
0100
0100
,  // measure 7
0000
0001
0001
0001
,  // measure 8
0000
1000
1000
1000
,  // measure 9
0000
1000
0000
1000
,  // measure 10
0000
1000
0000
1000
,  // measure 11
0000
0000
0001
0000
,  // measure 12
0001
0000
0001
0000
,  // measure 13
0001
0000
0100
0000
,  // measure 14
0100
0000
0010
0000
,  // measure 15
0010
0000
1000
0000
,  // measure 16
1000
0000
0000
0000
,  // measure 17
0000
0001
0000
0001
,  // measure 18
0000
0001
0000
0001
,  // measure 19
0000
0000
0100
0000
,  // measure 20
0100
0000
0100
0000
,  // measure 21
0100
0000
0010
0000
,  // measure 22
0010
0000
0100
0000
,  // measure 23
0100
0000
0001
0000
,  // measure 24
0001
1000
0000
1000
,  // measure 25
0000
0001
0000
0001
,  // measure 26
0000
0000
1000
0000
0000
1000
0000
0000
,  // measure 27
0000
0010
0000
0010
,  // measure 28
0000
0000
0100
0000
0000
0100
0000
0000
,  // measure 29
0000
0100
0000
0100
,  // measure 30
0000
0010
0000
0010
,  // measure 31
0000
1000
0000
1000
,  // measure 32
0000
0001
0000
0001
,  // measure 33
0000
1000
0000
1000
,  // measure 34
0000
0000
0001
0000
0000
0001
0000
0000
,  // measure 35
0000
0100
0000
0100
,  // measure 36
0000
0000
0010
0000
0000
0010
0000
0000
,  // measure 37
0000
1000
0000
1000
,  // measure 38
0000
0001
0000
0001
,  // measure 39
0000
1000
0000
1000
,  // measure 40
0000
0001
0000
0001
,  // measure 41
0000
0100
0000
0100
,  // measure 42
0000
0000
0010
0000
0000
0010
0000
0000
,  // measure 43
0000
1000
0000
1000
,  // measure 44
0000
0000
0001
0000
0000
0001
0000
0000
,  // measure 45
0000
0100
0000
0100
,  // measure 46
0000
0010
0000
0010
,  // measure 47
0000
1000
0000
1000
,  // measure 48
0000
0001
0000
0001
,  // measure 49
0000
1000
0000
1000
,  // measure 50
0000
0000
0001
0000
0000
0001
0000
0000
,  // measure 51
0000
0100
0000
0100
,  // measure 52
0000
0000
0010
0000
0000
0010
0000
0000
,  // measure 53
0000
1000
0000
1000
,  // measure 54
0000
0001
0000
0001
,  // measure 55
0000
0100
0000
0100
,  // measure 56
0000
0010
0000
0010
,  // measure 57
0000
0110
0000
0000
;
