#TITLE:Just For Me;
#SUBTITLE:;
#ARTIST:Pinkpantheress;
#TITLETRANSLIT:;
#SUBTITLETRANSLIT:;
#ARTISTTRANSLIT:;
#CREDIT:;
#BANNER:Just For Me.png;
#BACKGROUND:Just For Me-bg.png;
#LYRICSPATH:;
#CDTITLE:;
#MUSIC:Just For Me.ogg;
#OFFSET:0.340;
#SAMPLESTART:34.960;
#SAMPLELENGTH:15.000;
#SELECTABLE:YES;
#BPMS:0.000=133.000;
#STOPS:;
#BGCHANGES:;

//---------------dance-single - Destrier75----------------
#NOTES:
     dance-single:
     Destrier75:
     Hard:
     10:
     0.385,0.349,0.000,0.233,0.000: // measure 1
0000
0000
0000
0000
,  // measure 2
0000
0000
0000
0000
,  // measure 3
0000
0000
0000
0000
,  // measure 4
0000
0000
0000
0000
,  // measure 5
0000
0000
1000
0100
1000
0100
0010
0001
,  // measure 6
0000
0001
0010
0100
,  // measure 7
1000
0000
0010
0100
0010
0100
0010
0000
,  // measure 8
0100
0000
0010
0000
1000
0001
1000
0001
,  // measure 9
1000
0000
0100
0000
0010
0000
0100
0010
,  // measure 10
0100
0010
0100
0000
0001
0000
0100
0000
,  // measure 11
0001
0100
0001
0100
0001
0000
0010
0000
,  // measure 12
1000
0000
0100
0010
0100
0010
0100
0000
,  // measure 13
0001
2000
0001
0100
,  // measure 14
0001
0100
0001
0100
,  // measure 15
0001
3002
0010
1000
,  // measure 16
0010
1000
0010
1000
,  // measure 17
0010
2003
0100
0010
,  // measure 18
0100
0010
0100
0010
,  // measure 19
0100
0010
0100
0010
,  // measure 20
0100
0000
0010
0000
3100
0000
0100
0010
,  // measure 21
0001
0010
0200
0000
0010
0000
1000
0000
,  // measure 22
0010
0000
1000
0000
0310
0001
0100
1000
,  // measure 23
0100
0010
0002
0000
1000
0000
0010
0000
,  // measure 24
1000
0000
0010
0000
1003
0010
1000
0100
,  // measure 25
1000
0010
0200
0000
0010
0000
1000
0000
,  // measure 26
0010
0000
1000
0000
0310
0001
0100
0010
,  // measure 27
0100
0010
0002
0000
0100
0000
1000
0000
,  // measure 28
0100
1000
0103
0010
,  // measure 29
0000
0000
1000
0010
1000
0010
1000
0000
,  // measure 30
0100
0000
0010
0000
0001
0100
0001
0100
,  // measure 31
0001
0000
0010
0000
1000
0000
0100
0010
,  // measure 32
0100
0010
0100
0000
0001
0000
0100
0000
,  // measure 33
0010
0100
0010
0100
0010
0000
1000
0000
,  // measure 34
0010
0000
1000
0010
1000
0010
1000
0000
,  // measure 35
0001
0000
0100
0000
0010
1000
0010
1000
,  // measure 36
0010
0000
0100
0000
0001
0000
0100
0010
,  // measure 37
0100
0010
2000
0000
0001
0000
0100
0000
,  // measure 38
0001
0100
0001
0100
,  // measure 39
0001
3200
0010
1000
,  // measure 40
0010
1000
0010
1000
,  // measure 41
0010
2300
0010
0001
,  // measure 42
0010
0001
0010
0001
,  // measure 43
0010
3002
0100
0010
,  // measure 44
0100
0010
0100
0010
,  // measure 45
0103
0000
0100
0010
0100
0000
0010
0100
,  // measure 46
0010
0000
1000
0010
1000
0000
0001
0100
,  // measure 47
0001
0000
0100
0010
0100
0000
1000
0010
,  // measure 48
1000
0000
0000
0000
0000
0100
0010
0100
,  // measure 49
0010
0100
0020
0000
0100
0000
1000
0000
,  // measure 50
0100
0000
1000
0000
0130
0001
0010
0100
,  // measure 51
0010
0100
0020
0000
0001
0000
1000
0000
,  // measure 52
0001
0000
1000
0000
0031
0010
0100
1000
,  // measure 53
0001
0100
0020
0000
0001
0000
0100
0000
,  // measure 54
0001
0000
0100
0000
0031
0100
0010
0100
,  // measure 55
0010
0100
0002
0000
1000
0000
0010
0000
,  // measure 56
1000
0010
1003
0010
,  // measure 57
1000
0200
0010
0302
,  // measure 58
1000
2003
0010
3020
,  // measure 59
0100
0230
0001
0302
,  // measure 60
1000
0000
2003
0000
0010
0000
0020
3000
,  // measure 61
0100
0230
0001
0302
,  // measure 62
1000
2003
0010
3020
,  // measure 63
0100
0130
0000
0000
;

//---------------dance-single - Destrier75----------------
#NOTES:
     dance-single:
     Destrier75:
     Medium:
     7:
     0.287,0.296,0.052,0.233,0.000:
0000
0000
0000
0000
,
0000
0000
0000
0000
,
0000
0000
0000
0000
,
0000
0000
0000
0000
,
0000
0000
0100
0001
0100
0000
0001
0000
,
0100
0000
0010
1000
0010
0000
0100
0000
,
0010
0000
0001
0100
0001
0000
1000
0000
,
0001
0000
0100
0010
0100
0000
1000
0000
,
0010
0000
0100
0001
0100
0000
0010
0000
,
1000
0000
0100
0010
0100
0000
0001
0000
,
0100
0000
0010
1000
0010
0000
0100
0000
,
0001
0000
0100
0010
0100
0000
1000
0000
,
0001
2000
0000
0010
,
0000
0010
0000
0010
,
0000
3020
0000
0001
,
0000
0001
0000
0001
,
0000
0032
0000
1000
,
0000
1000
0000
1000
,
0000
1023
0000
0000
,
0100
0000
0100
0000
,
0130
0000
0100
0010
0100
0000
0010
0000
,
0100
0000
0010
0100
0010
0000
0010
0000
,
0100
2000
0010
0010
,
0010
3010
0100
0010
,
0001
0020
0100
0100
,
0100
0130
1000
0001
,
1000
0020
0001
0001
,
0001
0031
1000
0010
,
0100
0000
0001
0010
0001
0000
0001
0000
,
0100
0000
1000
0010
1000
0000
1000
0000
,
0001
0000
0100
0010
0100
0000
0100
0000
,
0001
0000
1000
0010
1000
0000
0100
0000
,
0001
0000
0100
0010
0100
0000
1000
0000
,
0010
0000
1000
0010
1000
0000
0100
0000
,
0001
0000
0100
0010
0100
0000
0001
0000
,
0100
0000
1000
0010
1000
0000
0010
0000
,
0001
2000
0000
0010
,
0000
0010
0000
0010
,
0000
3002
0000
0100
,
0000
0100
0000
0100
,
0000
0203
0000
0001
,
0000
0001
0000
0001
,
0000
0320
0000
0100
,
0000
0100
0000
0100
,
0000
0130
0000
0010
,
0000
0100
0000
0010
,
0000
0100
0000
0010
,
0110
0000
0000
0000
0000
0000
1000
0010
,
1000
2001
0001
0001
,
0001
3001
0010
0100
,
0010
2001
0001
0001
,
0001
3001
0010
1000
,
0010
2010
0010
0010
,
0010
3010
0100
0001
,
0100
0201
0001
0001
,
0001
0301
0010
1000
,
0001
2000
0000
3020
,
0000
0032
0000
2003
,
0000
3020
0000
0230
,
0000
0302
0000
2003
,
0000
3020
0000
0032
,
0000
2003
0000
3002
,
0000
0003
0000
0000
;

//---------------dance-single - Destrier75----------------
#NOTES:
     dance-single:
     Destrier75:
     Easy:
     4:
     0.211,0.242,0.000,0.147,0.000:
0000
0000
0000
0000
,
0000
0000
0000
0000
,
0000
0000
0000
0000
,
0000
0000
0000
0000
,
0000
0010
0100
0010
,
0000
0100
0001
0100
,
0000
1000
0001
1000
,
0000
0100
0001
0100
,
0000
0010
1000
0010
,
0000
0100
0010
0100
,
0000
0010
0001
0010
,
0000
1000
0010
1000
,
0000
2000
0000
0010
,
0000
0010
0000
0010
,
0000
3020
0000
0100
,
0000
0100
0000
0100
,
0000
0230
0000
0001
,
0000
0001
0000
0001
,
0000
0302
0000
0100
,
0000
0100
0000
0103
,
0000
1000
0001
1000
,
0001
0100
0001
0100
,
0001
0010
1000
0010
,
1000
0100
0010
0100
,
0010
0100
0001
0100
,
0001
0010
1000
0010
,
1000
0010
0100
0010
,
0100
0001
0100
0001
,
0100
0010
0001
0010
,
0000
1000
0001
1000
,
0000
0001
1000
0001
,
0000
0100
0001
0100
,
0000
0010
1000
0010
,
0000
0100
0010
0100
,
0000
0001
0100
0001
,
0000
1000
0010
1000
,
0000
2000
0000
0001
,
0000
0001
0000
0001
,
0000
3002
0000
0100
,
0000
0100
0000
0100
,
0000
0203
0000
0010
,
0000
0010
0000
0010
,
0000
0320
0000
0001
,
0000
0001
0000
0001
,
0000
0032
0000
0000
,
0000
2003
0000
0000
,
0000
3002
0000
0000
,
1003
0000
0000
0000
,
0000
1000
0010
1000
,
0010
0100
0001
0100
,
0001
0010
1000
0010
,
1000
0100
0001
0100
,
0001
0010
1000
0010
,
1000
0100
0001
0100
,
0001
0010
1000
0010
,
1000
0100
0010
0100
,
0010
2000
0000
0000
,
0000
3002
0000
0000
,
0000
2003
0000
0000
,
0000
3002
0000
0000
,
0000
2003
0000
0000
,
0000
3002
0000
0000
,
0000
0003
0000
0000
;

//---------------dance-single - Destrier75----------------
#NOTES:
     dance-single:
     Destrier75:
     Beginner:
     2:
     0.142,0.161,0.000,0.069,0.000:
0000
0000
0000
0000
,
0000
0000
0000
0000
,
0000
0000
0000
0000
,
0000
0000
0000
0000
,
0000
1000
0000
1000
,
0000
0001
0000
0001
,
0000
1000
0000
1000
,
0000
0001
0000
0001
,
0000
1000
0000
1000
,
0000
0001
0000
0001
,
0000
0100
0000
0100
,
0000
0010
0000
0010
,
0000
0200
0000
0000
,
0000
0000
0000
0000
,
0000
0320
0000
0000
,
0000
0000
0000
0000
,
0000
0230
0000
0000
,
0000
0000
0000
0000
,
0000
0320
0000
0000
,
0000
0000
0000
0030
,
0000
0100
0100
0100
,
0000
0010
0010
0010
,
0000
1000
1000
1000
,
0000
0001
0001
0001
,
0000
0100
0100
0100
,
0000
0010
0010
0010
,
0000
0001
0001
0001
,
0000
1000
1000
1000
,
0000
0100
0000
0100
,
0000
0010
0000
0010
,
0000
1000
0000
1000
,
0000
0001
0000
0001
,
0000
0100
0000
0100
,
0000
0010
0000
0010
,
0000
0100
0000
0100
,
0000
0001
0000
0001
,
0000
2000
0000
0000
,
0000
0000
0000
0000
,
0000
3002
0000
0000
,
0000
0000
0000
0000
,
0000
2003
0000
0000
,
0000
0000
0000
0000
,
0000
3002
0000
0000
,
0000
0003
0000
0000
,
0000
1000
0000
1000
,
0000
0001
0000
0001
,
0000
1000
0000
1000
,
0000
0000
0000
0000
,
0000
1000
1000
1000
,
0000
0001
0001
0001
,
0000
0100
0100
0100
,
0000
0010
0010
0010
,
0000
1000
1000
1000
,
0000
0001
0001
0001
,
0000
1000
1000
1000
,
0000
0010
0010
0010
,
0000
0100
0000
0100
,
0000
0001
0000
0001
,
0000
1000
0000
1000
,
0000
0010
0000
0010
,
0000
0100
0000
0100
,
0000
0001
0000
0001
,
0000
0001
0000
0000
;

//---------------dance-single - Destrier75----------------
#NOTES:
     dance-single:
     Destrier75:
     Challenge:
     11:
     0.332,0.403,0.501,0.000,0.000:
0000
0000
0000
0000
,
0000
0000
0000
0000
,
0000
0000
0000
0000
,
0000
0000
0000
0000
,
0000
0000
1000
0010
1000
0010
1000
0000
,
MMMM
0000
0100
0001
0100
0001
0100
0000
,
MMMM
0000
0100
0010
0100
0010
0100
0000
,
MMMM
0000
1000
0010
1000
0010
1000
0000
,
MMMM
0000
1000
0001
1000
0001
1000
0000
,
MMMM
0000
1000
0001
1000
0001
1000
0000
,
MMMM
0000
0100
0001
0100
0001
0100
0000
,
MMMM
0000
1000
0001
1000
0001
1000
0000
,
MMMM
1000
0001
1000
,
MMMM
0100
0010
0100
,
MMMM
0100
0001
0100
,
MMMM
0100
1000
0100
,
MMMM
0100
0001
0100
,
MMMM
1000
0001
1000
,
MMMM
1000
0010
1000
,
MMMM
1000
0001
1000
,
MMMM
0000
1010
MMMM
0101
MMMM
1010
MMMM
,
0101
MMMM
1010
MMMM
1001
0000
1000
0000
,
0001
0000
1010
MMMM
0101
MMMM
0110
MMMM
,
1001
MMMM
1010
MMMM
0101
0000
0001
0000
,
1000
0000
1001
MMMM
1010
MMMM
0101
MMMM
,
0110
MMMM
1010
MMMM
0101
0000
1000
0000
,
0001
0000
1010
MMMM
0101
MMMM
0110
MMMM
,
1001
MMMM
0110
MMMM
1001
0000
0000
0000
,
MMMM
0000
1000
0010
1000
0010
1000
0000
,
MMMM
0000
0100
0010
0100
0010
0100
0000
,
MMMM
0000
0100
0001
0100
0001
0100
0000
,
MMMM
0000
0100
1000
0100
1000
0100
0000
,
MMMM
0000
0100
0001
0100
0001
0100
0000
,
MMMM
0000
0100
0010
0100
0010
0100
0000
,
MMMM
0000
0100
0001
0100
0001
0100
0000
,
MMMM
0000
0010
1000
0010
1000
0010
0000
,
MMMM
1000
0001
1000
,
MMMM
0100
0001
0100
,
MMMM
0001
1000
0001
,
MMMM
1000
0010
1000
,
MMMM
0100
0001
0100
,
MMMM
0100
0010
0100
,
MMMM
1000
0001
1000
,
MMMM
1000
0010
1000
,
MMMM
1000
0000
1001
,
MMMM
0001
0000
0101
,
MMMM
0010
0000
1010
,
MMMM
1000
0000
1010
,
MMMM
0000
1001
MMMM
1010
MMMM
0101
MMMM
,
0110
MMMM
1010
MMMM
0101
0000
0001
0000
,
1000
0000
1001
MMMM
1010
MMMM
0110
MMMM
,
0101
MMMM
1010
MMMM
0110
0000
1000
0000
,
0001
0000
1010
MMMM
0110
MMMM
0101
MMMM
,
1001
MMMM
1010
MMMM
0101
0000
1000
0000
,
0001
0000
1001
MMMM
1100
MMMM
0101
MMMM
,
1010
MMMM
0101
MMMM
1100
0000
0010
0000
,
1000
1000
MMMM
1010
,
MMMM
0001
MMMM
0101
,
MMMM
0100
MMMM
0110
,
MMMM
0010
MMMM
1010
,
MMMM
1000
MMMM
1001
,
MMMM
0001
MMMM
0101
,
MMMM
0001
0000
0000
;
