#TITLE:JUNCTION;
#SUBTITLE:;
#ARTIST:Argonavis;
#TITLETRANSLIT:;
#SUBTITLETRANSLIT:;
#ARTISTTRANSLIT:;
#CREDIT:;
#BANNER:JUNCTION.png;
#BACKGROUND:JUNCTION-bg.png;
#LYRICSPATH:;
#CDTITLE:CDTITLE.png;
#MUSIC:JUNCTION.ogg;
#OFFSET:0.060;
#SAMPLESTART:54.100;
#SAMPLELENGTH:15.000;
#SELECTABLE:YES;
#BPMS:0.000=116.000;
#STOPS:;
#BGCHANGES:0.125=JUNCTION.avi=1.000=1=1=0,
99999=-nosongbg-=1.000=0=0=0 // don't automatically add -songbackground-
;

//---------------dance-single - Destrier75----------------
#NOTES:
     dance-single:
     Destrier75:
     Hard:
     13:
     0.523,0.498,0.030,0.160,0.380:
0000
0000
0000
0000
,
0000
0000
0000
0000
,
0000
0000
0000
0000
0000
0000
0000
0000
1000
0001
1000
0000
0100
0000
0001
0000
,
0100
0001
0100
0000
0010
0000
1000
0000
0010
1000
0010
0000
0100
0000
0010
0000
,
0100
0001
0100
0000
0010
0000
0100
0000
0010
1000
0010
0000
0100
0000
0010
0000
,
0100
0010
0100
0000
0010
0000
0001
0000
1000
0001
1000
0000
0001
0000
1000
0000
,
0001
1000
0000
0000
1000
0001
0000
0000
1000
0000
0010
0000
1000
0000
0100
0000
,
0010
0001
0010
0001
0010
0100
1000
0100
,
0010
0001
0010
0001
0010
0100
1000
0100
,
1000
0100
0010
0001
0010
0001
0010
0001
,
0010
0000
0100
0000
1000
0000
0100
0000
0010
0000
0100
0000
0001
0000
0100
0002
,
0000
0000
1000
0000
0000
0000
1003
0000
0000
0000
0010
0000
1000
0000
0010
2000
,
0000
0000
0001
0000
0000
0000
3001
0000
0000
0000
0100
0000
0010
0000
0100
0020
,
0000
0000
0100
0000
0000
0000
0130
0000
0000
0000
0001
0000
1000
0000
0001
2000
,
0000
0000
0001
0000
3000
0000
0001
1000
0000
0000
0010
0000
1000
0000
0000
0010
,
0000
0000
0100
0000
0010
0000
0000
0100
0000
0000
0001
0000
0100
0000
0010
1000
,
0000
0001
0000
1000
0000
0001
0000
1000
0000
0000
0001
0000
0100
0000
0000
0001
,
0000
0000
0100
0000
0010
0000
0000
0100
0000
0000
0010
0000
1000
0000
0000
0001
,
0000
1000
0000
0001
0000
1000
0000
0001
0000
0000
1000
0000
0001
0000
0100
0001
,
0000
0000
0010
0000
0100
0000
0010
0100
0000
0000
0010
0000
1000
0000
0010
1000
,
0000
0010
0000
1000
0000
0010
0000
1000
0000
0000
0001
0000
0100
0000
0001
0100
,
0000
0000
0001
0000
1000
0000
0001
1000
0000
0000
0100
0000
0001
0000
0100
0001
,
0000
0100
0000
0001
0000
0000
0001
0000
0002
0000
0000
0000
2003
0000
0000
0000
,
3020
0000
0000
0100
0000
0000
0130
0000
0010
0000
0100
0000
0001
0000
0100
0000
,
0010
0000
0000
0100
0000
0000
0001
0000
2000
0000
0000
0000
3020
0000
0000
0000
,
0001
0000
0000
0001
0030
0000
0001
0000
1000
0000
0010
1000
0000
0010
1000
0000
,
0010
0000
0000
0000
1000
0001
0000
1000
0000
0000
0010
0000
0100
0000
1000
0000
,
0100
0010
0001
0010
0200
0000
0302
0000
,
1003
0000
0000
0000
0010
1000
0000
0010
0000
0000
1000
0000
0100
0000
0010
0000
,
0001
0010
0001
0001
0002
0000
1000
0000
,
1000
0000
0003
0000
1000
0010
0000
1000
0000
0000
0100
0000
0010
0000
1000
0000
,
0100
0010
0001
0100
0002
0000
0203
0000
,
0320
0000
0000
0000
1030
0001
0000
1000
0000
0000
0000
0000
0001
0100
0000
0001
,
0000
0000
1000
0000
0010
0000
1000
0020
0000
0000
0000
0000
0100
0000
0000
0000
,
0130
0010
0100
1000
0001
0010
0001
0010
,
0100
0010
0100
0010
0100
1000
0100
1000
,
0100
0000
0001
0100
0000
0001
0000
0100
0001
0000
0010
0000
0100
0000
1000
0000
,
0100
0010
0001
0010
0100
1000
0100
0010
,
0001
0000
1000
0001
0000
1000
0000
0000
0100
0000
0010
0000
1000
0000
0001
0000
,
0010
0100
1000
0100
1000
0100
0010
0001
,
0010
0000
0001
1000
0000
0001
0000
1000
0010
0000
0100
0000
0010
0000
0001
0000
,
0010
0100
0001
1000
0001
1000
0010
0100
,
1000
0000
0100
0010
0000
0100
0000
0010
0001
0000
0100
0001
0100
0000
0010
0000
,
0100
0000
0010
0100
0010
0000
1000
0000
0001
0000
1000
0001
1000
0000
0100
0000
,
0001
0000
0100
0001
0100
0000
0010
0000
1000
0000
0010
1000
0010
0000
0100
0000
,
0010
0000
1000
0001
1000
0000
0100
0000
0001
0000
0100
0010
0100
0000
0001
0000
,
1000
0000
0001
0100
0001
0000
0010
0000
1100
0000
0100
0000
0010
0000
0001
0000
,
0010
0000
0100
0000
0110
0000
0000
0110
0000
0000
0000
0000
0000
0000
0000
0000
;

//---------------dance-single - Destrier75----------------
#NOTES:
     dance-single:
     Destrier75:
     Easy:
     6:
     0.259,0.284,0.130,0.020,0.000:
0000
0000
0000
0000
,
0000
0000
0000
0000
,
0000
0000
1000
0001
,
1000
0010
0100
0010
,
1000
0010
1000
0100
,
0001
0100
1000
0001
,
1000
0000
1000
0010
,
1000
0100
0001
0100
,
0010
0100
0010
1000
,
0010
1000
0100
0001
,
0100
1000
0010
1000
,
0100
0001
0100
0010
,
0100
0010
1000
0010
,
1000
0100
0001
0100
,
0001
0100
0001
1000
,
0001
1000
0001
1000
,
1001
1001
0100
0001
,
0100
0001
0100
0001
,
0101
0101
1000
0010
,
0001
0010
1000
0010
,
0011
0011
0001
0100
,
1000
0100
0001
0100
,
1100
1100
0200
0000
,
0000
0000
0000
0000
,
0000
0000
0320
0000
,
0000
0030
0110
0110
,
1001
0000
1000
0001
,
1000
0001
1000
0010
,
1000
0010
1000
0100
,
0010
0001
0010
0100
,
1000
0010
0100
0010
,
0100
0010
0100
0001
,
0100
0001
0100
0001
,
0010
1000
0010
0100
,
0001
1000
0001
0010
,
0100
1000
0001
0010
,
0100
1000
0100
0010
,
0001
1000
0100
0010
,
0001
1000
0100
0010
,
0100
0010
1000
0001
,
1000
0100
0010
0001
,
1000
0001
1000
0001
,
1000
0010
1000
0010
,
0001
0010
1000
0010
,
0001
0010
1000
0010
,
0001
0010
1000
0010
,
0001
0010
1010
0000
,
0000
0110
0000
0000
;

//---------------dance-single - Destrier75----------------
#NOTES:
     dance-single:
     Destrier75:
     Beginner:
     3:
     0.180,0.189,0.040,0.000,0.000:
0000
0000
0000
0000
,
0000
0000
0000
0000
,
0000
0000
0100
0000
,
0100
0000
0100
0000
,
0100
0000
0010
0000
,
0010
0000
0010
0000
,
0110
0000
1000
1000
,
1000
0000
0001
0001
,
0001
0000
0100
0100
,
0100
0000
0010
0010
,
0010
0000
0100
0100
,
0100
0000
0001
0001
,
0001
0000
1000
1000
,
1000
0000
0001
0001
,
0001
0000
1000
0000
,
1000
0000
0001
0000
,
0001
0000
1000
0000
,
1000
0000
0001
0000
,
0001
0000
0100
0100
,
0100
0000
0010
0010
,
0010
0000
1000
1000
,
1000
0000
0001
0001
,
0001
0000
1000
0000
,
0001
0000
1000
0000
,
0001
0000
1000
0000
,
0001
0000
0001
0000
,
1001
0000
1000
1000
,
1000
0000
0001
0001
,
0001
0000
0100
0100
,
0100
0000
0010
0010
,
0010
0000
0100
0100
,
0100
0000
1000
1000
,
1000
0000
0001
0001
,
0001
0000
0100
0100
,
0100
0000
0100
0100
,
0100
0000
0010
0010
,
0010
0000
0100
0100
,
0100
0000
0010
0010
,
0010
0000
1000
1000
,
1000
0000
0001
0001
,
0001
0000
1000
1000
,
1000
0000
0001
0001
,
0001
0000
1000
1000
,
1000
0000
0001
0001
,
0001
0000
1000
1000
,
1000
0000
0001
0001
,
0001
0000
1001
0000
,
0000
1001
0000
0000
;

//---------------dance-single - Destrier75----------------
#NOTES:
     dance-single:
     Destrier75:
     Medium:
     9:
     0.391,0.332,0.080,0.020,0.170: // measure 1
0000
0000
0000
0000
,  // measure 2
0000
0000
0000
0000
,  // measure 3
0000
0000
0000
0000
1000
0001
1000
0000
,  // measure 4
1000
0010
1000
0000
0100
0001
0100
0000
,  // measure 5
0010
1000
0010
0000
0100
0010
0100
0000
,  // measure 6
0001
0100
0001
0000
1000
0010
1000
0000
,  // measure 7
1001
0000
1001
0000
1000
0010
1000
0000
,  // measure 8
0100
0000
0001
0000
0100
0001
0100
0000
,  // measure 9
0010
0000
1000
0000
0100
0010
0100
0000
,  // measure 10
0010
0000
0100
0000
0001
0100
0001
0000
,  // measure 11
1000
0000
0010
0000
1000
0010
1000
0010
,  // measure 12
1000
0000
0010
0000
0000
0010
0100
0010
,  // measure 13
0100
0000
0010
0000
0000
1000
0001
1000
,  // measure 14
0001
0000
0100
0000
0000
1000
0010
1000
,  // measure 15
0010
0000
1000
0000
0000
0000
0010
0000
1000
0000
0010
0000
1000
0000
0000
0010
,  // measure 16
0000
0000
0001
0000
1000
0000
0000
0001
0000
0000
1000
0000
0001
0000
0010
0100
,  // measure 17
0000
0010
0000
0100
0000
0010
0000
0100
0000
0000
0010
0000
1000
0000
0010
0000
,  // measure 18
1000
0000
0000
0000
0100
0000
0010
0000
0100
0000
0000
0000
0100
0000
0000
0010
,  // measure 19
0000
0100
0000
0010
0000
0100
0000
0010
0000
0000
1000
0000
0010
0000
1000
0000
,  // measure 20
0000
0000
1000
0000
0001
0000
1000
0000
0000
0000
0100
0000
0001
0000
0100
0001
,  // measure 21
0000
0100
0000
0001
0000
0100
0000
0001
0000
0000
1000
0000
0010
0000
1000
0000
,  // measure 22
0000
0000
0100
0000
0010
0000
0100
0000
0000
0000
0001
0000
0100
0000
0001
1000
,  // measure 23
0000
0001
0000
1000
0000
0001
1000
0000
1001
0000
0000
0000
0100
0000
0000
0000
,  // measure 24
0010
0000
0000
1000
0000
0000
0010
0000
1000
0000
0010
0000
0000
0000
1000
0000
,  // measure 25
0001
1000
0000
0001
1000
0000
0001
0000
,  // measure 26
0100
0000
0000
0110
0000
0000
1000
0000
0001
0000
1000
0000
0001
0000
1000
0000
,  // measure 27
0001
0000
0000
0000
1000
0010
0000
1000
0000
0000
1000
0000
0100
0000
0010
0000
,  // measure 28
1000
0000
0001
0000
1000
0000
0001
0100
,  // measure 29
0001
0000
0000
0000
1000
0000
0010
1000
0000
0000
0100
0000
0001
0000
0100
0000
,  // measure 30
0010
0000
0100
0000
1000
0010
1000
0010
,  // measure 31
1000
0000
0000
0000
0100
0010
0000
0100
0000
0000
0001
0000
1000
0000
0001
0000
,  // measure 32
0100
0000
0001
0000
1000
0000
1000
0010
,  // measure 33
1000
0000
0000
0000
0001
1000
0000
0001
0000
0000
0000
0000
0100
0010
0000
0100
,  // measure 34
0000
0001
1000
0001
1000
0000
0010
0000
,  // measure 35
1000
0010
0001
0010
1000
0010
1000
0000
,  // measure 36
0100
0010
0100
0000
0001
0100
0001
0000
,  // measure 37
1000
0001
1000
0000
0001
0100
0001
0000
,  // measure 38
1000
0010
1000
0000
0100
0010
0100
0000
,  // measure 39
0001
0100
0001
0000
0202
0000
0000
0303
,  // measure 40
1000
0010
1000
0000
0100
0000
0001
0000
,  // measure 41
1000
0001
1000
0000
0100
0000
0010
0000
,  // measure 42
1000
0010
1000
0000
0001
0000
0100
0000
,  // measure 43
0001
0100
0001
0000
1000
0001
1000
0000
,  // measure 44
0100
0010
0100
0000
0100
0001
0100
0000
,  // measure 45
0010
1000
0010
0000
1000
0010
1000
0000
,  // measure 46
0100
0001
0100
0000
0010
0100
0010
0000
,  // measure 47
1000
0000
0010
0000
1000
0000
0000
1001
0000
0000
0000
0000
0000
0000
0000
0000
,  // measure 48
0000
0000
0000
0000
0110
0000
0000
0110
0000
0000
0000
0000
0000
0000
0000
0000
;
