#TITLE:Into The Madness;
#SUBTITLE:;
#ARTIST:Yuta Imai;
#TITLETRANSLIT:;
#SUBTITLETRANSLIT:;
#ARTISTTRANSLIT:;
#CREDIT:;
#BANNER:Into The Madness.png;
#BACKGROUND:Into The Madness-bg.png;
#LYRICSPATH:;
#CDTITLE:;
#MUSIC:Into The Madness.ogg;
#OFFSET:0.140;
#SAMPLESTART:38.360;
#SAMPLELENGTH:15.000;
#SELECTABLE:YES;
#BPMS:0.000=155.000;
#STOPS:;
#BGCHANGES:;

//---------------dance-single - Destrier75----------------
#NOTES:
     dance-single:
     Destrier75:
     Hard:
     16:
     0.730,0.814,0.086,0.137,1.000:
0000
0000
0000
0000
,
0000
0000
0000
0000
,
0000
0000
0000
0000
,
0000
0000
0000
0000
,
0000
0000
0000
0000
,
0100
0010
0100
0010
0100
0010
0100
0010
0001
0100
0001
0100
,
0001
1000
0001
0000
0000
0000
1000
0010
1000
0000
0000
0000
0100
0001
0100
0000
0000
0000
0100
0010
0100
0000
0000
0000
,
0220
0000
0000
0000
0000
0000
0000
0330
,
1000
0000
0010
1000
0000
1000
0020
0000
0000
1000
0000
0000
,
1030
0010
1000
0010
0100
0010
0001
0000
0000
0100
0010
0100
,
0001
0100
0010
0100
0001
0100
0010
0000
0000
0100
0000
0000
,
1000
0001
1000
0001
1000
0001
1000
0000
0000
0001
0100
0001
,
0100
0010
0100
1000
0010
0100
0001
0000
0000
0010
0000
0000
,
1000
0100
0010
0100
1000
0010
1000
0000
0000
0100
0001
0100
,
0001
0100
0001
0100
0000
0000
0100
0000
0000
0010
0000
0000
,
1000
0001
1000
0001
1000
0001
0100
0010
0001
0100
0001
1000
,
1001
0000
0001
1000
0000
1000
0001
0000
0000
1001
0000
0000
,
1001
0000
0000
1000
0100
0010
0001
0010
0001
0020
0000
0000
,
0032
0000
0000
1003
0001
1000
0001
0010
0100
1000
0010
1000
,
0020
0000
0000
0130
0001
0100
0001
0010
0100
1000
0010
1000
,
0010
0001
0010
0100
1000
0100
0010
0001
0010
0001
0010
0001
,
0020
0000
0000
1030
0001
1000
0001
1000
0010
2000
0000
0000
,
3200
0000
0000
0301
0100
0001
0100
0001
0010
0100
1000
0100
,
0010
0001
0010
0001
0010
0001
0010
0100
1000
0100
0010
0100
,
0010
0100
0001
0100
0001
0100
0002
0000
0000
0103
0000
0000
,
1001
0000
1000
0010
0000
0010
0001
0000
0001
1000
0000
1000
,
0010
0000
0010
1000
0000
1000
0001
0000
0001
0200
0000
0000
,
0310
0000
0100
0010
0000
0010
0001
0000
0001
1000
0000
1000
,
0010
0000
0010
1000
0000
1000
0002
0000
0000
1000
0000
0000
,
1003
0000
0010
1000
0000
1000
0001
0000
0001
0100
0000
0100
,
0010
0000
0010
0001
0000
0001
1000
0000
1000
0010
0000
0000
,
1000
0000
0001
0000
1000
0000
0001
0000
1000
0000
0001
0000
1000
0001
1000
0000
0001
0000
1000
0000
0001
0000
1000
0000
,
0001
0010
0001
0010
0100
1000
0200
0000
0000
0300
0000
0000
,
0010
0000
0100
0000
1000
0000
0100
0000
0010
0000
0001
0000
,
1000
0000
0001
0000
1000
0000
0001
0000
0100
0000
0010
0000
,
0100
0000
0010
0000
1000
0000
0010
0000
1000
0000
0100
0000
,
0001
0000
0100
0000
0001
0000
0010
0000
0001
0000
0010
0000
,
0001
0000
1000
0000
0010
0000
1000
0000
0010
0000
0100
0000
,
0001
0000
0100
0000
0001
0000
0010
0000
1000
0000
0010
0000
,
0001
0000
1000
0000
0010
0000
1000
0000
0001
0000
0100
0000
,
0010
0000
0100
0000
0010
0000
0100
0000
0000
0000
0000
0000
,
1010
0000
1000
0010
0000
0010
0001
0000
0001
1000
0000
1000
,
0010
0000
0010
0100
0000
0100
0001
0000
0001
0100
0000
0100
,
1000
0000
1000
0001
0000
0001
0100
0000
0100
0010
0000
0010
,
1000
0000
1000
0001
0000
0001
0100
0000
0100
0010
0000
0010
,
0100
0000
0100
0001
0000
0001
1000
0000
1000
0010
0000
0010
,
1000
0000
1000
0001
0000
0001
0100
0000
0100
0001
0000
0001
,
0100
0000
0100
0010
0000
0010
0001
0000
0001
1000
0000
1000
,
2002
0000
0000
3003
,
0101
0000
0001
0100
0000
0100
0001
0000
0001
0100
0000
0100
,
0010
0000
0010
1000
0000
1000
0001
0000
0001
1000
0000
1000
,
0010
0000
0010
0001
0000
0001
0100
0000
0100
0010
0000
0010
,
1000
0000
1000
0100
0000
0100
0001
0000
0001
0100
0000
0100
,
1000
0001
1000
0001
1000
0100
0010
0001
0100
0001
0100
0001
,
0010
0100
1000
0100
0010
1000
0010
1000
0010
0100
0010
0100
,
0001
0100
0001
0000
0000
0000
0100
0010
0100
0000
0000
0000
1000
0010
1000
0000
0000
0000
1000
0001
1000
0000
0000
0000
,
1001
1000
0001
0100
,
0110
0000
0010
0100
0000
0100
0001
0000
0001
1000
0000
1000
,
0010
1000
0010
1000
0100
0010
0001
0100
0001
0100
0001
0100
,
0010
0000
1000
0001
0000
0001
1000
0000
1000
0010
0000
0010
,
1000
0001
1000
0001
1000
0100
0010
0001
0100
0001
0100
0010
,
0001
0000
1000
0001
0000
0001
0100
0000
0100
0001
0000
0001
,
0100
0001
0100
0001
0010
0100
1000
0001
0100
0010
0100
0010
,
0100
0000
1000
0010
0000
0010
0001
0000
0001
0100
0000
0100
,
0001
1000
0001
1000
0001
0100
0010
0100
0001
0100
0001
0100
,
0001
0100
0010
1000
,
0001
0000
0000
0000
0000
0000
1000
0000
0000
0000
0000
0000
0001
1000
0001
1000
0001
1000
0001
0000
1000
0000
0001
0000
,
1000
0000
0001
1000
0000
1000
0001
0000
0001
0100
0000
0100
,
0001
0100
0001
0100
0010
0001
1000
0001
1000
0100
0000
0000
,
0010
0100
0010
0100
0000
0000
1000
0000
0000
0001
0100
0001
,
0100
0000
0000
0000
0000
0000
0001
0000
0000
0000
0010
0000
1000
0000
0000
0010
1000
0010
1000
0000
0010
0000
1000
0000
,
0010
0000
0000
0000
1000
0000
0010
0000
1000
0000
0010
0000
1000
0000
0000
0000
0100
0001
0100
0000
0000
0000
1000
0000
,
0001
0100
0001
0100
0001
0010
0100
1000
0001
2000
0000
0000
,
3001
0000
0000
0000
;

//---------------dance-single - Destrier75----------------
#NOTES:
     dance-single:
     Destrier75:
     Medium:
     13:
     0.493,0.595,0.154,0.137,0.519:
0000
0000
0000
0000
,
0000
0000
0000
0000
,
0000
0000
0000
0000
,
0000
0000
0000
0000
,
0000
0000
0000
0000
,
1000
0001
1000
0001
0000
0000
0100
0010
0100
0010
0000
0000
,
1000
1010
0101
1010
,
2002
0000
3003
0000
,
1000
0000
0001
1000
0000
1000
0001
0000
0000
1000
0000
0000
,
1000
0000
0010
0001
0000
0000
1000
0000
0010
0100
0000
0000
,
0001
0000
0010
0100
0000
0000
0100
0000
0000
1001
0000
0000
,
1000
0000
0001
1000
0000
0000
0010
0000
1000
0010
0000
0000
,
0100
0000
0001
0100
0000
0000
0001
0000
0000
1001
0000
0000
,
1010
0000
0010
1000
0000
0000
0100
0000
0001
0100
0000
0000
,
0010
0000
1000
0010
0000
0000
0100
0000
0001
0100
0000
0000
,
1000
1001
0101
1010
,
1000
0000
0001
1000
0000
1000
0001
0000
0000
1000
0000
0000
,
1001
0000
0000
1000
0100
0010
0001
0000
0000
1000
0000
0000
,
0001
0000
0000
0001
0010
0100
1000
0000
0000
0100
0000
0000
,
0001
0000
0000
1000
0100
0010
0001
0000
0000
0100
0000
0000
,
0001
0010
0100
1000
0000
0000
0100
0000
0000
1000
0000
0000
,
1001
0000
0000
0001
0010
0100
1000
0000
0000
0010
0000
0000
,
1000
0000
0000
0001
0010
0100
1000
0000
0000
0100
0000
0000
,
0001
1000
0001
1000
0000
0000
0100
0010
0100
0010
0000
0000
,
1000
1001
1001
0000
,
1000
0000
0001
1000
0000
0000
0010
0000
1000
0010
0000
0000
,
0100
0000
0001
0100
0000
0000
0010
0000
0100
0010
0000
0000
,
1000
0000
0010
1000
0000
0000
1000
0000
0001
1000
0000
0000
,
0110
0110
0220
0330
,
0100
0000
0001
0100
0000
0000
1000
0000
0010
1000
0000
0000
,
0100
0000
0001
0100
0000
0000
0010
0000
1000
0010
0000
0000
,
0100
0001
0100
0001
0000
0000
1000
0010
1000
0010
0000
0000
,
1000
0001
1000
0001
1000
0001
2000
0000
0000
0001
0000
0000
,
3002
0000
0100
0000
,
2003
0000
0010
0000
,
3020
0000
0100
0000
,
0230
0000
0001
0000
,
0302
0000
1000
0000
,
2003
0000
0010
0000
,
3020
0000
0100
0000
,
0230
0000
0001
0000
,
0301
0000
1000
0010
0000
0000
1000
0000
0010
1000
0000
0000
,
0100
0000
0001
0100
0000
0000
0010
0000
0100
0010
0000
0000
,
0100
0000
0001
0100
0000
0000
0010
0000
1000
0010
0000
0000
,
0100
0000
0001
0100
0000
0000
0001
0000
1000
0001
0000
0000
,
0100
0000
0010
0100
0000
0000
0001
0000
1000
0001
0000
0000
,
0100
0000
0001
0100
0000
0000
1000
0000
0010
1000
0000
0000
,
1000
0000
0001
1000
0000
1000
0001
0000
0001
1000
0000
1000
,
0002
0000
0000
0000
2000
0000
0000
3003
,
1000
0000
0010
1000
0000
0000
0100
0000
0010
0100
0000
0000
,
0001
0000
0100
0001
0000
0000
0010
0000
1000
0010
0000
0000
,
0100
0000
0001
0100
0000
0000
0010
0000
0001
0010
0000
0000
,
1000
0000
0010
1000
0000
0000
0100
0000
0001
0100
0000
0000
,
1000
0001
1000
0001
0000
0000
0100
0000
0000
0010
0000
0000
,
0100
0010
0100
0010
0000
0000
0100
0000
0000
0010
0000
0000
,
1000
0001
1000
0001
1000
0001
1000
0001
1000
0001
1000
0001
,
2000
0000
0000
0000
0000
0000
0000
3000
,
1000
0000
0001
1000
0000
0000
0100
0000
0001
0100
0000
0000
,
0010
0000
1000
0010
0000
0000
0100
0000
0001
0100
0000
0000
,
0010
0000
0100
0010
0000
0000
0100
0000
0001
0100
0000
0000
,
0100
0000
0010
0100
0000
0000
1000
0000
0010
1000
0000
0000
,
0100
0000
0001
0100
0000
0000
0010
0000
0001
0010
0000
0000
,
1000
0000
0010
1000
0000
0000
0100
0000
0001
0100
0000
0000
,
0010
0000
0001
0010
0000
0000
1000
0000
0001
1000
0000
0000
,
0001
0000
1000
0001
0000
0001
1000
0001
1000
0001
0000
0000
,
1000
0010
1000
0001
,
0100
0000
0000
0010
0000
0000
0100
0010
0100
0010
0100
0010
,
0100
0000
0001
0100
0000
0000
1000
0000
0010
1000
0000
0000
,
0100
0000
0001
0100
0000
0000
0010
0000
1000
0010
0000
0000
,
0100
0000
0001
0100
0000
0000
0010
0000
0001
0010
0000
0000
,
1000
0000
0010
1000
0000
0000
0100
0000
0001
0100
0000
0000
,
0010
0000
0100
0010
0000
0000
1000
0000
0010
1000
0000
0000
,
0100
0000
0001
0100
0000
0000
0100
0000
0000
0010
0000
0000
,
0101
0000
0000
0000
;

//---------------dance-single - Destrier75----------------
#NOTES:
     dance-single:
     Destrier75:
     Easy:
     9:
     0.327,0.344,0.069,0.086,0.000: // measure 1
0000
0000
0000
0000
,  // measure 2
0000
0000
0000
0000
,  // measure 3
0000
0000
0000
0000
,  // measure 4
0000
0000
0000
0000
,  // measure 5
0000
0000
0000
0000
,  // measure 6
1000
0010
1000
0010
,  // measure 7
1000
0001
1000
0001
,  // measure 8
2002
0000
0000
3003
,  // measure 9
1000
0010
1000
0010
,  // measure 10
1000
0100
0010
0001
,  // measure 11
0010
0100
1000
0001
,  // measure 12
1000
0010
1000
0010
,  // measure 13
1000
0100
0010
0001
,  // measure 14
0100
0010
1000
0001
,  // measure 15
0100
0001
0100
0001
,  // measure 16
0010
0100
0010
1000
,  // measure 17
0001
1000
0001
1000
,  // measure 18
1001
1000
0100
0010
,  // measure 19
0001
1000
0001
1000
,  // measure 20
0001
0100
0010
0001
,  // measure 21
0100
0001
1000
0010
,  // measure 22
0100
0010
0001
0100
,  // measure 23
0001
1000
0010
1000
,  // measure 24
0010
0100
0001
0100
,  // measure 25
0010
0100
0001
0100
,  // measure 26
1001
1000
0001
0001
,  // measure 27
1000
1000
0010
0010
,  // measure 28
0100
0100
0001
0001
,  // measure 29
0100
0100
0001
0001
,  // measure 30
0100
0100
0010
0010
,  // measure 31
1000
1000
0100
0100
,  // measure 32
0001
0001
0010
0010
,  // measure 33
2020
0000
0000
3030
,  // measure 34
1000
0001
1000
0000
,  // measure 35
0100
0010
0100
0000
,  // measure 36
0100
0001
0100
0000
,  // measure 37
1000
0001
1000
0000
,  // measure 38
1000
0001
1000
0000
,  // measure 39
0100
0010
0100
0000
,  // measure 40
0001
0100
0001
0000
,  // measure 41
1000
0000
1000
0000
,  // measure 42
1000
1000
0001
0001
,  // measure 43
1000
1000
0001
0001
,  // measure 44
1000
1000
0001
0001
,  // measure 45
1000
1000
0001
0001
,  // measure 46
1000
0010
1000
0010
,  // measure 47
0001
0100
0001
0100
,  // measure 48
0010
0100
0010
0100
,  // measure 49
0220
0000
0000
0330
,  // measure 50
1000
1000
0001
0001
,  // measure 51
1000
1000
0001
0001
,  // measure 52
0100
0100
0010
0010
,  // measure 53
0100
0100
0010
0010
,  // measure 54
1000
1000
0001
0001
,  // measure 55
1000
1000
0001
0001
,  // measure 56
0220
0000
0000
0330
,  // measure 57
1000
0000
1000
0000
,  // measure 58
0001
1000
0001
0100
,  // measure 59
0001
0100
0010
0100
,  // measure 60
1000
0100
0010
0001
,  // measure 61
0100
0001
0100
0010
,  // measure 62
0001
0010
1000
0001
,  // measure 63
1000
0100
0010
0001
,  // measure 64
0100
0001
1000
0010
,  // measure 65
0100
0001
0100
0010
,  // measure 66
1000
0001
0100
0010
,  // measure 67
0100
0010
0220
0330
,  // measure 68
0001
1000
0001
0100
,  // measure 69
0010
0100
0010
0100
,  // measure 70
0001
0100
1000
0010
,  // measure 71
1000
0001
0100
0010
,  // measure 72
0100
0001
0100
0010
,  // measure 73
1000
0001
0100
0010
,  // measure 74
1001
0000
0000
0000
;

//---------------dance-single - Destrier75----------------
#NOTES:
     dance-single:
     Destrier75:
     Beginner:
     5:
     0.213,0.282,0.043,0.051,0.000:
0000
0000
0000
0000
,
0000
0000
0000
0000
,
0000
0000
0000
0000
,
0000
0000
0000
0000
,
0000
0000
0000
0000
,
1000
1000
1000
0000
,
0001
0001
0001
0000
,
2002
0000
0000
3003
,
0100
0000
0100
0000
,
0100
0000
0001
0000
,
0100
0000
0010
0000
,
0100
0000
1000
0000
,
0100
0000
0001
0000
,
0100
0000
0001
0000
,
0100
0000
0010
0000
,
0100
0000
0001
0000
,
1000
0000
1000
0000
,
1000
0000
0001
0000
,
1000
0000
0001
0000
,
1000
0000
0001
0000
,
1000
0000
0010
0000
,
1000
0000
0100
0000
,
1000
0000
0010
0000
,
1000
0000
0001
0000
,
2002
0000
0000
3003
,
1000
1000
1000
0000
,
0001
0001
0001
0000
,
0100
0100
0100
0000
,
0010
0010
0010
0000
,
0100
0100
0100
0000
,
0010
0010
0010
0000
,
1000
1000
1000
0000
,
0001
0001
0001
0000
,
1000
0000
0001
0000
,
1000
0000
0001
0000
,
1000
0000
0001
0000
,
1000
0000
0001
0000
,
0100
0000
0010
0000
,
0100
0000
0010
0000
,
0100
0000
0010
0000
,
0100
0000
0000
0000
,
0100
0000
0010
0000
,
0100
0000
0001
0000
,
0100
0000
0010
0000
,
0100
0000
1000
0000
,
0100
0000
0001
0000
,
0100
0000
0010
0000
,
0100
0000
0001
0000
,
0100
0000
0000
0000
,
0100
0100
0100
0000
,
0001
0001
0001
0000
,
1000
1000
1000
0000
,
0001
0001
0001
0000
,
1000
1000
1000
0000
,
0001
0001
0001
0000
,
1000
1000
1000
0000
,
1001
0000
0000
0000
,
0100
0100
0100
0000
,
0010
0010
0010
0000
,
1000
1000
1000
0000
,
0001
0001
0001
0000
,
0100
0100
0100
0000
,
0010
0010
0010
0000
,
0100
0100
0100
0000
,
0010
0010
0010
0000
,
1000
0000
1000
0000
,
1000
0000
0000
0000
2002
0000
0000
3003
,
1000
1000
1000
0000
,
0001
0001
0001
0000
,
0100
0100
0100
0000
,
0010
0010
0010
0000
,
0100
0100
0100
0000
,
0010
0010
0010
0000
,
1001
0000
0000
0000
;
