#TITLE:How Deep Is Your Love;
#SUBTITLE:;
#ARTIST:Calvin Harris & Disciples;
#TITLETRANSLIT:;
#SUBTITLETRANSLIT:;
#ARTISTTRANSLIT:;
#CREDIT:;
#BANNER:How Deep Is Your Love.png;
#BACKGROUND:How Deep Is Your Love-bg.png;
#LYRICSPATH:;
#CDTITLE:;
#MUSIC:How Deep Is Your Love.ogg;
#OFFSET:1.100;
#SAMPLESTART:56.140;
#SAMPLELENGTH:15.000;
#SELECTABLE:YES;
#BPMS:0.000=122.000;
#STOPS:;
#BGCHANGES:2.250=How Deep Is Your Love.avi=1.000=1=1=0,
99999=-nosongbg-=1.000=0=0=0 // don't automatically add -songbackground-
;

//---------------dance-single - Destrier75----------------
#NOTES:
     dance-single:
     Destrier75:
     Medium:
     7:
     0.275,0.293,0.055,0.109,0.000: // measure 1
0000
0000
0000
0000
,  // measure 2
0000
0000
0000
0000
,  // measure 3
0000
0000
0000
0000
,  // measure 4
0000
0000
0000
0000
,  // measure 5
0000
0000
0000
0000
,  // measure 6
0000
0000
0000
0000
,  // measure 7
1000
0010
1000
0000
0010
0000
0100
0000
,  // measure 8
0001
0000
1000
0000
0001
0100
0001
0000
,  // measure 9
0010
0100
0001
1000
,  // measure 10
0100
0000
0100
0000
0001
0100
0001
0000
,  // measure 11
0001
0100
1000
0010
,  // measure 12
0100
0000
0001
0000
1000
0001
1000
0000
,  // measure 13
0100
0010
0001
1000
,  // measure 14
1001
0000
0000
0000
,  // measure 15
1000
0001
1000
0000
0100
0000
0010
0000
,  // measure 16
1000
0010
1000
0000
0100
0000
0001
0000
,  // measure 17
0100
0001
0100
0000
0010
0000
0100
0000
,  // measure 18
1000
0002
2003
3002
,  // measure 19
1003
0010
1000
0000
0100
0000
0001
0000
,  // measure 20
0100
0001
0100
0000
0010
0000
1000
0000
,  // measure 21
0100
0010
0100
0000
0001
0000
0100
0000
,  // measure 22
0001
1000
0001
0000
0100
0000
0010
0000
,  // measure 23
1001
0000
1000
0010
1000
0000
0010
0000
,  // measure 24
0100
0000
0001
1000
0001
0000
0100
0000
,  // measure 25
0010
0000
1000
0010
1000
0000
0100
0000
,  // measure 26
0001
0000
0100
0001
0100
0000
0010
0000
,  // measure 27
0100
0000
0010
0100
0010
0000
1000
0000
,  // measure 28
0001
0000
0100
0001
0100
0000
0010
0000
,  // measure 29
1000
0000
0100
0001
0100
0000
0010
0000
,  // measure 30
1000
2000
3002
2003
,  // measure 31
3001
0000
0100
0000
0001
1000
0001
0000
,  // measure 32
1000
0000
0001
0000
0100
0010
0100
0000
,  // measure 33
0001
0000
1000
0000
0100
0001
0100
0000
,  // measure 34
0010
2000
3002
2003
,  // measure 35
3001
0000
0001
0000
1000
0010
1000
0000
,  // measure 36
0100
0000
0010
0000
0100
0001
0100
0000
,  // measure 37
0001
0000
1000
0000
1000
0001
1000
0000
,  // measure 38
0001
2000
3020
2030
,  // measure 39
3010
0000
1000
0010
1000
0000
0100
0010
,  // measure 40
0100
0000
0001
0100
0001
0000
0001
0000
,  // measure 41
1001
0000
1000
0010
1000
0000
0100
0010
,  // measure 42
0100
0000
0001
0100
0001
0000
1000
0000
,  // measure 43
1001
0000
0001
0100
0001
0000
0010
0100
,  // measure 44
0010
0000
1000
0010
1000
0000
0010
0000
,  // measure 45
0110
0000
0001
0100
0001
0000
1000
0010
,  // measure 46
1000
0000
0001
0100
0001
0000
1000
0000
,  // measure 47
1001
0000
0000
0000
;

//---------------dance-single - Destrier75----------------
#NOTES:
     dance-single:
     Destrier75:
     Easy:
     5:
     0.247,0.319,0.027,0.073,0.000:
0000
0000
0000
0000
,
0000
0000
0000
0000
,
0000
0000
0000
0000
,
0000
0000
0000
0000
,
0000
0000
0000
0000
,
0000
0000
0000
0000
,
1000
0010
1000
0010
,
0100
0001
0100
0001
,
1000
0010
1000
0010
,
0100
0001
0100
0001
,
0100
0010
0100
0010
,
0100
1000
0100
1000
,
0100
0001
0100
0001
,
0101
0000
0000
0000
,
1000
0001
1000
0001
,
1000
0010
1000
0010
,
1000
0001
0100
0001
,
0100
0010
0100
0010
,
0100
1000
0100
1000
,
0100
0001
0100
0001
,
0100
0001
0100
0010
,
0100
0010
0100
0010
,
0210
0000
0010
0000
,
0010
0000
0010
0000
,
0302
1000
0000
1000
,
0000
1000
0000
1003
,
2000
0010
3020
0100
,
0230
0001
0302
1000
,
2003
0010
3020
0100
,
0130
0000
0000
0000
,
1000
0001
1000
0001
,
1000
0100
1000
0100
,
0001
0100
0001
0100
,
0010
1000
0010
1000
,
0100
0010
0100
0010
,
0100
0001
0100
0001
,
0010
1000
0010
1000
,
0100
0001
0100
0001
,
1000
0010
1000
0010
,
0100
0001
0100
0001
,
0010
1000
0010
1000
,
0100
0010
0100
0010
,
0000
0100
0001
0100
,
1000
0100
1000
0100
,
0001
0100
0001
0100
,
0001
1000
0001
1000
,
0100
0010
0100
0010
,
0100
0001
0100
0001
,
1000
0010
1000
0010
,
0100
0001
0100
0001
,
1000
0010
1000
0010
,
0100
0010
0100
0010
,
0001
0100
0001
0100
,
1000
0010
1000
0010
,
1001
0000
0000
0000
;

//---------------dance-single - Destrier75----------------
#NOTES:
     dance-single:
     Destrier75:
     Hard:
     11:
     0.425,0.417,0.136,0.082,0.118:
0000
0000
0000
0000
,
0000
0000
0000
0000
,
0000
0000
0000
0000
,
0000
0000
0000
0000
,
0000
0000
0000
0000
,
0000
0000
0000
0000
,
0100
0001
0100
0010
0100
0001
0100
0000
,
0010
0000
1000
0000
0100
0001
0100
0000
,
0010
0100
0001
0100
0010
0001
0100
0000
,
0001
0000
1000
0000
0100
0010
0100
0000
,
0001
0100
0001
0010
0100
0001
0100
0000
,
0001
0000
1000
0000
0100
0010
0100
0000
,
0001
0100
0001
0100
0010
0001
0100
0000
,
1000
0002
2003
3002
,
1003
0001
1000
0001
1000
0000
0100
0000
,
0010
0100
0010
0100
0010
0000
0100
0000
,
1000
0010
1000
0010
1000
0000
0001
0000
,
0100
0010
0100
0010
0100
0000
0001
0000
,
1000
0001
1000
0001
1000
0000
0100
0000
,
0010
0100
0010
0100
0010
0000
0100
0000
,
0001
0100
0001
0100
0001
0000
1000
0000
,
0001
1000
0001
1000
0001
0000
0100
0000
,
0110
0000
0010
0000
0100
0000
0000
0001
0000
0000
0100
0000
0000
0000
0001
0000
,
0100
0000
0100
0000
0100
0000
0000
0100
0000
0000
0100
0000
0100
0000
0010
0000
,
0001
0000
0001
0000
0001
0000
0000
0001
0000
0000
0001
0000
0000
0000
0100
0000
,
0010
0000
1000
0000
1000
0000
0000
1000
0000
0000
0010
0000
1000
0000
0010
0000
,
0010
0000
0100
0000
0100
0000
0000
0100
0000
0000
0100
0000
0100
0000
0010
0000
,
0001
0000
1000
0000
1000
0000
0000
1000
0000
0000
1000
0000
1000
0000
0100
0000
,
0010
0000
0010
0000
0100
0000
0000
1000
0000
0000
0001
0000
0001
0000
0000
0000
,
1001
1001
1000
0101
,
1010
1000
0010
0100
0001
0100
0002
0000
,
0100
0000
0103
0010
0100
0010
0200
0000
,
0010
0000
0310
0010
0001
0010
0002
0000
,
1000
0000
0000
0000
1003
0000
0000
0000
1010
0000
0000
0001
1000
0000
0000
0000
,
1001
0000
0000
1000
0010
1000
0020
0000
,
1000
0000
1030
1000
0001
1000
0002
0000
,
0100
0000
0103
0010
0100
0010
0200
0000
,
0010
0000
0000
0000
0310
0000
0000
0000
0010
0000
0000
0100
0010
0000
0000
0000
,
0110
0000
1000
0000
0001
0000
1000
0001
0000
1000
0000
0010
0000
1000
0000
0001
,
0000
0100
0000
0010
0000
0100
0000
0001
0000
0000
1000
0000
0000
0000
0000
0000
,
1001
0100
0001
1000
0001
0100
0010
1000
,
0001
0100
0010
1000
0001
0000
0001
0000
,
1001
1000
0010
1000
0001
0100
0010
1000
,
0001
0100
0001
0100
0101
0000
0100
0000
,
0010
1000
0001
0100
0010
0001
0100
0001
,
0100
0001
0100
0001
0101
0000
0001
0000
,
1001
0000
0001
0000
1000
0000
0000
0010
0000
0000
1000
0000
0010
0000
1000
0000
,
0010
0000
0100
0000
0010
0000
0000
0100
0000
0000
0010
0000
0100
0000
0010
0000
,
0100
0000
0001
0000
0100
0000
0000
0001
0000
0000
0100
0000
0010
0000
0100
0000
,
0010
0000
0100
0000
0010
0000
0000
0100
0000
0000
0010
0000
0100
0000
0000
0000
,
0101
0000
0001
0000
1000
0000
0000
0001
0000
0000
1000
0000
0010
0000
1000
0000
,
0010
0000
0100
0000
0010
0000
0000
0100
0000
0000
0010
0000
0100
0000
0001
0000
,
0100
0000
0001
0000
0100
0000
0000
0001
0000
0000
0100
0000
0001
0000
0100
0000
,
0001
0000
0100
0000
0010
0000
0000
0100
0000
0000
0010
0000
1000
0000
0010
0000
,
1010
0000
0000
0000
;

//---------------dance-single - Destrier75----------------
#NOTES:
     dance-single:
     Destrier75:
     Beginner:
     2:
     0.139,0.196,0.009,0.000,0.000:
0000
0000
0000
0000
,
0000
0000
0000
0000
,
0000
0000
0000
0000
,
0000
0000
0000
0000
,
0000
0000
0000
0000
,
0000
0000
0000
0000
,
1000
0000
1000
0000
,
1000
0000
1000
0000
,
0001
0000
0001
0000
,
0001
0000
0001
0000
,
0100
0000
0100
0000
,
0100
0000
0100
0000
,
0010
0000
0010
0000
,
0010
0000
0000
0000
,
1000
1000
1000
0000
,
0001
0001
0001
0000
,
1000
1000
1000
0000
,
0010
0010
0010
0000
,
0100
0100
0100
0000
,
0001
0001
0001
0000
,
1000
1000
1000
0000
,
0001
0001
0001
0001
,
1000
0000
0001
0000
,
1000
0000
0010
0000
,
1000
0000
0001
0000
,
1000
0000
0010
0000
,
1000
0000
0001
0000
,
1000
0000
0010
0000
,
1000
0000
0001
0000
,
1000
0000
0000
0000
,
1001
0000
1000
1000
,
1000
0000
0001
0001
,
0001
0000
0100
0100
,
0100
0000
0010
0010
,
0010
0000
0100
0100
,
0100
0000
0010
0010
,
0010
0000
1000
1000
,
1000
0000
0001
0001
,
0001
0000
0100
0000
,
0001
0000
0010
0000
,
1000
0000
0100
0000
,
0001
0000
0010
0000
,
0100
0000
0000
0000
,
0100
0000
0000
0000
,
0001
0000
0000
0000
,
1000
0000
0000
0000
,
0001
0000
0000
0000
,
0100
0000
0000
0000
,
1000
0000
0001
0000
,
1000
0000
0001
0000
,
1000
0000
0010
0000
,
1000
0000
0001
0000
,
1000
0000
0100
0000
,
1000
0000
0010
0000
,
1000
0000
0000
0000
;
