#TITLE:Here In The Moment;
#SUBTITLE:;
#ARTIST:Ruby Tuesday;
#TITLETRANSLIT:;
#SUBTITLETRANSLIT:;
#ARTISTTRANSLIT:;
#CREDIT:;
#BANNER:Here In The Moment.png;
#BACKGROUND:Here In The Moment-bg.png;
#LYRICSPATH:;
#CDTITLE:;
#MUSIC:Here In The Moment.ogg;
#OFFSET:0.340;
#SAMPLESTART:66.880;
#SAMPLELENGTH:15.000;
#SELECTABLE:YES;
#BPMS:0.000=115.000;
#STOPS:;
#BGCHANGES:0.625=Here In The Moment.avi=1.000=1=1=0,
99999=-nosongbg-=1.000=0=0=0 // don't automatically add -songbackground-
;

//---------------dance-single - Destrier75----------------
#NOTES:
     dance-single:
     Destrier75:
     Hard:
     12:
     0.441,0.434,0.218,0.275,0.218: // measure 1
0000
0000
0000
0000
,  // measure 2
0000
0000
0000
0000
,  // measure 3
0000
0000
2001
0000
0000
0000
3001
1000
,  // measure 4
0001
1000
1002
0000
0000
0000
0103
0001
,  // measure 5
0100
0001
0200
0000
0302
0000
2003
0000
,  // measure 6
3020
0000
1030
0001
1000
0010
1000
0000
,  // measure 7
1010
0000
1000
0001
1000
0100
1000
0000
,  // measure 8
0110
0000
1000
0100
1000
0010
1000
0000
,  // measure 9
1100
0000
0000
0010
1000
0010
1000
0010
1000
0010
0000
0000
,  // measure 10
0010
0000
0000
0000
1000
0000
0001
0000
1000
0000
0001
0100
0000
0000
0001
0000
,  // measure 11
1000
0000
0010
0000
1000
0000
0010
0000
1000
0000
0010
1000
0000
0000
0100
0000
,  // measure 12
0010
0000
0001
0000
1000
0000
0010
0000
0100
0000
0001
0100
0000
0000
0001
0000
,  // measure 13
1000
0000
0001
0000
0100
0000
0010
0100
0000
0001
0000
0010
0000
0001
0000
0100
,  // measure 14
0010
0000
0100
0000
0001
0000
1000
0010
0000
1000
0000
0010
0000
0001
0000
0010
,  // measure 15
1000
0000
0001
0000
1001
0000
0000
0010
0000
0000
1000
0000
0000
0001
0000
0000
,  // measure 16
1000
0000
0001
0000
1001
0000
0000
0010
0000
0000
1000
0000
1000
0000
0100
0000
,  // measure 17
0010
0001
2001
0000
0001
0000
3002
0000
,  // measure 18
0100
0203
0010
0320
,  // measure 19
1000
0000
1030
0010
1000
0010
1000
0010
,  // measure 20
1000
0000
0010
0001
0010
0100
1000
0001
,  // measure 21
0010
1000
0001
0100
0001
0100
0001
0000
,  // measure 22
0010
0000
1000
0010
1000
0010
1000
0000
,  // measure 23
0010
0000
0100
0010
0100
0010
0100
0000
,  // measure 24
0010
0000
0000
0000
0100
0000
0000
0100
0000
0000
1000
0000
0001
0000
1000
0000
,  // measure 25
0010
0001
2001
0000
0010
0000
3020
0000
,  // measure 26
0001
0032
1000
2003
,  // measure 27
0010
3020
0100
0230
,  // measure 28
0001
0000
0301
1000
0010
1000
0001
1000
,  // measure 29
0001
0100
0120
0000
1000
0000
2030
0000
,  // measure 30
0001
3002
0100
0203
,  // measure 31
0010
0000
0000
0320
0000
0000
0001
0000
0000
0031
1000
0001
,  // measure 32
1000
0001
1000
0002
0000
0000
0000
0000
0000
2000
0000
0000
,  // measure 33
3003
0000
0000
0000
1000
0000
0010
0000
1000
0000
0001
0000
1000
0000
0000
1010
,  // measure 34
0000
0000
1001
0000
0001
0000
0100
0000
0001
0000
0010
0000
0001
0000
0000
0101
,  // measure 35
0000
0000
1001
0000
1000
0000
0010
0000
1000
0000
0001
0000
1000
0000
0000
1010
,  // measure 36
0000
0000
1001
0000
0001
0000
0100
0000
0001
0000
0010
0000
0001
0000
0000
0101
,  // measure 37
0000
0000
1001
0000
1000
0000
0010
1000
0010
0000
0100
0000
0001
0000
0100
0010
,  // measure 38
0100
0000
0001
0000
1000
0000
0000
0001
0000
0000
1000
0000
0010
0000
0001
0000
,  // measure 39
0010
1000
0001
1000
0002
0000
0000
0000
0100
0000
0000
0000
0203
0000
0000
0000
,  // measure 40
0010
0320
1000
2030
,  // measure 41
0001
0000
0000
0000
3001
0000
1000
0000
0010
0000
0000
0010
0000
1000
0000
0010
,  // measure 42
1000
0000
0000
0000
0101
0000
0100
0000
1000
0000
0000
0010
0000
1000
0000
0010
,  // measure 43
0100
0000
0000
0000
1001
0000
1000
0000
0001
0000
0000
1000
0000
0001
0000
1000
,  // measure 44
0001
0000
0000
0000
1010
0000
0100
0000
0010
0000
0000
0100
0000
0001
0000
0100
,  // measure 45
0001
0000
1000
0010
1000
0001
1000
0010
,  // measure 46
1000
0010
1010
0000
0000
0000
0000
0000
,  // measure 47
0000
2002
0000
0000
,  // measure 48
0000
0000
0000
0000
,  // measure 49
0000
3003
0000
0000
;

//---------------dance-single - Destrier75----------------
#NOTES:
     dance-single:
     Destrier75:
     Medium:
     8:
     0.284,0.366,0.066,0.161,0.000:
0000
0000
0000
0000
,
0000
0000
0000
0000
,
0000
2000
0000
0001
,
0000
3002
0000
0100
,
0000
0203
0000
0010
,
0000
0000
1300
0001
1000
0000
0010
0000
,
0100
0000
0010
0100
0010
0000
1000
0000
,
0010
0000
1000
0001
1000
0000
0010
0000
,
0100
0000
1000
0001
1000
0001
1000
0000
,
0000
0000
1000
0010
1000
0010
1000
0000
,
0000
0000
0100
0001
0100
0001
0100
0000
,
0000
0000
0100
0010
0100
0010
0100
0000
,
0000
0000
1000
0010
1000
0000
0100
0000
,
0010
0000
0100
0001
0100
0000
0001
0000
,
0100
0000
1000
0001
1000
0001
1000
0000
,
0010
0000
0100
0010
0100
0010
0100
0000
,
0010
2000
0000
3002
,
0000
2003
0000
3002
,
0000
0000
1003
0001
1000
0000
0100
0001
,
0100
0000
0010
1000
0010
0000
1000
0000
,
1010
0000
0100
0010
0100
0010
0100
0000
,
0010
0000
0100
0001
0100
0001
0100
0000
,
0001
0000
1000
0001
1000
0001
1000
0000
,
0001
0000
0100
0001
0100
0001
0100
0000
,
0010
2000
0000
0000
,
0000
3002
0000
0000
,
0000
0203
0000
0000
,
0000
0320
0000
0000
,
0000
2030
0000
0000
,
0000
3002
0000
0000
,
0000
2003
0000
0000
,
0000
0002
0000
0000
,
3003
0000
1000
0010
1000
0010
1000
0000
,
1010
0000
0100
0001
0100
0001
0100
0000
,
0101
0000
1000
0001
1000
0001
1000
0000
,
1001
0000
0001
0100
0001
0100
0001
0000
,
0101
0000
1000
0010
1000
0000
0100
0010
,
0100
0000
1000
0010
1000
0010
1000
0000
,
0010
0000
0100
0001
0100
0000
1000
0001
,
1000
0000
0100
0001
0100
0001
0100
0000
,
0010
0000
1000
0010
1000
0000
0100
0000
,
0010
0000
0100
0001
0100
0000
0010
0000
,
1000
0000
0100
0001
0100
0000
0010
0000
,
1000
0000
1000
0001
1000
0000
0001
0000
,
0100
0000
0001
1000
0001
0000
1000
0001
,
1000
1001
0000
0000
,
0000
0220
0000
0000
,
0000
0000
0000
0000
,
0000
0330
0000
0000
;

//---------------dance-single - Destrier75----------------
#NOTES:
     dance-single:
     Destrier75:
     Easy:
     5:
     0.221,0.274,0.104,0.189,0.000:
0000
0000
0000
0000
,
0000
0000
0000
0000
,
0000
2002
0000
0000
,
3003
0220
0000
0000
,
0330
2002
0000
0000
,
3003
1000
1000
1000
,
1000
0001
0001
0001
,
0001
0100
0100
0100
,
0100
0220
0000
0000
,
0330
1000
0001
1000
,
0001
0100
0001
0100
,
0001
1000
0010
1000
,
0010
1000
1000
0010
,
0010
0001
0001
1000
,
1000
1000
1000
1000
,
1000
0001
0001
0001
,
0001
2000
0000
0000
,
0000
3002
0000
0000
,
0000
1003
1000
1000
,
1000
0001
0001
0001
,
0001
0100
0010
0100
,
0010
1000
0010
1000
,
0010
0100
0001
0100
,
0001
1000
0001
1000
,
0001
2000
0000
0000
,
0000
3002
0000
0000
,
0000
2003
0000
0000
,
0000
3002
0000
0000
,
0000
0203
0000
0000
,
0000
0320
0000
0000
,
0000
0230
0000
0000
,
0000
0320
0000
0000
,
0000
1030
0001
1000
,
0001
0100
0001
0100
,
0001
0010
1000
0010
,
1000
0100
0001
0100
,
0001
0010
1000
0010
,
1000
0100
0001
0100
,
0001
0010
1000
0010
,
1000
0100
0010
0100
,
0010
1000
0001
1000
,
1001
0100
0010
0100
,
0110
1000
0010
1000
,
1010
0001
0100
0001
,
0101
1000
1001
0001
,
0101
0001
0000
0000
,
0000
0220
0000
0000
,
0000
0000
0000
0000
,
0000
0330
0000
0000
;

//---------------dance-single - Destrier75----------------
#NOTES:
     dance-single:
     Destrier75:
     Beginner:
     2:
     0.157,0.131,0.076,0.000,0.000:
0000
0000
0000
0000
,
0000
0000
0000
0000
,
0000
1001
0000
0000
,
0000
0110
0000
0000
,
0000
1001
0000
0000
,
0000
1000
0000
1000
,
0000
0010
0000
0010
,
0000
0100
0000
0100
,
0000
0001
0001
0001
,
0000
1000
1000
1000
,
0000
0001
0001
0001
,
0000
1000
1000
1000
,
0000
0001
0000
0001
,
0000
1000
0000
1000
,
0000
0001
0001
0001
,
0000
1000
1000
1000
,
0000
1000
0000
1000
,
0000
0001
0000
0001
,
0000
1000
1000
1000
,
0000
0001
0001
0001
,
0000
1000
1000
1000
,
0000
0001
0001
0001
,
0000
0100
0100
0100
,
0000
0010
0010
0010
,
0000
0100
0000
0100
,
0000
0010
0000
0010
,
0000
1000
0000
1000
,
0000
0001
0000
0001
,
0000
1000
0000
1000
,
0000
0001
0000
0001
,
0000
1000
0000
1000
,
0000
1001
0000
0000
,
0000
0100
0100
0100
,
0000
0010
0010
0010
,
0000
1000
1000
1000
,
0000
0001
0001
0001
,
0000
0100
0100
0100
,
0000
0010
0010
0010
,
0000
1000
1000
1000
,
0000
0001
0001
0001
,
0000
0100
0100
0100
,
0000
0001
0001
0001
,
0000
1000
1000
1000
,
0000
0001
0001
0001
,
0000
1001
0000
1001
,
0000
1001
0000
0000
,
0000
1001
0000
0000
;
