#TITLE:拝啓、金魚鉢の底から。;
#SUBTITLE:;
#ARTIST:TAKU1175 feat.駄々子&電兎;
#TITLETRANSLIT:Haikei, Kingyobachi no sokokara;
#SUBTITLETRANSLIT:;
#ARTISTTRANSLIT:TAKU1175 feat.Dadaco&Dento;
#CREDIT:;
#BANNER:Haikei, Kingyobachi no sokokara.png;
#BACKGROUND:Haikei, Kingyobachi no sokokara-bg.png;
#LYRICSPATH:;
#CDTITLE:;
#MUSIC:Haikei, Kingyobachi no sokokara.ogg;
#OFFSET:0.280;
#SAMPLESTART:53.960;
#SAMPLELENGTH:15.000;
#SELECTABLE:YES;
#BPMS:0.000=215.000;
#STOPS:;
#BGCHANGES:;

//---------------dance-single - Destrier75----------------
#NOTES:
     dance-single:
     Destrier75:
     Beginner:
     5:
     0.127,0.220,0.129,0.057,0.000:
0000
0000
0000
0000
,
0000
0000
0000
0000
,
0000
0000
0000
0000
,
0000
0000
0000
0000
,
0000
0000
0100
0000
,
0000
0000
0100
0000
,
0000
0000
0100
0000
,
0000
0000
0110
0000
,
0000
0000
0010
0000
,
0000
0000
0010
0000
,
0000
0000
0110
0000
,
0000
0000
0110
0000
,
0000
0000
0001
0000
,
0000
0000
0001
0000
,
0000
0000
0001
0000
,
0000
0000
0001
0000
,
0000
0000
2000
0000
,
0000
0000
0000
0000
,
0000
0000
0000
0000
,
0000
0000
0000
0000
,
0000
0000
3002
0000
,
0000
0000
0000
0000
,
0000
0000
0000
0000
,
0000
0000
0000
0000
,
0000
0003
1001
0000
,
0000
0000
1000
0000
,
0000
0000
1000
0000
,
0000
0000
1000
0000
,
0000
0000
0001
0000
,
0000
0000
0001
0000
,
0000
0000
0001
0000
,
0000
0000
1001
0000
,
0000
0000
2002
0000
,
0000
0000
0000
0000
,
0000
0000
0000
0000
,
0000
0000
0000
0000
,
0000
3003
0220
0000
,
0000
0000
0000
0000
,
0000
0000
0000
0000
,
0000
0000
0330
0000
,
0000
0000
1000
0000
,
0000
0000
1000
0000
,
0000
0000
0001
0000
,
0000
0000
0001
0000
,
0000
0000
0100
0000
,
0000
0000
0100
0000
,
0000
0000
0010
0000
,
0000
0000
0010
0000
,
0000
0000
0110
0000
,
0000
0000
1000
0000
,
1000
0000
1000
0000
,
0000
0000
0001
0000
,
0001
0000
0001
0000
,
0000
0000
0100
0000
,
0100
0000
0100
0000
,
0000
0000
0010
0000
,
0010
0000
0010
0000
,
0000
0000
0001
0000
,
0001
0000
0001
0000
,
0000
0000
1000
0000
,
1000
0000
1000
0000
,
0000
0000
0001
0000
,
0001
0000
1001
0000
,
0000
0000
0000
0000
,
0000
0000
0000
0000
,
0000
0000
0000
0000
,
0000
0000
0000
0000
,
0000
0000
0000
0000
,
0000
0000
0000
0000
,
0000
0000
0000
0000
,
0000
0000
0000
0000
,
0000
0000
0000
0000
,
0000
0000
0000
0000
,
0000
0000
0000
0000
,
0000
0000
0000
0000
,
0000
0000
0000
0000
,
0000
0000
0000
0000
,
0000
0000
0000
0000
,
0000
0000
0000
0000
,
0000
0000
0000
0000
,
0000
0000
1000
0000
,
0000
0000
0000
0000
,
0000
0000
0001
0000
,
0000
0000
0000
0000
,
0000
0000
1000
0000
,
0000
0000
0000
0000
,
0000
0000
0001
0000
,
0000
0000
2002
0000
,
3003
0000
1000
0000
,
1000
0000
1000
0000
,
0000
0000
0001
0000
,
0001
0000
0001
0000
,
0000
0000
1000
0000
,
1000
0000
1000
0000
,
0000
0000
0001
0000
,
0001
0000
0001
0000
,
0000
0000
0100
0000
,
0100
0000
0100
0000
,
0000
0000
0010
0000
,
0010
0000
0010
0000
,
0000
0000
0100
0000
,
0100
0000
0110
0000
,
0000
0000
0000
0000
,
0000
0000
0000
0000
,
0000
0000
0000
0000
,
0001
0000
0000
0000
,
0001
0000
0000
0000
,
0001
0000
0000
0000
,
0001
0000
0000
0000
,
1000
0000
0000
0000
,
1000
0000
0000
0000
,
1000
0000
0000
0000
,
1001
0000
0000
0000
,
0100
0000
0000
0000
,
0100
0000
0000
0000
,
0110
0000
0000
0000
,
0110
0000
0000
0000
,
0001
0000
0000
0000
,
0001
0000
0000
0000
,
1001
0000
0000
0000
,
1001
0000
0000
0000
,
1001
0000
0000
0000
,
0000
0000
0000
0000
,
0110
0000
0000
0000
;

//---------------dance-single - Destrier75----------------
#NOTES:
     dance-single:
     Destrier75:
     Easy:
     9:
     0.312,0.395,0.214,0.150,0.000:
0000
0000
0000
0000
,
0000
0000
0000
0000
,
0000
0000
0000
0000
,
0000
0000
0000
0000
,
0000
0000
1000
0000
,
0001
0000
1000
0000
,
0001
0000
1000
0000
,
0001
0000
2002
0000
,
0000
3003
1000
0000
,
0001
0000
1000
0000
,
0001
0000
1001
0000
,
1001
0000
1001
0000
,
1001
0000
0001
0000
,
0100
0000
0001
0000
,
0100
0000
0101
0000
,
0101
0000
0101
0000
,
0101
0000
2001
0000
,
0000
0000
0000
0000
,
0000
0000
3002
0000
,
0000
0000
0000
0000
,
0000
0000
2003
0000
,
0000
0000
0000
0000
,
0000
0000
3002
0000
,
0000
0000
0000
0000
,
1000
1000
1003
0000
,
0000
0100
0000
0010
,
0000
0100
0000
0010
,
0000
0100
0000
0010
,
0000
0100
0000
0010
,
0000
0100
0000
0010
,
0000
0100
0110
0000
,
0110
0000
0110
0000
,
0110
0000
0200
0000
,
0000
0000
0302
0000
,
0000
0000
2003
0000
,
0000
0000
0010
0000
,
0010
0000
3020
0000
,
0000
0000
0032
0000
,
0000
0000
1003
0001
,
1000
0001
1000
0001
,
1000
0001
1000
0010
,
1000
0010
1000
0000
,
0010
0000
0100
0001
,
0100
0001
0100
0000
,
0010
0000
1000
0010
,
1000
0010
1000
0000
,
0010
0000
1000
0100
,
0010
0001
0010
0100
,
1000
0100
0010
0000
,
0110
0000
1000
0001
,
1000
0001
1000
0000
,
0010
0000
0100
0010
,
0100
0010
0100
0000
,
0001
0000
0100
0001
,
0100
0001
0100
0000
,
0010
0000
1000
0010
,
1000
0010
1000
0000
,
0001
0000
1000
0001
,
1000
0001
1000
0000
,
0010
0000
1000
0010
,
1000
0010
1000
0000
,
0001
0000
1000
0001
,
1000
0001
1001
0000
,
0000
0000
0000
1000
,
0001
1000
0000
0100
,
0010
0100
0000
0001
,
0100
0001
0000
1000
,
0010
1000
0000
0100
,
0001
0100
0000
1000
,
0001
1000
0000
0001
,
0100
0001
0000
1000
,
0001
1000
0000
1000
,
0001
1000
0001
1000
,
0010
1000
0010
1000
,
0001
1000
0001
1000
,
0010
1000
0001
1000
,
0001
1000
0001
1000
,
0001
1000
2002
0000
,
0000
0000
0000
0000
,
0000
0000
3003
0000
,
0000
0000
2000
0000
,
0000
0000
0000
0000
,
0000
0000
3002
0000
,
0000
0000
0000
0000
,
0000
0000
0203
0000
,
0000
0000
0000
0000
,
0000
0000
0320
0000
,
0000
0030
0110
0000
,
0110
0000
1000
0001
,
1000
0001
1000
0000
,
0010
0000
1000
0010
,
1000
0010
1000
0000
,
0010
0000
0001
0100
,
0001
0100
0001
0000
,
1000
0000
0010
1000
,
0010
1000
0010
0000
,
0001
0000
1000
0001
,
1000
0001
1000
0000
,
0100
0000
0001
0100
,
0001
0100
0001
0000
,
1000
0000
0001
1000
,
0001
1000
1001
0000
,
0000
0010
0000
0010
,
0000
0010
0000
0010
,
0000
0010
0000
0000
,
1000
0000
0001
0000
,
1000
0000
0001
0000
,
1001
0000
0000
0000
,
1001
0000
0000
0000
,
1000
0000
0010
0000
,
1000
0000
0010
0000
,
1010
0000
0000
0000
,
2020
0000
0000
3030
,
1000
0000
0001
0000
,
1000
0000
0001
0000
,
1001
0000
0000
0000
,
1001
0000
0000
0000
,
0001
0000
0100
0000
,
0001
0000
0100
0000
,
0101
0000
0000
0000
,
0101
0000
0000
0000
,
2002
0000
0000
0000
,
0000
0000
0000
3003
,
1001
0000
0000
0000
;

//---------------dance-single - Destrier75----------------
#NOTES:
     dance-single:
     Destrier75:
     Medium:
     13:
     0.544,0.615,0.193,0.343,0.129:
0000
0000
0000
0000
,
0000
0000
0000
0000
,
0000
0000
0000
0000
,
0000
0000
0000
0000
,
0000
0000
1000
0001
,
0010
1000
0010
1000
,
0001
0100
2000
0000
,
3002
0000
0000
0000
0000
0000
0103
0000
0010
0000
0100
0000
,
0010
0000
0100
0000
0010
0000
0100
0000
0000
0001
0000
0000
,
1000
0001
1000
0010
,
1000
0000
0000
0001
0000
0000
1000
0000
0010
0000
0000
0000
,
1000
0000
0000
0100
0000
0000
0010
0000
0000
0000
0000
0000
0001
0000
0000
0000
0100
0000
0000
0000
0000
0000
0000
0000
,
0001
0010
0100
0000
1000
0000
0001
0000
,
1000
0010
0100
0001
,
1000
0000
0000
0001
0000
0000
1000
0000
0001
0000
0000
0000
,
1000
0000
0000
0010
0000
0000
0001
0000
0000
0000
0000
0000
0001
0000
0000
0000
1000
0000
0000
0000
0000
0000
0000
0000
,
0001
0010
0100
0000
2001
0000
0000
0000
,
0001
0000
0001
0000
,
0001
0000
3002
0100
,
0000
0100
0000
0100
,
0000
0100
0203
0001
,
0000
0001
0000
0001
,
0000
0001
0320
1000
,
0000
1000
0000
1030
,
0000
0000
1000
0001
0000
0000
1001
0000
0000
1000
0000
0000
,
0001
1000
0010
1000
,
0100
0000
0000
1000
0000
0000
0100
0000
0000
0010
0000
0100
,
0001
0010
0100
1000
,
0001
1000
0001
0100
,
0001
1000
0010
1000
,
0001
0000
0100
0001
0000
0000
1000
0000
0001
1000
0000
0001
,
0000
0000
0001
1000
0000
0001
1000
0000
0000
0001
0000
0000
,
0010
0100
1000
0100
,
0010
0001
1001
0000
,
1010
0000
1001
0000
,
1100
0000
0100
1000
,
0001
1000
0010
0001
,
0010
0100
1000
0100
,
0001
1000
1001
0000
,
1010
0000
0110
0000
,
1001
0000
1000
0100
,
0010
0001
1001
1000
,
0010
0001
0001
0010
,
0100
1000
1001
0001
,
0100
1000
1000
0100
,
0010
0001
1001
1000
,
0001
0000
0000
1000
0000
0000
0001
0000
0000
0010
0000
0100
,
0000
0000
1000
0010
0000
0000
1000
0000
0000
0001
0000
1000
,
0001
1000
0001
2000
,
3002
2003
3001
1000
,
0001
1000
1001
2000
,
3020
2030
3010
1000
,
0010
1000
1010
0200
,
0302
0203
0301
0100
,
0001
0100
0101
0020
,
2030
3020
1030
0010
,
1000
0010
1010
0002
,
0203
0302
0103
0001
,
0100
0001
0101
0020
,
0230
0320
0130
0010
,
0100
0010
0100
0110
,
2000
3002
2003
3001
,
1000
0001
1001
0000
,
0000
0000
1000
0001
,
1000
0001
0010
0100
,
1000
0001
1000
0001
,
0100
0010
1000
0001
,
0100
0010
1000
0100
,
0010
0001
0010
0100
,
1000
0001
0100
0001
,
1000
0001
1000
0100
,
0010
0001
1000
0001
,
1000
0100
0010
0001
,
1000
0001
0100
0001
,
1000
0001
1000
0010
,
0100
0000
0000
0001
0000
0000
0100
0000
0000
1000
0100
0000
,
0001
0100
0000
1000
0100
0000
0001
0100
0000
1000
0100
0000
,
0001
0100
0000
1000
0010
0000
2020
0000
0000
0000
0000
0000
,
0000
0000
0000
0000
,
0000
0000
3030
1000
,
0001
1000
0002
1000
,
0000
1000
1003
1000
,
0010
1000
0020
1000
,
0000
1000
1030
0001
,
0100
0001
0200
0001
,
0000
0001
0301
1000
,
0010
1000
0020
1000
,
0000
1000
1030
2000
,
3002
2003
3001
1000
,
0001
1000
1001
2000
,
3020
2030
3010
1000
,
0010
1000
0010
1010
,
1000
0001
1000
0001
,
1000
0001
0010
0100
,
1000
0100
0010
0001
,
1000
0001
1001
2000
,
3020
2030
3010
1000
,
0010
1000
1010
0200
,
0302
0203
0301
0100
,
0001
0100
0001
0100
,
0001
1000
0001
1000
,
0001
1000
1001
0000
,
0000
1000
0001
0010
,
0100
1000
0100
0010
,
0002
0000
0000
0000
,
1003
0010
1000
0001
,
0010
0100
1000
0100
,
0010
0000
0000
0000
0100
0000
0000
0000
0000
0000
0000
0000
0001
0000
0000
0010
0000
0000
0100
0000
0000
0000
0000
0000
,
1000
0000
0000
0000
0010
0000
0000
0000
0000
0000
0000
0000
1000
0000
0000
0100
0000
0000
0010
0000
0000
0000
0000
0000
,
0001
1000
0001
0010
,
0100
1000
0001
1000
,
0001
0000
0000
0000
1000
0000
0000
0000
0000
0000
0000
0000
1000
0000
0000
0100
0000
0000
0010
0000
0000
0000
0000
0000
,
0001
0000
1000
0000
0001
0000
1000
0000
0001
0000
1000
0000
,
0001
0100
1000
0100
,
0010
0001
0010
1000
,
0001
0000
0000
0000
1000
0000
0000
0000
0000
0000
0000
0000
1000
0000
0000
0100
0000
0000
0010
0000
0000
0000
0000
0000
,
0001
0000
0000
0000
0100
0000
0000
0000
0000
0000
0000
0000
0001
0000
0000
0010
0000
0000
0100
0000
0000
0000
0000
0000
,
1000
0010
1000
0010
,
0001
0010
0100
1000
,
0001
0000
0000
0000
1000
0000
0000
0000
0000
0000
0000
0000
0100
0000
0000
0010
0000
0000
0001
0000
0000
0000
0000
0000
,
1000
0000
0000
0000
0001
0000
0000
0000
0000
0000
0000
0000
1000
0000
0000
0100
0000
0000
0010
0000
0000
0000
0000
0000
,
2002
0000
0000
0000
,
0000
0000
0000
0000
3003
0100
0010
0100
,
0010
0000
0000
0000
;

//---------------dance-single - Destrier75----------------
#NOTES:
     dance-single:
     Destrier75:
     Hard:
     16:
     0.772,0.966,0.700,0.529,0.696: // measure 1
0000
0000
0000
0000
,  // measure 2
0000
0000
0000
0000
,  // measure 3
0000
0000
0000
0000
,  // measure 4
0000
0000
0000
0000
,  // measure 5
0000
0000
0000
0000
0000
0000
1000
0000
0010
1000
0000
0010
,  // measure 6
1000
0000
0010
0000
0000
0101
0000
0000
0001
0100
0000
0100
,  // measure 7
0001
0000
0001
1000
0000
0000
0020
0000
0000
2030
0000
0000
,  // measure 8
3002
0000
0000
1003
0000
0000
1001
0000
1001
0000
1010
0000
,  // measure 9
1010
0000
1100
0000
1100
0000
1001
0000
0001
1000
0000
0001
,  // measure 10
1000
0000
0100
0000
0000
0101
0000
0000
1000
0010
0000
0010
,  // measure 11
0001
0000
0001
1000
0000
0000
1001
0000
1001
0000
0000
0010
,  // measure 12
1000
0000
0010
1000
0000
0000
0101
0000
0101
0000
0000
0100
,  // measure 13
0001
0000
0100
0001
0000
0000
0010
0000
1000
0010
0000
0010
,  // measure 14
0001
0000
0001
0000
0000
1001
0000
0000
1000
0010
0000
0010
,  // measure 15
0001
0000
0001
1000
0000
0000
1010
0000
1010
0000
0000
1000
,  // measure 16
0001
0000
1000
0001
0000
0000
0101
0000
0101
0000
0000
0001
,  // measure 17
1000
0000
0001
1000
0000
0000
2001
0000
0000
0000
0000
0000
,  // measure 18
0000
0000
0001
0000
,  // measure 19
0000
0000
3002
0000
,  // measure 20
0000
0000
0100
0000
,  // measure 21
0000
0000
2003
0000
,  // measure 22
0000
0000
0010
0000
,  // measure 23
0000
0000
3002
0000
,  // measure 24
0000
0000
0000
0000
,  // measure 25
0003
0000
0001
1000
0000
0001
1000
0000
0000
1000
0000
0000
,  // measure 26
0100
1000
0001
0101
,  // measure 27
1010
0000
0000
0101
0000
0000
0100
0000
0001
0100
0000
0001
,  // measure 28
0100
1000
0010
0100
,  // measure 29
1001
0101
1010
0020
,  // measure 30
2030
3002
2003
3020
,  // measure 31
2030
0000
0000
3002
0000
0000
1003
0000
0010
1000
0000
0001
,  // measure 32
1000
0000
0010
1000
0000
1000
0010
0000
0010
0001
0000
0001
,  // measure 33
1000
0000
1000
0010
0000
0000
2010
0000
0000
0010
0000
0000
,  // measure 34
0010
0010
3002
0100
,  // measure 35
0100
0100
0203
0001
,  // measure 36
0001
0001
0302
1000
,  // measure 37
1000
1000
2003
0010
,  // measure 38
0010
0010
3020
0001
,  // measure 39
0001
0000
0000
0001
0000
0000
0031
0000
1000
0001
0000
1000
,  // measure 40
0001
0000
0000
1001
0000
0000
1000
0000
0001
1000
0000
0001
,  // measure 41
1000
0001
1000
0001
,  // measure 42
1000
0000
0001
0100
0000
0001
0100
0000
0000
0001
0000
0000
,  // measure 43
0100
0010
1000
0010
,  // measure 44
1000
0000
0010
1000
0000
0010
1000
0000
0000
0001
0000
0000
,  // measure 45
0100
0001
1000
0010
,  // measure 46
0100
0000
0001
0100
0000
0001
0100
0000
0000
0010
0000
0000
,  // measure 47
0100
0000
0000
1001
0000
0000
1001
0000
0000
0001
0000
1001
,  // measure 48
0000
0000
1000
0010
0000
0010
0001
0000
0001
1000
0000
1000
,  // measure 49
0010
0000
0010
0001
0000
0001
2000
0000
0000
3002
0000
0000
,  // measure 50
0203
0302
1003
1010
,  // measure 51
1001
0000
0001
0100
0000
0001
0100
0000
0000
0002
0000
0000
,  // measure 52
0200
0003
0000
0320
0000
0000
1030
0000
0000
1001
0000
0000
,  // measure 53
0101
0000
1000
0001
0000
1000
0001
0000
0000
2000
0000
0000
,  // measure 54
3020
0230
0301
1001
,  // measure 55
1010
0000
1000
0010
0000
0010
0001
0000
0000
0002
0000
0000
,  // measure 56
2003
3002
0103
0101
,  // measure 57
1010
0000
1000
0010
0000
0010
0001
0000
0000
2000
0000
0000
,  // measure 58
3020
0230
0301
1001
,  // measure 59
1010
0000
1000
0010
0000
0010
0001
0000
0000
0002
0000
0000
,  // measure 60
2003
3020
0130
0101
,  // measure 61
1010
0000
1000
0001
0000
0001
1000
0000
0000
0002
0000
0000
,  // measure 62
2003
0000
0000
3020
0000
0000
1030
0000
0001
1000
0000
1000
,  // measure 63
0010
0000
0010
0001
0000
0001
1000
0000
0000
0000
0000
0000
,  // measure 64
0000
0000
0001
1000
,  // measure 65
0001
0000
0010
1000
0000
0010
1000
0000
0000
0101
0000
0000
,  // measure 66
0101
0000
0000
1001
0000
0000
1000
0000
0001
1000
0000
1000
,  // measure 67
0100
0000
0100
0001
0000
0001
1000
0000
0001
0100
0000
0100
,  // measure 68
0001
0000
0001
1000
0000
0000
1001
0000
0000
0001
0000
0000
,  // measure 69
1000
0000
0001
1000
0000
0001
1000
0000
0000
1001
0000
0000
,  // measure 70
0101
0000
0000
1010
0000
0000
1001
0000
0000
0000
0000
0110
,  // measure 71
0000
0000
0000
0001
0000
1000
0001
0000
0001
0100
0000
0100
,  // measure 72
0001
1001
1000
0001
,  // measure 73
0100
0000
1000
0001
0000
0001
1000
0000
1000
0010
0000
0010
,  // measure 74
1000
0000
0001
1000
0000
1000
0001
0000
0001
1000
0000
1000
,  // measure 75
0010
0000
0010
0001
0000
0001
1000
0000
0010
1000
0000
0010
,  // measure 76
1000
0000
0000
0010
0000
0000
1010
0000
0000
1000
0010
1000
,  // measure 77
0010
0001
0010
0001
1000
0001
1000
0100
1000
0100
0010
0100
,  // measure 78
0010
0001
0010
0001
1000
0001
1000
0000
0000
1000
0000
1001
,  // measure 79
0000
0000
0001
1000
0000
1000
0010
0000
0010
0001
0000
0001
,  // measure 80
1000
0000
1000
0010
0000
0010
0002
0000
0000
2003
0000
0000
,  // measure 81
3020
0230
0302
0000
,  // measure 82
1000
0000
1000
0000
,  // measure 83
1000
0000
2003
0000
,  // measure 84
0010
0000
0010
0000
,  // measure 85
0010
0000
3020
0000
,  // measure 86
0100
0000
0100
0000
,  // measure 87
0100
0000
0230
0000
,  // measure 88
0001
0000
0302
2003
,  // measure 89
3002
1003
1001
0101
,  // measure 90
1001
0000
1000
0001
0000
0001
0100
0000
0000
0020
0000
0000
,  // measure 91
0230
0302
1003
1001
,  // measure 92
0101
0000
0001
0100
0000
0100
1000
0000
0000
2000
0000
0000
,  // measure 93
3002
0203
0301
1001
,  // measure 94
1010
0000
1000
0010
0000
0010
0001
0000
0001
1000
0000
0000
,  // measure 95
2000
3002
0203
0301
,  // measure 96
1001
1010
1010
2000
,  // measure 97
3002
0203
0301
1001
,  // measure 98
0110
0000
1000
0010
0000
0010
0001
0000
0000
0002
0000
0000
,  // measure 99
0203
0320
1030
1001
,  // measure 100
0101
0000
1000
0010
0000
0010
0001
0000
0001
1000
0000
1000
,  // measure 101
0010
1010
1010
1001
,  // measure 102
0110
1001
1001
0000
,  // measure 103
0000
1000
0010
0001
,  // measure 104
0010
0000
0000
1000
0000
0000
0001
0000
0000
1000
0000
0002
,  // measure 105
0000
0000
0000
0000
,  // measure 106
1003
0000
0010
1000
0000
0010
1000
0000
0010
0000
0000
0101
,  // measure 107
0000
0000
1000
0001
0000
0001
1000
0000
1000
0010
0000
0000
,  // measure 108
0101
0000
0101
0000
0000
0001
0100
0000
0001
0100
0000
0000
,  // measure 109
1010
0000
1010
0000
0000
1000
0010
0000
1000
0010
0000
0000
,  // measure 110
1000
0000
0001
1000
0000
1000
0010
0000
0010
0000
0000
1010
,  // measure 111
0000
0000
1000
0001
0000
0001
0100
0000
0100
0001
0000
0000
,  // measure 112
2000
3002
2003
3001
,  // measure 113
1001
0000
1001
0000
1010
0000
1010
0000
1100
0000
1100
0000
,  // measure 114
1010
0000
1000
0010
0000
1000
0010
0000
0100
0000
0000
0101
,  // measure 115
0000
0000
0100
0001
0000
0100
0001
0000
0100
0001
0000
0000
,  // measure 116
1001
0000
1001
0000
0000
1000
0010
0000
1000
0010
0000
0000
,  // measure 117
0110
0000
0110
0000
0000
0001
0010
0000
0001
0010
0000
0000
,  // measure 118
1000
0000
0001
1000
0000
0001
1000
0000
0010
0000
0000
1001
,  // measure 119
0000
0000
0010
1000
0000
1000
0010
0000
0010
0001
0000
0000
,  // measure 120
1001
0000
1001
0000
0000
0001
0100
0000
0001
0100
0000
0000
,  // measure 121
0110
0000
0110
0000
0000
0100
0010
0000
0100
0010
0000
0000
,  // measure 122
2002
0000
0000
0000
,  // measure 123
0000
0000
0000
0000
0000
0000
3003
0000
1000
0001
0000
1000
,  // measure 124
0001
0000
0000
0000
;
