#TITLE:Get On The Floor;
#SUBTITLE:;
#ARTIST:RoughSketch;
#TITLETRANSLIT:;
#SUBTITLETRANSLIT:;
#ARTISTTRANSLIT:;
#CREDIT:;
#BANNER:Get On The Floor.png;
#BACKGROUND:Get On The Floor-bg.png;
#LYRICSPATH:;
#CDTITLE:;
#MUSIC:Get On The Floor.ogg;
#OFFSET:0.040;
#SAMPLESTART:67.880;
#SAMPLELENGTH:15.000;
#SELECTABLE:YES;
#BPMS:0.000=150.000;
#STOPS:;
#BGCHANGES:;

//---------------dance-single - Destrier75----------------
#NOTES:
     dance-single:
     Destrier75:
     Hard:
     15:
     0.691,0.877,0.273,0.282,0.386: // measure 1
0000
0000
0000
0000
,  // measure 2
0000
0000
0000
0000
,  // measure 3
0000
0000
0000
0000
,  // measure 4
0000
0000
0000
0000
,  // measure 5
0000
0000
0000
0000
1000
0010
1000
0100
,  // measure 6
0010
0100
1000
0001
1000
0001
1000
0100
,  // measure 7
0010
0000
0001
0000
0100
0000
0001
0000
1000
0100
0010
0001
1000
0100
0010
0001
,  // measure 8
1000
0100
0010
0001
1000
0100
0010
0001
1000
0000
0000
0000
0000
0000
0000
0000
,  // measure 9
0010
1010
1000
1010
,  // measure 10
0010
0011
0001
1001
,  // measure 11
1001
0000
0000
1001
0000
0000
1000
0001
1000
0000
0000
0000
0001
0000
0000
0000
,  // measure 12
0101
0000
0000
0000
0100
0000
0000
0000
0100
0000
0010
0000
0100
0010
0100
0000
,  // measure 13
0000
1000
0010
1000
0010
0000
0100
0000
1000
0000
0000
0000
1010
0000
0000
0000
,  // measure 14
0010
0000
0011
0000
0001
0000
1000
0001
,  // measure 15
1000
0000
0000
0001
0000
0000
1000
0001
1000
0000
0000
0000
1000
0000
0000
0000
,  // measure 16
0100
0010
0100
0010
0000
1000
0010
1000
,  // measure 17
0020
0000
0000
0000
1030
0000
1000
0001
1000
0000
0000
0000
0110
0000
0000
0000
,  // measure 18
0101
1010
0110
0101
,  // measure 19
1010
0000
0000
0000
0110
0000
0100
0001
0100
0000
0000
0000
0101
0000
0000
0000
,  // measure 20
0110
0000
0000
0000
1010
0000
1000
0010
1000
0000
0010
0000
1000
0000
0100
0000
,  // measure 21
0020
0000
0000
0000
0130
0000
0100
0001
0100
0000
0000
0000
0001
0000
0000
0000
,  // measure 22
0101
0000
0000
0000
0100
0000
1000
0001
1000
0000
0000
0000
0100
0000
0000
0000
,  // measure 23
0110
0000
0010
0100
0010
0100
0010
0000
0100
0000
0010
0000
0100
0000
1000
0001
,  // measure 24
1000
0000
0001
0000
0100
0001
0100
0001
0200
0000
0000
0000
0000
0000
0000
0000
,  // measure 25
0300
0000
0000
0000
0000
0000
0000
0000
0002
0000
0000
0000
0000
0000
1003
0010
,  // measure 26
1000
0020
0000
1030
0100
0010
0001
0200
,  // measure 27
0000
0000
0000
0000
0300
0000
0001
0100
0001
0000
0010
0000
1000
0000
0200
0000
,  // measure 28
0000
0301
0010
0100
1000
0010
1000
0001
,  // measure 29
1000
0000
0010
0000
0002
0000
0000
0000
0203
0000
0000
0000
0300
0000
0001
0100
,  // measure 30
0001
0020
0000
1030
0100
0010
0001
2000
,  // measure 31
0000
0000
0000
0000
3000
0000
0100
1000
0100
0000
0010
0000
0001
0000
0200
0000
,  // measure 32
0000
0301
0010
0100
1000
0010
1000
0001
,  // measure 33
2000
0000
3002
0000
1003
0100
1000
0100
,  // measure 34
0010
0100
0010
0001
0010
0001
0010
0001
,  // measure 35
1000
0001
1000
0001
1000
0100
1000
0100
,  // measure 36
0010
0100
0010
0100
0001
0010
0001
0010
,  // measure 37
0001
0010
1000
0100
1000
1000
0100
0100
,  // measure 38
0010
0010
0001
0001
0010
0010
0100
0100
,  // measure 39
1000
0000
1000
0000
0001
0000
0001
0000
1000
0100
0010
0001
1000
0100
0010
0001
,  // measure 40
1000
0100
0010
0001
1000
0100
0010
0001
1000
0100
0010
0001
1000
0100
0010
0001
,  // measure 41
1000
0100
0010
0001
1000
0100
0010
0001
2000
0000
0000
0000
3002
0000
0000
0000
,  // measure 42
0203
0320
2000
3030
,  // measure 43
0010
0000
0000
0000
1010
0000
0000
0000
0020
0000
0000
0000
0030
0000
0001
0100
,  // measure 44
0001
0020
0000
1030
0100
0010
0001
2000
,  // measure 45
0000
0000
0000
0000
3000
0000
0010
1000
0010
0000
1000
0000
0100
0000
0020
0000
,  // measure 46
0000
0031
0010
0100
1000
0001
1000
0010
,  // measure 47
1000
0000
0100
0000
0020
0000
0000
0000
0230
0000
0000
0000
0300
0000
0001
0100
,  // measure 48
0001
0020
0000
1030
0100
0010
0001
2000
,  // measure 49
0000
0000
0000
0000
3000
0000
0100
0001
0100
0000
0001
0000
1000
0000
0020
0000
,  // measure 50
0000
0031
1000
0100
1000
0100
0010
0001
,  // measure 51
1001
0000
0000
0000
1001
0000
0000
0000
2000
0000
0000
0000
3000
0000
0100
0001
,  // measure 52
0100
0000
0001
0000
1000
0001
1000
0000
0001
0000
0010
0000
0100
0010
0100
0000
,  // measure 53
0010
0000
0110
0000
0000
0000
1000
0010
1000
0000
0100
0000
0010
0000
0002
0000
,  // measure 54
0000
1003
0100
0010
0001
0010
1000
0001
,  // measure 55
1000
0000
0010
0000
1000
0000
0010
1000
0020
0000
0000
0000
0030
0000
0100
0010
,  // measure 56
0100
0000
0010
0100
0010
0000
1000
0000
1010
0000
1000
0000
0010
0000
0001
0000
,  // measure 57
1000
0000
0010
0100
0010
0000
0100
0001
0100
0000
0010
0000
1000
0000
0010
0000
,  // measure 58
1000
0010
1000
0010
1000
0010
1000
0010
1000
0000
0001
0000
0010
0000
0100
0000
,  // measure 59
1001
0000
1001
0000
1000
0100
1000
0100
,  // measure 60
1000
0001
1000
0001
1000
0010
1000
0010
,  // measure 61
1000
0000
0100
0000
1000
0000
0100
0000
1000
0100
0010
0001
1000
0100
0010
0001
,  // measure 62
1000
0100
0010
0001
1000
0100
0010
0001
1000
0000
0000
0000
1000
0000
0000
1000
,  // measure 63
0001
0000
0100
0000
0101
0000
0000
0000
0101
0000
0000
0010
0100
0000
1000
0000
,  // measure 64
0010
0000
0000
1000
0010
0000
0100
0000
0010
0000
0000
0001
0100
0000
0010
0000
,  // measure 65
0001
0000
0000
1000
0010
0000
0100
0000
0001
0010
0001
0000
1000
0100
1000
0000
,  // measure 66
1000
0100
0010
0001
1000
0100
0010
0001
1000
0000
0000
0000
1000
0010
1000
0000
,  // measure 67
0100
0001
0100
0000
0010
1000
0010
1000
0010
0000
0000
0000
0000
0000
0000
0000
;

//---------------dance-single - Destrier75----------------
#NOTES:
     dance-single:
     Destrier75:
     Medium:
     12:
     0.591,0.665,0.282,0.136,0.105:
0000
0000
0000
0000
,
0000
0000
0000
0000
,
0000
0000
0000
0000
,
0000
0000
0000
0000
,
0000
0000
0000
0000
1000
0100
1000
0100
,
1000
0100
1000
0000
0001
0100
0001
0100
,
0001
0000
0100
0000
0001
0000
0000
0000
1000
0001
1000
0000
0001
1000
0001
0000
,
1000
0010
1000
0000
0010
1000
0010
0000
1000
0000
0000
0000
1010
0000
0000
0000
,
1000
1010
0010
0011
,
0001
1001
1000
1010
,
0010
0000
0000
1010
0000
0000
1000
0000
1001
0000
0000
0000
0001
0000
0000
0000
,
0101
0000
0100
0000
0100
0010
0100
0010
,
0100
0010
1000
1001
,
0001
0101
0100
0110
,
0010
1010
1000
1010
,
1000
0001
1000
0001
0000
0010
1000
0010
,
2000
0000
3001
0001
1001
0000
1000
0000
,
1001
0001
0101
0100
,
0110
0000
0010
0010
0110
0000
0010
0000
,
1010
0000
0010
0001
0010
0001
0010
0001
,
0020
0000
0000
1030
1010
0000
1000
0000
,
1001
0000
0001
0001
0101
0000
0100
0000
,
0110
0010
1000
0010
1010
0000
0010
0001
,
0010
0000
0010
1000
0020
0000
0000
0000
,
0000
0000
0000
0000
0230
0000
0000
1300
,
0010
2000
0000
3010
0100
0010
0001
0020
,
0000
0000
0000
0031
0100
0001
0100
0020
,
0000
1030
0100
0010
0000
0001
0010
0100
,
0001
0000
0101
0000
2000
0000
0000
3001
,
1000
0002
0000
0103
0010
0001
0010
0200
,
0000
0000
0300
0001
0100
0001
0100
0002
,
0000
1000
0103
0010
0000
1000
0100
0010
,
1000
0000
1010
0000
1000
0010
1000
0010
,
1000
0010
1000
0000
1000
0001
1000
0001
,
1000
0001
1000
0000
0100
0001
0100
0001
,
0100
0001
0100
0000
0010
0100
0010
0100
,
0010
0100
0010
0000
1000
0010
1000
0010
,
1000
0010
1000
0010
1000
0000
0010
0100
,
0010
0000
0100
0000
0010
0000
0000
0000
1000
0001
1000
0000
0001
1000
0001
0000
,
0100
0001
0100
0000
0010
1000
0010
0000
1000
0010
1000
0000
0100
0001
0100
0000
,
0010
0100
0010
0000
0001
0100
0001
0000
2000
0000
0000
0000
3002
0000
0000
0000
,
0023
0230
1300
1001
,
0001
0000
1001
0000
1000
0010
1000
0010
,
1000
0100
0010
0000
0100
0001
0100
0010
,
0001
0100
0010
0000
1000
0010
1000
0010
,
0100
0001
0100
0000
0001
1000
0001
1000
,
0001
0100
0010
0000
1000
0001
1000
0001
,
0100
0010
0100
0000
0001
0100
0001
0100
,
0001
0010
1000
0000
1000
0001
1000
0001
,
1000
0010
1000
0000
0100
0001
0100
0001
,
0010
0100
0010
0000
1000
0010
1000
0010
,
1000
0010
1000
0000
0001
0100
0001
0100
,
0010
0100
0010
0000
1000
0010
1000
0100
,
0010
0001
0100
0000
0001
1000
0001
0100
,
0010
0100
0010
0000
1000
0010
1000
0100
,
0010
0001
0100
0000
0100
0001
0100
0010
,
1000
0010
0100
0000
0001
0100
0010
0100
,
0010
0100
0010
0000
0100
0010
0100
0000
1000
0000
0001
0000
1000
0000
0010
0000
,
1000
0010
1000
0000
0100
0010
1000
0001
,
1000
0001
1000
0100
0010
0001
1000
0010
,
1000
0000
0001
0000
1000
0000
0010
0000
1000
0100
1000
0000
0010
0001
0010
0000
,
1000
0100
1000
0000
0010
0001
0010
0000
1000
0000
0000
0000
1001
0000
0000
0000
,
0001
0000
1001
0000
1000
0100
1000
0100
,
1000
0100
0001
1000
0001
1000
0100
0010
,
0001
0000
0100
0000
0001
0000
1000
0000
0100
0001
0100
0000
0010
1000
0010
0000
,
0100
0001
0100
0000
0010
1000
0010
0000
1000
0000
0010
0000
1000
0000
0100
0000
,
0010
0001
0100
0001
1001
0000
0000
0000
;

//---------------dance-single - Destrier75----------------
#NOTES:
     dance-single:
     Destrier75:
     Easy:
     6:
     0.312,0.363,0.145,0.091,0.000:
0000
0000
0000
0000
,
0000
0000
0000
0000
,
0000
0000
0000
0000
,
0000
0000
0000
0000
,
0000
0000
1000
1000
,
0001
0001
1000
1000
,
0001
0001
2002
0000
,
0000
0000
3003
0000
,
0000
0000
1000
1000
,
0001
0001
1000
1000
,
0001
0001
1000
1000
,
0001
0001
1000
1000
,
0001
0001
0100
0100
,
0010
0010
0100
0100
,
0010
0010
0100
0100
,
0010
0010
0000
0010
,
0000
0110
1000
1000
,
0010
0010
1000
1000
,
0001
0001
0100
0100
,
0001
0001
0010
0010
,
0110
0000
0010
0010
,
1000
1000
0001
0001
,
1000
1000
0010
0010
,
0100
0100
2002
0000
,
0000
3003
1000
1000
,
1000
1000
0001
0001
,
0001
0001
0100
0100
,
0100
0100
0010
0010
,
0010
0010
1000
1000
,
1000
1000
0001
0001
,
0001
0001
1000
1000
,
1000
1000
0001
0001
,
0001
0001
0100
0100
,
0100
0100
0010
0010
,
0010
0010
0100
0100
,
0100
0100
0001
0001
,
0001
0001
1000
1000
,
1000
1000
0001
0001
,
0001
0001
2002
0000
,
0000
0000
0000
0000
,
0000
0000
3003
0000
,
0000
0000
1001
0000
,
1001
0000
1000
1000
,
0010
0010
0100
0100
,
0001
0001
1000
1000
,
0100
0100
0010
0010
,
0001
0001
1000
1000
,
0010
0010
0100
0100
,
0001
0001
1000
1000
,
0001
0001
0100
0100
,
0010
0010
0100
0100
,
0010
0010
0100
0000
,
0010
0000
0110
0100
,
0001
0001
1000
1000
,
0001
0001
0100
0100
,
0010
0010
1000
1000
,
0001
0001
0100
0100
,
1000
1000
0001
0001
,
0100
0100
0010
0010
,
1000
1000
0001
0001
,
1000
1000
2020
0000
,
0000
3030
1000
1000
,
0001
0001
1000
1001
,
0001
1001
1000
1010
,
0010
0011
2002
0000
,
0000
0000
3003
1000
,
1001
0001
1001
0000
;

//---------------dance-single - Destrier75----------------
#NOTES:
     dance-single:
     Destrier75:
     Beginner:
     3:
     0.204,0.212,0.055,0.036,0.000:
0000
0000
0000
0000
,
0000
0000
0000
0000
,
0000
0000
0000
0000
,
0000
0000
0000
0000
,
0000
0000
1000
0000
,
1000
0000
0001
0000
,
0001
0000
2000
0000
,
0000
0000
3000
0000
,
0000
0000
0001
0001
,
0001
0000
1000
1000
,
1000
0000
0001
0001
,
0001
0000
1000
1000
,
1000
0000
0010
0010
,
0010
0000
0100
0100
,
0100
0000
0010
0010
,
0010
0000
0100
0000
,
0100
0000
0010
0010
,
0010
0000
0001
0001
,
0001
0000
1000
1000
,
1000
0000
0100
0100
,
0100
0000
0001
0001
,
0001
0000
1000
1000
,
1000
0000
0001
0001
,
0001
0000
1001
0000
,
0000
0000
1000
0000
,
1000
0000
0001
0000
,
0001
0000
1000
0000
,
1000
0000
0001
0000
,
0001
0000
1000
0000
,
1000
0000
0010
0000
,
0010
0000
0100
0000
,
0100
0000
0010
0000
,
0010
0000
0100
0100
,
0100
0000
0010
0010
,
0010
0000
0100
0100
,
0100
0000
0001
0001
,
0001
0000
1000
1000
,
1000
0000
0001
0001
,
0001
0000
0002
0000
,
0000
0000
0000
0000
,
0000
0000
0003
0000
,
0000
0000
1001
0000
,
0000
0000
1000
1000
,
1000
0000
0001
0001
,
0001
0000
0100
0100
,
0100
0000
0010
0010
,
0010
0000
1000
1000
,
1000
0000
0001
0001
,
0001
0000
0100
0100
,
0100
0000
1000
1000
,
1000
0000
0001
0000
,
0001
0000
1000
0000
,
1000
0000
0001
0001
,
0001
0000
1000
1000
,
1000
0000
0001
0000
,
0001
0000
0001
0001
,
0001
0000
1000
1000
,
1000
0000
0100
0100
,
0100
0000
0010
0000
,
0010
0000
0100
0000
,
0100
0000
0020
0000
,
0000
0000
0030
0000
,
0000
0000
1000
1000
,
1000
0000
0001
0001
,
0001
0000
2000
0000
,
0000
0000
3000
1001
,
1001
1001
1001
0000
;
