#TITLE:GIGA RAID;
#SUBTITLE:;
#ARTIST:Blacklolita;
#TITLETRANSLIT:;
#SUBTITLETRANSLIT:;
#ARTISTTRANSLIT:;
#CREDIT:;
#BANNER:GIGA RAID.png;
#BACKGROUND:GIGA RAID-bg.png;
#LYRICSPATH:;
#CDTITLE:;
#MUSIC:GIGA RAID.ogg;
#OFFSET:0.780;
#SAMPLESTART:27.860;
#SAMPLELENGTH:15.000;
#SELECTABLE:YES;
#BPMS:0.000=150.000;
#STOPS:;
#BGCHANGES:1.938=GIGA RAID.avi=1.000=1=1=0,
99999=-nosongbg-=1.000=0=0=0 // don't automatically add -songbackground-
;

//---------------dance-single - Destrier75----------------
#NOTES:
     dance-single:
     Destrier75:
     Hard:
     16:
     0.720,0.737,0.208,0.125,0.527:
0000
0000
0000
0000
,
0000
0000
0000
0000
,
0000
0000
0000
0000
,
0000
0000
0000
0000
,
0000
0000
0000
0000
,
0000
0000
0000
0000
0000
0000
0010
0100
,
1000
0000
0000
1000
0001
0000
0010
0000
0001
0000
0100
0010
0100
0000
1000
0000
,
0001
0000
1000
0001
1000
0000
0100
0000
0002
0000
0000
0000
1003
0000
0100
0000
,
0010
0000
1000
0010
1000
0000
0100
0010
0100
0000
0001
0010
0001
0010
0001
0000
,
1001
0000
1100
0000
0101
0001
0101
0000
,
2010
0100
0001
0010
,
3002
0100
0010
1000
,
0203
0010
1000
0010
,
0302
1000
0010
0100
,
1003
0010
1000
0010
0001
0100
0001
0100
,
0010
0001
0010
0001
0100
0010
0100
0010
,
1000
0001
1000
0001
1000
0010
1000
0010
1000
0100
1000
0100
1000
0001
1000
0001
,
1000
1010
0011
1010
,
1000
0000
0010
0100
0010
0000
0001
0000
0100
0000
0001
0100
0001
0000
0010
0000
,
1000
0000
0010
0100
0010
0000
0001
0000
0100
0000
0010
0100
0010
0000
0001
0000
,
1000
0000
0001
0100
0001
0000
0010
0000
1000
0000
0010
0100
0010
0000
0100
0000
,
0001
0000
0100
0001
0100
0001
0000
0001
0100
0000
0000
0100
0001
0000
0000
0000
,
1010
0000
1000
0001
1000
0000
0100
0000
0010
0000
0100
0010
0100
0000
0010
0000
,
0001
0000
1000
0001
1000
0000
0010
0000
1000
0000
0100
0010
0100
0000
0100
0000
,
0001
0000
1000
0001
1000
0000
0001
0000
0010
1000
0010
1000
0010
1000
0010
1000
,
0020
0000
0000
0000
,
1030
0000
0010
1000
0000
1000
0010
0000
0100
0000
0001
0100
0001
0100
0001
0000
,
0010
0000
1000
0000
0001
1000
0001
1000
0001
0100
0001
0100
0001
0000
0010
0000
,
1000
0000
0001
1000
0000
1000
0001
0000
0100
0000
0010
0100
0010
0100
0010
0000
,
0001
0000
1000
0000
0010
0100
0010
0100
0010
0100
0010
0100
0010
0000
0001
0000
,
0010
0000
0100
0001
0000
0001
0100
0000
0010
0000
0100
0001
0100
0001
0100
0000
,
0010
0000
1000
0000
0001
0100
0001
0100
0001
0100
0001
0100
0001
0000
0010
0000
,
1000
0000
0001
0100
0000
0100
0001
0000
0001
0000
1000
0001
0000
0001
1000
0000
,
2002
0000
0000
0000
0000
0000
0000
3003
,
1000
0000
0010
0000
1000
0000
0010
0000
1000
0000
0010
1000
0010
0000
0100
0000
,
0010
0001
0000
0001
0000
0001
1000
0010
,
1000
0000
0010
0000
0100
0000
0001
0000
0100
0000
0001
0100
0001
0000
0010
0000
,
0100
0010
0000
0010
0000
0010
1000
0001
,
1000
0000
0010
0000
1000
0000
0010
0000
0100
0000
0001
0100
0001
0000
0010
0000
,
1000
0100
0010
0001
0100
0000
0001
0100
,
0001
0000
0000
0000
1001
0000
0000
0000
1010
0000
0000
0000
0100
0010
0100
0010
,
0100
0000
0010
0000
0100
0000
0100
0010
,
0001
0000
0000
0001
1000
0000
0010
0000
1000
0000
0001
1000
0001
0000
0100
0000
,
0002
0000
1000
0000
0100
0000
0013
0100
,
1000
0000
0000
0001
1000
0000
0010
0000
1000
0000
0001
0100
0001
0000
0010
0000
,
2000
0001
0100
3001
,
1000
0010
1000
0010
0100
0001
0100
0001
,
0010
1000
0010
1000
0100
0001
0100
0001
,
1000
0001
1000
0001
1000
0010
1000
0010
1000
0100
1000
0100
1000
0001
1000
0001
,
1000
1010
0101
1010
,
1000
0000
0010
1000
0010
0000
0100
0000
0001
0000
0100
0001
0100
0000
0001
0000
,
1000
0010
1000
0001
0100
0001
0100
0001
,
1000
0000
0100
0001
0100
0000
1000
0000
0010
0000
0001
1000
0001
0000
0100
0000
,
0001
0000
0010
0001
0010
0001
0010
0001
0010
0000
0000
0000
0001
0000
0010
0000
,
1000
0000
0000
0001
0100
0000
0001
0000
0100
0000
0001
0100
0001
0000
0010
0000
,
0100
0000
0001
0100
0001
0000
0100
0000
0010
0000
0000
0000
1000
0000
0010
0000
,
1000
0000
0010
1000
0010
0000
0100
0010
0100
0000
0001
0100
0001
0000
0010
0000
,
0100
0000
0000
0010
0000
0000
0100
0000
0110
0000
0000
0000
1000
0000
0010
0000
,
0001
0000
0000
0001
1000
0000
0010
0000
1000
0000
0001
0100
0001
0000
0100
0000
,
0020
0000
0001
0000
0130
0000
1000
0001
,
0100
0000
0000
0010
0100
0000
0001
0000
1000
0000
0001
1000
0001
0000
0100
0000
,
0010
0000
1000
0001
1000
0001
1000
0001
1000
0000
0000
0000
0001
0000
0100
0000
,
0001
0000
0000
1000
0001
0000
0100
0000
0010
0000
0001
0000
0100
0000
0001
0000
,
0100
0000
0010
1000
0010
1000
0010
1000
0010
0000
0000
0000
0000
0000
1000
0010
,
1000
0000
0100
0001
0100
0000
0010
1000
0010
0000
0100
0010
0100
0000
0010
0000
,
0220
0000
0000
0000
0000
0000
0330
0000
0100
0010
0100
0010
0100
0010
0100
0010
,
0100
0000
0000
0000
0100
0000
0000
0000
0001
0000
0000
0100
0000
0000
0001
0000
,
0101
0000
0000
0010
0000
0000
0100
0000
0110
0000
0000
0000
1010
0000
0000
0000
,
2020
0000
0000
0000
3030
0000
1000
0000
1010
0000
0000
0010
0000
0000
1000
0000
,
1001
0000
0000
0001
0000
0000
1000
0000
1000
0001
1000
0000
1000
0000
1001
0000
,
1000
0010
1000
0010
0001
0010
0001
0100
,
0001
0100
1000
0100
1000
0100
0001
0100
,
0001
0010
0001
0010
0001
0010
0100
0010
0100
1000
0100
1000
0100
0001
0100
0001
,
0100
0000
0000
0010
0000
0000
0100
0000
0001
0000
0000
1000
0000
0000
0001
0000
,
1001
0000
0000
0000
;

//---------------dance-single - Destrier75----------------
#NOTES:
     dance-single:
     Destrier75:
     Medium:
     13:
     0.631,0.645,0.224,0.017,0.216:
0000
0000
0000
0000
,
0000
0000
0000
0000
,
0000
0000
0000
0000
,
0000
0000
0000
0000
,
0000
0000
0000
0000
,
0000
0000
0000
0000
0000
0000
1000
0100
,
0010
0000
0001
1000
0001
0100
0010
0001
,
0100
0001
0010
0100
1000
0000
0001
0100
,
0001
0010
1000
0010
0001
0010
1000
0010
,
0001
1001
1010
0110
,
1000
0010
1000
0010
1000
0000
0100
0000
,
0001
0100
0001
0100
0001
0000
0100
0000
,
1000
0001
1000
0001
1000
0000
0010
0000
,
0100
0010
0100
0010
0100
0000
0001
0000
,
1000
0001
1000
0001
1000
0001
1000
0001
,
0100
0010
0100
0010
0100
0010
0100
0010
,
0100
0001
0100
0000
0010
1000
0010
0000
0100
0010
0100
0000
0100
0001
0100
0000
,
0001
1000
0001
1001
,
1000
0000
0010
0000
1000
0000
0010
0000
1000
0000
0010
1000
0010
0000
0001
0000
,
1000
0000
0001
0000
0100
0000
0001
0000
0100
0000
0001
0100
0001
0000
0010
0000
,
1000
0000
0010
0000
1000
0000
0001
0000
0100
0000
0010
0100
0010
0000
0100
0000
,
0001
1000
0001
0000
0100
0000
0010
0000
1000
0010
1000
0000
0100
0000
0001
0000
,
0101
0000
0001
0000
0100
0000
0001
0000
0100
0000
0010
0100
0010
0000
0001
0000
,
1000
0000
0010
0000
1000
0000
0001
0000
0100
0000
0010
1000
0010
0000
0100
0000
,
0001
0000
0100
0000
0001
0000
0100
0000
0001
0000
1000
0001
1000
0000
0001
0000
,
0100
0000
0000
0010
0000
0000
0100
0000
0010
0000
0100
0000
0010
0000
0100
0000
,
0010
0000
0000
1010
0000
0000
1000
0000
0010
0000
0000
0110
0000
0000
0010
0000
,
0001
0000
1000
0001
1000
0000
0001
0000
1000
0000
0100
0010
0100
0000
0001
0000
,
1000
0000
0000
1010
0000
0000
0010
0000
0001
0000
0000
0011
0000
0000
0001
0000
,
1000
0000
0001
1000
0001
0000
0100
0000
0001
0000
0010
1000
0010
0000
0001
0000
,
0100
0000
0000
0110
0000
0000
0010
0000
0001
0000
0000
0011
0000
0000
0010
0000
,
1000
0000
1000
0010
1000
0000
0100
0000
0001
0000
0001
1000
0001
0000
0001
0000
,
0100
0000
0000
0001
0000
0000
0100
0000
0001
0000
0000
0100
0000
0000
0010
0000
,
0220
0000
0000
0330
,
0100
0010
0001
0100
0001
0010
0100
1000
,
0100
0001
0000
0001
0000
0001
1000
0010
,
1000
0000
0010
0100
1000
0100
0001
0100
,
0001
0100
0000
0100
0000
0100
0001
0010
,
0001
0000
0100
0001
0100
0001
0010
0100
,
1000
0001
1000
0001
1000
0000
0100
0010
,
0100
0000
0001
0100
0001
0000
0100
0001
,
0100
0000
0000
0001
0000
0000
0100
0000
0010
0000
0000
0000
0100
0000
0010
0000
,
1000
0000
1000
0010
1000
0001
1000
0010
,
1000
0010
0000
0010
0000
0010
1000
0001
,
1000
0000
0010
0001
0100
0001
0100
0001
,
0100
0010
0000
0010
0000
0010
1000
0001
,
1000
0010
1000
0010
1000
0010
1000
0010
,
0100
0001
0100
0001
0100
0001
0100
0001
,
0100
0001
0100
0000
0010
1000
0010
0000
0100
0010
0100
0000
0100
0001
0100
0000
,
0110
0110
0110
1001
,
1000
0000
0010
0000
0001
0000
1000
0000
0001
0000
0100
0001
0100
0000
0010
0000
,
1000
0010
1000
0001
1000
0010
0100
0001
,
0100
0000
0001
0000
0100
0000
0001
0000
1000
0000
0001
1000
0001
0000
0100
0000
,
0010
0100
0001
1000
1001
0000
0001
0010
,
0100
0000
1000
0000
0010
0000
0100
0000
0001
0000
0100
0001
0100
0000
0010
0000
,
1000
0001
0100
0010
0001
0000
1000
0010
,
1000
0001
0100
0010
0100
0001
0100
0001
,
0100
0000
0000
0001
0000
0000
0101
0000
0101
0000
0000
0000
0001
0000
0000
0000
,
1000
0000
0010
0000
1000
0000
0010
0000
0100
0000
0010
0100
0010
0000
0001
0000
,
1000
0100
0010
0001
1000
0001
0100
0010
,
0100
0000
0001
0000
1000
0000
0010
0000
0100
0000
0010
0001
0010
0000
1000
0000
,
0001
0100
0001
0100
0001
0010
0100
1000
,
0001
0000
0000
0001
0000
0000
1001
0000
1000
0000
0000
0010
0000
0000
1010
0000
,
1000
0010
0100
0010
0100
0000
0000
0000
,
1000
0100
0001
0100
0001
0010
0100
0010
,
1000
0000
0000
0000
0001
0000
0000
0000
0001
1000
0001
0000
0100
0001
0100
0000
,
1000
0000
0010
0000
1000
0000
0001
0000
0100
0000
0000
0010
0000
0000
0110
0000
,
0010
0000
0000
0001
0000
0000
0100
0000
0101
0000
0000
0000
0001
0000
0000
0000
,
1000
0000
0010
0000
1000
0000
0010
0000
1000
0000
0000
0001
0000
0000
1000
0000
,
0010
0000
0000
0010
0000
0000
1010
0000
0010
0000
0000
0000
0110
0000
0000
0000
,
1000
0010
1000
0001
1000
0001
1000
0001
,
1000
0100
0010
0001
0100
0001
0100
0010
,
0001
1000
0001
0000
0100
0010
0100
0000
0010
0100
0010
0000
1000
0001
1000
0000
,
1001
0000
0000
0001
0000
0000
1000
0000
0001
0000
0000
1000
0000
0000
0001
0000
,
1001
0000
0000
0000
;

//---------------dance-single - Destrier75----------------
#NOTES:
     dance-single:
     Destrier75:
     Beginner:
     4:
     0.228,0.307,0.033,0.050,0.000:
0000
0000
0000
0000
,
0000
0000
0000
0000
,
0000
0000
0000
0000
,
0000
0000
0000
0000
,
0000
0000
0000
0000
,
0000
0000
0000
0000
,
0100
0000
0100
0000
,
0001
0000
0001
0000
,
1000
0000
1000
0000
,
0100
0000
0100
0000
,
0100
0010
0100
0000
,
1000
0001
1000
0000
,
0001
1000
0001
0000
,
0100
0010
0100
0000
,
1000
1000
0001
0001
,
1000
1000
0001
0001
,
2002
0000
0000
3003
,
1000
0000
0001
0000
,
1000
0000
0010
0010
,
0010
0000
0100
0100
,
0100
0000
0001
0001
,
0001
0000
1000
1000
,
1000
0000
0001
0001
,
0001
0000
1000
1000
,
1000
0000
0001
0001
,
0001
0000
0100
0100
,
0100
0000
0100
0000
,
0001
0000
0001
0000
,
1000
0000
1000
0000
,
0001
0000
0001
0000
,
1000
0000
1000
0000
,
0001
0000
0001
0000
,
0100
0100
0100
0000
,
0010
0010
0010
0000
,
1000
0000
1000
0000
,
0001
0000
0001
0000
,
1000
0000
1000
0000
,
0001
0000
0001
0000
,
1000
0000
1000
0000
,
0001
0000
0001
0000
,
1000
0000
1000
0000
,
0001
0000
0001
0000
,
1000
0001
1000
0000
,
0100
0010
0100
0000
,
0100
0001
0100
0000
,
1000
0010
1000
0000
,
0100
0100
0010
0010
,
0100
0100
0010
0010
,
0220
0000
0000
0330
,
0100
0000
0010
0000
,
0100
0100
0100
0000
,
0001
0001
0001
0000
,
1000
1000
1000
0000
,
0001
0001
0001
0000
,
1000
1000
1000
0000
,
0010
0010
0010
0000
,
0100
0100
0100
0000
,
0010
0010
0010
0000
,
0100
0100
0100
0000
,
0010
0010
0010
0000
,
1000
1000
1000
0000
,
0001
0001
0001
0000
,
1000
1000
1000
0000
,
0001
0001
0001
0000
,
1000
1000
1000
0000
,
0001
0001
0001
0000
,
1000
0000
1000
0000
,
0001
0000
0001
0000
,
1000
0000
1000
0000
,
0001
0000
0001
0000
,
0100
0100
0010
0010
,
0100
0100
0010
0010
,
0220
0000
0000
0330
,
0100
0010
0100
0010
,
0110
0000
0000
0000
;

//---------------dance-single - Destrier75----------------
#NOTES:
     dance-single:
     Destrier75:
     Easy:
     8:
     0.342,0.430,0.042,0.033,0.000: // measure 1
0000
0000
0000
0000
,  // measure 2
0000
0000
0000
0000
,  // measure 3
0000
0000
0000
0000
,  // measure 4
0000
0000
0000
0000
,  // measure 5
0000
0000
0000
0000
,  // measure 6
0000
0000
0000
0000
,  // measure 7
1000
0001
1000
0001
,  // measure 8
0100
0001
0100
0001
,  // measure 9
0010
1000
0010
1000
,  // measure 10
0001
1000
0001
1000
,  // measure 11
1001
1000
0010
1000
,  // measure 12
0100
0001
0100
0001
,  // measure 13
1000
0010
1000
0010
,  // measure 14
0100
0001
0100
0001
,  // measure 15
1000
0100
0010
0001
,  // measure 16
0010
0100
1000
0100
,  // measure 17
0010
0100
0010
0100
0010
0100
0010
0100
,  // measure 18
0010
0100
0010
0100
,  // measure 19
0110
1000
0001
1000
,  // measure 20
0001
1000
0010
1000
,  // measure 21
0010
0100
0001
0100
,  // measure 22
0001
1000
0010
1000
,  // measure 23
0010
0100
0010
0100
,  // measure 24
0001
0100
0001
0100
,  // measure 25
1000
0010
1000
0010
,  // measure 26
0100
0010
0100
0010
,  // measure 27
1000
1000
0100
0100
,  // measure 28
0010
0010
0001
0001
,  // measure 29
0010
0010
0100
0100
,  // measure 30
1000
1000
0100
0100
,  // measure 31
0010
0010
0001
0001
,  // measure 32
0010
0010
0100
0100
,  // measure 33
1000
0001
1000
0001
,  // measure 34
2002
0000
0000
3003
,  // measure 35
1000
0001
1000
0001
,  // measure 36
1000
0010
1000
0010
,  // measure 37
0100
0001
0100
0001
,  // measure 38
1000
0010
1000
0010
,  // measure 39
0100
0001
0100
0001
,  // measure 40
1000
0010
1000
0010
,  // measure 41
0100
0001
0100
0001
,  // measure 42
2002
0000
0000
3003
,  // measure 43
1000
0001
1000
0001
,  // measure 44
0100
0001
0100
0001
,  // measure 45
0010
1000
0010
1000
,  // measure 46
0001
0100
0001
0100
,  // measure 47
0001
0010
0100
1000
,  // measure 48
0100
0010
0001
0010
,  // measure 49
0100
0010
0100
0010
0100
0010
0100
0010
,  // measure 50
0100
0010
0100
0010
,  // measure 51
1000
0100
1000
0100
,  // measure 52
0001
0100
0001
0100
,  // measure 53
0010
0001
0010
0001
,  // measure 54
1000
0010
1000
0010
,  // measure 55
0100
0001
0100
0001
,  // measure 56
0010
1000
0010
1000
,  // measure 57
0100
0001
0100
0001
,  // measure 58
1000
0010
1000
0010
,  // measure 59
0100
0001
0100
0001
,  // measure 60
0100
0010
0100
0010
,  // measure 61
1000
0010
1000
0010
,  // measure 62
0100
0001
0100
0001
,  // measure 63
0010
1000
0010
1000
,  // measure 64
0100
0001
0100
0001
,  // measure 65
1000
0001
1000
0001
,  // measure 66
0100
0001
0100
0001
,  // measure 67
1000
1000
0001
0001
,  // measure 68
1000
1000
0001
0001
,  // measure 69
1000
1000
0001
0001
,  // measure 70
1000
1000
0001
0001
,  // measure 71
1000
0001
1000
0001
,  // measure 72
1000
0001
1000
0001
,  // measure 73
1000
0001
1000
0001
1000
0001
1000
0001
,  // measure 74
1000
0001
1000
0001
,  // measure 75
1001
0000
0000
0000
;
