#TITLE:Flow;
#SUBTITLE:;
#ARTIST:NUU$HI;
#TITLETRANSLIT:;
#SUBTITLETRANSLIT:;
#ARTISTTRANSLIT:;
#CREDIT:;
#BANNER:Flow.png;
#BACKGROUND:Flow-bg.png;
#LYRICSPATH:;
#CDTITLE:;
#MUSIC:Flow.ogg;
#OFFSET:0.260;
#SAMPLESTART:70.420;
#SAMPLELENGTH:15.000;
#SELECTABLE:YES;
#BPMS:0.000=140.000;
#STOPS:;
#BGCHANGES:;

//---------------dance-single - Destrier75----------------
#NOTES:
     dance-single:
     Destrier75:
     Hard:
     13:
     0.580,0.690,0.105,0.463,0.372: // measure 1
0000
0000
0000
0000
,  // measure 2
0000
0000
0000
0000
,  // measure 3
0000
0000
0000
0000
,  // measure 4
0000
0000
0000
0000
,  // measure 5
0000
0000
0000
0000
,  // measure 6
0000
0000
0000
0000
1001
0000
0000
0110
0000
0000
1001
0000
0000
0110
0000
0000
,  // measure 7
2002
0000
0000
0000
,  // measure 8
3003
0000
0000
0000
0101
0000
0000
1010
0000
0000
0101
0000
0000
1010
0000
0000
,  // measure 9
0202
0000
0000
0000
,  // measure 10
0303
0000
0000
0000
1010
0000
0010
1000
0000
1000
0010
0000
0000
1000
0000
0010
,  // measure 11
1000
0000
0100
0000
0010
0000
0001
0100
0000
0001
0100
0000
0000
0010
0000
0100
,  // measure 12
0010
0000
0100
0000
0001
0000
1000
0010
0000
1000
0010
0000
0000
1000
0000
0010
,  // measure 13
1000
0000
0100
0000
0010
0000
0100
0010
0000
0100
0010
0000
0000
0010
0000
0100
,  // measure 14
0010
0000
0100
0000
0001
0000
1000
0001
0000
1000
0001
0000
0000
1000
0000
0001
,  // measure 15
1000
0000
0010
0000
0100
0000
1000
0010
0000
1000
0010
0000
0000
1000
0000
0010
,  // measure 16
1000
0100
1000
1000
0100
0100
0010
0010
,  // measure 17
0001
0000
0001
0000
1000
0100
0010
0001
1000
0100
0010
0001
1000
0100
0010
0001
,  // measure 18
1000
0100
0010
0001
2000
0000
0000
0000
3020
0000
0000
0000
0230
0000
0000
0000
,  // measure 19
0301
0100
0001
0200
0000
0000
0320
0000
0000
2030
0000
0000
,  // measure 20
3001
0010
0200
0000
0302
0000
0023
0000
,  // measure 21
1030
0100
0020
0000
1030
0001
1000
0001
,  // measure 22
1000
0001
2000
0000
3100
0010
0002
0000
,  // measure 23
1003
0010
2000
0000
3020
0000
0230
0000
,  // measure 24
0301
0010
0200
0000
0302
0000
2003
0000
,  // measure 25
3010
0001
0020
0000
2030
0000
3002
0000
,  // measure 26
0013
0100
2000
0000
3020
0000
0230
0000
,  // measure 27
0301
0010
0200
0000
2300
0000
3020
0000
,  // measure 28
0031
0010
0200
0000
0302
0000
2003
0000
,  // measure 29
3010
0001
0020
0000
0130
0010
0100
0010
,  // measure 30
0100
0001
0200
0000
0302
0000
2003
0000
,  // measure 31
3100
0010
0002
0000
2003
0000
3020
0000
,  // measure 32
1030
0100
0020
0000
0032
0000
0203
0000
,  // measure 33
0301
0010
0200
0000
0320
0000
2030
0000
,  // measure 34
3010
0000
0100
0000
1010
0000
1000
0010
0000
1000
0010
0000
0000
0100
0000
0010
,  // measure 35
0100
0000
1000
0000
0010
0000
0100
0001
0000
0100
0001
0000
0000
0010
0000
0001
,  // measure 36
0100
0000
0001
0000
0100
0000
0010
1000
0000
0010
1000
0000
0000
0010
0000
1000
,  // measure 37
0010
0000
0100
0000
0010
0000
0001
1000
0000
0001
1000
0000
0000
0001
0000
0100
,  // measure 38
0001
0000
0000
0000
1000
0000
0010
1000
0000
0010
1000
0000
0000
0100
0000
0010
,  // measure 39
0100
0000
0010
0000
0001
0000
0100
0001
0000
0100
0001
0000
0000
0100
0000
0001
,  // measure 40
0100
0010
0100
0100
0010
0010
0001
0001
,  // measure 41
1000
0000
1000
0000
0001
0010
0100
1000
0001
0010
0100
1000
0001
0000
0100
0000
,  // measure 42
0001
0000
0100
0000
0010
0000
1000
0000
0010
0000
0100
0001
0100
0000
0001
0000
,  // measure 43
0010
0000
0100
0000
1000
0000
0010
0000
1000
0000
0100
0010
0100
0000
0010
0000
,  // measure 44
1000
0000
0100
0000
0010
0000
0001
0000
1000
0000
0001
0100
0001
0000
0010
0000
,  // measure 45
1000
0000
0100
0000
0010
0000
0001
0000
0100
0000
0010
0100
0010
0000
0100
0000
,  // measure 46
0001
0000
1000
0000
0010
0000
0100
0000
0001
0000
0100
0001
0100
0000
0010
0000
,  // measure 47
1000
0000
0010
0000
0100
0000
0001
0000
0010
0000
1000
0010
1000
0000
0100
0000
,  // measure 48
0010
0000
0001
0000
1000
0000
0100
0000
0010
0000
0100
0010
0100
0000
0001
0000
,  // measure 49
1000
0000
0010
0000
0001
0000
0010
0000
1000
0000
0100
0001
0100
0000
0010
0000
,  // measure 50
1000
0000
0010
0000
0100
0000
0001
0000
0100
0000
0001
1000
0001
0000
0100
0000
,  // measure 51
0010
0000
1000
0000
0001
0000
0100
0000
0001
0000
0100
0001
0100
0000
0010
0000
,  // measure 52
1000
0000
0010
0000
1000
0000
0100
0000
0010
0000
0001
0100
0001
0000
0010
0000
,  // measure 53
1000
0000
0010
0000
0100
0000
0010
0000
0100
0000
0001
0100
0001
0000
0010
0000
,  // measure 54
1000
0000
0000
0000
0000
0000
0000
0000
0000
0100
0000
0000
0000
0000
0000
0000
0000
0000
0010
0000
0000
0000
0000
0000
0001
0000
0000
0000
1000
0000
0000
0000
0001
0000
0000
0000
1000
0000
0000
0000
0000
0000
0100
0000
0000
0000
0000
0000
,  // measure 55
1000
0000
0010
0000
1000
0000
0001
0000
0100
0000
0010
0001
0010
0000
0100
0000
,  // measure 56
1000
0000
0100
0000
0001
0000
0010
0000
1000
0000
0001
0100
0001
0000
0010
0000
,  // measure 57
1000
0000
0010
0000
0100
0000
0001
0000
1000
0000
0010
0100
0010
0000
0100
0000
,  // measure 58
0001
0100
0020
0000
0000
0000
0000
0000
,  // measure 59
0000
0032
0000
0000
,  // measure 60
0000
2003
0000
0000
,  // measure 61
0000
3002
0000
0203
,  // measure 62
0000
0320
0000
0000
,  // measure 63
0000
0000
0000
0000
0000
0000
0000
0030
,  // measure 64
0100
0010
0100
0000
0000
0000
0000
0000
0000
0000
0000
0000
0000
0000
0000
0000
;

//---------------dance-single - Destrier75----------------
#NOTES:
     dance-single:
     Destrier75:
     Medium:
     9:
     0.401,0.442,0.052,0.533,0.022:
0000
0000
0000
0000
,
0000
0000
0000
0000
,
0000
0000
0000
0000
,
0000
0000
0000
0000
,
0000
0000
0000
0000
,
0000
0000
0000
0000
0110
0000
0000
0010
0000
0000
0100
0000
0000
0010
0000
0000
,
0220
0000
0000
0000
,
0330
0000
0000
0000
1001
0000
0000
0001
0000
0000
1000
0000
0000
0001
0000
0000
,
2002
0000
0000
0000
,
3003
0000
1000
0010
1000
0000
0100
0000
,
0001
0000
0100
0010
0100
0000
0001
0000
,
1000
0000
0100
1000
0100
0000
0010
0000
,
0001
0000
0100
0001
0100
0000
0010
0000
,
1000
0000
0100
0001
0100
0000
1000
0001
,
1000
0000
0001
0100
0001
0000
1000
0010
,
1000
0000
1000
0010
0001
0010
1000
0010
,
0001
0010
1000
0010
0001
0010
1000
0010
,
0001
0010
2000
0000
3002
0000
2003
0000
,
3000
0002
0203
0302
,
0003
2000
3020
2030
,
3000
0200
0302
0203
,
0300
0020
0230
0320
,
0030
0020
2030
3020
,
0030
0200
0302
0203
,
0300
0020
2030
3020
,
0030
0200
0302
0203
,
0300
0020
2030
3020
,
0030
0200
0302
0203
,
0300
0020
2030
3020
,
0030
0200
0302
0203
,
0300
0020
2030
3020
,
0030
0200
0302
0203
,
0300
2000
3002
2003
,
3000
0000
0001
0100
0001
0000
0010
0000
,
1000
0000
0100
0010
0100
0000
0010
0000
,
0001
0000
1000
0010
1000
0000
0100
0000
,
0001
0000
0100
0001
0100
0000
0010
0000
,
1010
0000
1000
0010
1000
0000
0100
0001
,
0100
0000
0010
0001
0010
0000
1000
0010
,
1000
0000
1000
0001
1000
0001
1000
0001
,
1000
0001
1000
0010
1000
0010
1000
0010
,
1000
0000
0100
0001
0100
0001
0100
0000
,
0001
0000
1000
0010
1000
0010
1000
0000
,
0100
0000
0010
0100
0010
0100
0010
0000
,
0001
0000
0100
0001
0100
0001
0100
0000
,
0001
0000
1000
0010
1000
0010
1000
0000
,
0001
0000
0100
0010
0100
0010
0100
0000
,
0001
0000
1000
0010
1000
0010
1000
0000
,
0010
0000
0100
0010
0100
0010
0100
0000
,
0001
0000
0100
0001
0100
0001
0100
0000
,
0010
0000
1000
0010
1000
0010
1000
0000
,
0001
0000
0100
0010
0100
0010
0100
0000
,
0001
0000
1000
0010
1000
0010
1000
0000
,
0001
0000
0000
0100
0000
0000
0001
0000
0202
0000
0000
0000
0303
0000
0000
0000
,
0010
0000
1000
0010
1000
0010
1000
0000
,
0100
0000
0001
0100
0001
0100
0001
0000
,
0010
0000
1000
0010
1000
0010
1000
0000
,
0100
2000
0000
0000
,
0000
3002
0000
0000
,
0000
2003
0000
0000
,
0000
3002
0000
0203
,
0000
0320
0000
0000
,
0000
0000
0000
0000
,
0200
0330
0000
0000
;

//---------------dance-single - Destrier75----------------
#NOTES:
     dance-single:
     Destrier75:
     Easy:
     5:
     0.257,0.277,0.149,0.114,0.000:
0000
0000
0000
0000
,
0000
0000
0000
0000
,
0000
0000
0000
0000
,
0000
0000
0000
0000
,
0000
0000
0000
0000
,
0000
1000
0001
1000
,
0002
0000
0000
0000
,
0000
1003
0001
1000
,
0002
0000
0000
0000
,
0003
0100
0010
0100
,
0000
1000
0001
1000
,
0000
0100
0001
0100
,
0000
0010
1000
0010
,
0000
0100
0001
0100
,
0001
0010
1000
0010
,
1000
0010
1000
0010
,
1000
2020
0000
0000
,
3030
1000
0010
1000
,
0000
0001
0100
0101
,
0000
0010
1000
1010
,
0000
0100
0001
0101
,
0000
0010
1000
1010
,
0000
0100
0010
0110
,
0000
0001
0100
0101
,
0000
1000
0010
1010
,
0000
0100
0001
0101
,
0000
0010
0001
0011
,
0000
1000
0010
1010
,
0000
0100
0001
0101
,
0000
0010
1000
1010
,
0000
0100
0010
0110
,
0000
1000
0010
1010
,
0000
1000
0001
1001
,
0000
0001
0100
0001
,
0000
1000
0010
1000
,
0000
0100
0001
0100
,
0000
0001
1000
0001
,
0000
1000
0010
1000
,
0010
0100
0001
0100
,
0001
0010
1000
0010
,
1000
2020
0000
3030
,
0000
1000
0100
1000
,
0100
0001
0100
0001
,
0010
1000
0010
1000
,
0100
0001
0100
0001
,
0010
1000
0010
1000
,
0100
0001
0100
0001
,
0010
1000
0010
1000
,
0010
0001
0100
0001
,
0100
1000
0001
1000
,
0001
0100
0001
0100
,
0001
0010
1000
0010
,
1000
0100
0001
0100
,
0001
0100
0002
1003
,
0010
1000
0010
0100
,
0001
0100
0001
0100
,
0001
1000
0010
1000
,
0010
2000
0000
0000
,
0000
3002
0000
0000
,
0000
2003
0000
0000
,
0000
3002
0000
0000
,
0000
2003
0000
0000
,
0000
0000
0000
0000
,
0002
3003
0000
0000
;

//---------------dance-single - Destrier75----------------
#NOTES:
     dance-single:
     Destrier75:
     Beginner:
     2:
     0.184,0.187,0.026,0.052,0.000:
0000
0000
0000
0000
,
0000
0000
0000
0000
,
0000
0000
0000
0000
,
0000
0000
0000
0000
,
0000
0000
0000
0000
,
0000
1000
0000
1000
,
2000
0000
0000
0000
,
3000
0001
0000
0001
,
0002
0000
0000
0000
,
0003
0100
0000
0100
,
0000
0010
0000
0010
,
0000
0100
0000
0100
,
0000
0010
0000
0010
,
0000
1000
0000
1000
,
0000
0001
0000
0001
,
0000
1000
1000
1000
,
0000
2002
0000
0000
,
3003
1000
0000
1000
,
0000
0001
0001
0001
,
0000
1000
1000
1000
,
0000
0010
0010
0010
,
0000
0100
0100
0100
,
0000
0010
0010
0010
,
0000
0100
0100
0100
,
0000
0001
0001
0001
,
0000
1000
1000
1000
,
0000
0001
0001
0001
,
0000
1000
1000
1000
,
0000
0010
0010
0010
,
0000
0100
0100
0100
,
0000
0001
0001
0001
,
0000
1000
1000
1000
,
0000
0001
0001
0001
,
0000
1000
0000
1000
,
0000
0001
0000
0001
,
0000
0100
0000
0100
,
0000
0010
0000
0010
,
0000
1000
1000
1000
,
0000
0001
0001
0001
,
0000
1000
1000
1000
,
0000
2002
0000
3003
,
0000
1000
1000
1000
,
0000
0010
0010
0010
,
0000
0100
0100
0100
,
0000
0001
0001
0001
,
0000
1000
1000
1000
,
0000
0001
0001
0001
,
0000
1000
1000
1000
,
0000
0010
0010
0010
,
0000
0100
0100
0100
,
0000
0001
0001
0001
,
0000
1000
1000
1000
,
0000
0010
0010
0010
,
0000
0000
0000
0110
,
0000
0100
0100
0100
,
0000
0001
0001
0001
,
0000
1000
1000
1000
,
0000
0001
0000
0000
,
0000
0001
0000
0000
,
0000
1000
0000
0000
,
0000
1000
0000
0000
,
0000
0001
0000
0000
;
