#TITLE:Es rappelt im Karton;
#SUBTITLE:;
#ARTIST:Pixie Parist;
#TITLETRANSLIT:;
#SUBTITLETRANSLIT:;
#ARTISTTRANSLIT:;
#CREDIT:;
#BANNER:Es rappelt im Karton.png;
#BACKGROUND:Es rappelt im Karton-bg.png;
#LYRICSPATH:;
#CDTITLE:;
#MUSIC:Es rappelt im Karton.ogg;
#OFFSET:0.680;
#SAMPLESTART:54.160;
#SAMPLELENGTH:15.000;
#SELECTABLE:YES;
#BPMS:0.000=125.000;
#STOPS:;
#BGCHANGES:1.417=Es Rappelt Im Karton.avi=1.000=1=1=0,
99999=-nosongbg-=1.000=0=0=0 // don't automatically add -songbackground-
;

//---------------dance-single - Destrier75----------------
#NOTES:
     dance-single:
     Destrier75:
     Hard:
     11:
     0.416,0.334,0.265,0.000,0.079:
0000
0000
0000
0000
,
0000
0000
0000
0000
,
0000
0000
0000
0000
,
0000
0000
0000
0000
,
0000
0000
0000
0000
0000
0100
0010
0100
,
0010
0000
0000
0000
0010
0000
0000
0000
1000
0000
0000
0000
0010
0000
0000
0100
,
0000
0000
0110
0000
0000
0000
0000
0000
1000
0000
0010
0000
1000
0000
0000
0010
,
0000
0000
1000
0000
1010
0000
0000
0000
0110
0000
0000
0000
0001
0000
0000
1000
,
0000
1001
0000
0000
0000
0100
0010
0100
,
0010
0000
0100
0000
0010
0000
0000
0000
1010
0000
0000
0000
0010
0000
0000
0001
,
0000
0000
1010
0000
0000
0000
0000
0000
0100
0000
0001
0000
0100
0000
0000
0010
,
0000
0000
1000
0000
1010
0000
0000
0000
0010
0000
0000
0000
0100
0000
0000
0010
,
0000
0110
0000
0000
1000
0010
1000
0010
,
1000
0000
1000
0001
1000
0010
1000
0000
,
0010
0000
1000
0001
1000
0010
1000
0000
,
0010
0000
0100
0001
0100
0010
0100
0000
,
0010
0000
0100
0010
0100
0010
0100
0000
,
0001
0000
1000
0010
1000
0010
1000
0000
,
0010
0000
0100
0001
0100
0010
0100
0000
,
0001
0000
1000
0010
1000
0100
1000
0000
,
0010
0000
0100
0001
0100
0010
0100
0000
,
0010
0000
0100
0001
0100
0010
0100
0000
,
1000
0000
0100
0001
0100
0010
1000
0000
,
0100
0000
0001
0100
0001
0100
0010
0000
,
0100
0000
1000
0010
1000
0100
0010
0000
,
0001
0000
0100
0010
0100
0001
0100
0000
,
0010
0000
0100
0010
1000
0001
0100
0000
,
0001
0000
1000
0010
1000
0010
1000
0000
,
0100
0000
0010
0000
0000
0010
1000
0100
,
0010
0000
0001
0000
1000
0000
0000
0000
1001
0000
0000
0000
0001
0000
0000
0100
,
0000
0000
0110
0000
0000
0000
0000
0000
0010
0000
0100
0000
0010
0000
0000
0100
,
0000
0000
0010
0000
0110
0000
0000
0000
1000
0000
0000
0000
1010
0000
0000
0010
,
0000
1010
0000
0000
0000
1000
0010
1000
,
0010
0000
0100
0000
0010
0000
0000
0000
0011
0000
0000
0000
1000
0000
0000
0010
,
0000
0000
1010
0000
0000
0000
0000
0000
1000
0000
0001
0000
1000
0000
0000
0010
,
0000
0000
1000
0000
1010
0000
0000
0000
0010
0000
0000
0000
0101
0000
0000
0010
,
0000
0110
0000
0000
0000
1000
0010
1000
,
0010
0000
0100
0010
0100
0010
0100
0000
,
0001
0000
1000
0001
1000
0001
1000
0000
,
0100
0000
1000
0100
1000
0100
1000
0000
,
0010
0000
0001
0100
0001
0100
0001
0000
,
0100
0000
1000
0010
1000
0010
1000
0000
,
0100
0000
0010
0100
0010
0100
0010
0000
,
0001
0000
1000
0001
1000
0001
1000
0000
,
0001
0000
0100
0010
0100
0010
0100
0000
,
0001
0000
1000
0010
1000
0010
1000
0000
,
0010
0000
0100
0001
0100
0001
0100
0000
,
0010
0000
1000
0010
1000
0010
1000
0000
,
0100
0000
0010
0100
0010
0100
0010
0000
,
0001
0000
1000
0010
1000
0010
1000
0000
,
0001
0000
0100
0001
0100
0001
0100
0000
,
0010
0000
1000
0010
1000
0010
1000
0000
,
0010
0000
0100
0000
0000
0010
0100
0010
,
0100
0000
0010
0000
0110
0000
0000
0000
0010
0000
0000
0000
1010
0000
0000
1000
,
0000
0000
1010
0000
0000
0000
0000
0000
0100
0000
0010
0000
0100
0000
0000
0010
,
0000
0000
0100
0000
0110
0000
0000
0000
0010
0000
0000
0000
0101
0000
0000
0001
,
0000
0101
0000
0000
0000
1000
0010
1000
,
0010
0000
1000
0000
1010
0000
0000
0000
0010
0000
0000
0000
1001
0000
0000
0001
,
0000
0000
0101
0000
0000
0000
0000
0000
0100
0000
0001
0000
0100
0000
0000
0010
,
0000
0000
0100
0000
0110
0000
0000
0000
0010
0000
0000
0000
1010
0000
0000
0010
,
0000
1010
0000
0000
0000
1000
0001
1000
,
0001
0000
1000
0000
0001
0000
0000
0000
0101
0000
0000
0000
0010
0000
0000
0010
,
0000
0110
0000
0000
0000
0000
0000
0000
;

//---------------dance-single - Destrier75----------------
#NOTES:
     dance-single:
     Destrier75:
     Medium:
     7:
     0.332,0.282,0.000,0.000,0.000:
0000
0000
0000
0000
,
0000
0000
0000
0000
,
0000
0000
0000
0000
,
0000
0000
0000
0000
,
0000
0000
0000
0000
,
0000
0000
1000
0001
1000
0000
0010
0000
,
1000
0000
0010
0000
0010
0100
0010
0000
,
0100
0010
0100
0001
,
1000
0001
1000
0000
0010
0000
1000
0000
,
0010
0000
0100
0010
0100
0000
0001
0000
,
0100
0000
0010
1000
0010
0000
0100
0000
,
0001
0000
0100
0000
0010
1000
0010
0000
,
0100
0000
0010
0000
1000
0000
0100
0001
,
0100
0000
1000
0010
1000
0000
0100
0000
,
0010
0000
0100
0010
0100
0000
0001
0000
,
0100
0000
0001
0100
0001
0000
1000
0000
,
0010
0000
1000
0010
1000
0000
0100
0000
,
0010
0000
0100
0010
0100
0000
0001
0000
,
0100
0000
0001
0100
0001
0000
1000
0000
,
0010
0000
1000
0010
1000
0000
0100
0000
,
0010
0000
0100
0010
0100
0000
0001
0000
,
1000
0000
0001
0100
0001
0000
0010
0000
,
1000
0000
0100
0010
0100
0000
0010
0000
,
1000
0000
0100
0001
0100
0000
0010
0000
,
1000
0000
0100
0001
0100
0000
0010
0000
,
0100
0000
0001
0100
0001
0000
1000
0000
,
0010
0000
1000
0010
1000
0000
0001
0000
,
0100
0000
0010
0100
0010
0000
1000
0000
,
0001
0000
0100
0001
0100
0000
0100
0000
,
0010
0000
1000
0010
1000
0000
0100
0000
,
0001
0000
0100
0000
0001
1000
0001
0000
,
0010
0000
0100
0000
0010
0000
1000
0010
,
1000
0100
0001
0100
,
0010
0100
0010
0000
1000
0000
0001
0000
,
0100
0000
0001
0100
0001
0000
0100
0000
,
0010
0000
1000
0000
0100
0010
0100
0000
,
0001
0000
0100
0000
0010
0000
1000
0010
,
1000
0000
0100
0010
0100
0000
1000
0000
,
0001
0000
0100
0001
0100
0000
0010
0000
,
1000
0000
0100
0010
0100
0000
0001
0000
,
0100
0000
0010
1000
0010
0000
0100
0000
,
0001
0000
0100
0010
0100
0000
0010
0000
,
1000
0000
0100
0001
0100
0000
1000
0000
,
0001
0000
0100
0001
0100
0000
0010
0000
,
1000
0000
0100
0001
0100
0000
0010
0000
,
0100
0000
1000
0001
1000
0000
0010
0000
,
0001
0000
0100
0001
0100
0000
0010
0000
,
1000
0000
0100
0010
0100
0000
0001
0000
,
0100
0000
1000
0010
1000
0000
0100
0000
,
0001
0000
0100
0001
0100
0000
0010
0000
,
1000
0000
0100
0010
0100
0000
0001
0000
,
0100
0000
0001
0100
0001
0000
1000
0000
,
0010
0000
0100
0010
0100
0000
0010
0000
,
0010
0000
0100
0010
0100
0000
0010
0000
,
1000
0000
0010
0000
0100
0010
0100
0000
,
0001
0000
0100
0000
0001
0000
0100
0001
,
0100
0001
1000
0010
,
0100
0010
0100
0000
0001
0000
1000
0000
,
0010
0000
0010
0100
0010
0000
0001
0000
,
1000
0000
0010
0000
0100
0001
0100
0000
,
0001
0000
0100
0000
1000
0000
0010
1000
,
0010
0100
0010
0100
,
0010
0000
0000
0000
;

//---------------dance-single - Destrier75----------------
#NOTES:
     dance-single:
     Destrier75:
     Easy:
     4:
     0.220,0.230,0.000,0.000,0.000:
0000
0000
0000
0000
,
0000
0000
0000
0000
,
0000
0000
0000
0000
,
0000
0000
0000
0000
,
0000
0000
0000
0000
,
0000
0100
0010
0100
,
0010
0001
1000
0001
,
1000
0100
0001
0100
,
0001
0010
1000
0010
,
1000
0100
0010
0100
,
0010
0001
0100
0001
,
0100
0010
1000
0010
,
1000
0100
0000
0100
,
0000
0010
0100
0010
,
0000
0100
0010
0100
,
0000
1000
0001
1000
,
0000
0001
1000
0001
,
0000
0100
0001
0100
,
0000
0010
1000
0010
,
0000
0100
0001
0100
,
0000
1000
0001
1000
,
0000
0100
0001
0100
,
0000
0010
1000
0010
,
0000
0100
0010
0100
,
0000
0001
0100
0001
,
0000
1000
0100
1000
,
0000
0100
0001
0100
,
0000
0010
0100
0010
,
0000
1000
0010
1000
,
0000
0100
0010
0100
,
0010
0001
1000
0001
,
1000
0010
1000
0010
,
1000
0100
0001
0100
,
0001
0010
1000
0010
,
1000
0001
0100
0001
,
0100
1000
0001
1000
,
0001
1000
0000
0010
,
0000
0100
0000
0100
,
0000
0001
0000
0001
,
0000
1000
0000
1000
,
0000
0001
0000
0001
,
0000
1000
0001
1000
,
0000
0010
0100
0010
,
0000
1000
0001
1000
,
0000
0100
0010
0100
,
0000
0001
1000
0001
,
0000
0100
0001
0100
,
0000
1000
0010
1000
,
0000
0100
0010
0100
,
0000
0001
1000
0001
,
0000
1000
0010
1000
,
0000
0100
0010
0100
,
0000
0010
0100
0010
,
0000
1000
0010
1000
,
0010
0100
0001
0100
,
0001
0100
0010
0100
,
0010
1000
0100
1000
,
0100
0001
0100
0001
,
0100
0010
1000
0010
,
1000
0100
0001
0100
,
0001
1000
0010
1000
,
0010
0100
0000
1000
;

//---------------dance-single - Destrier75----------------
#NOTES:
     dance-single:
     Destrier75:
     Beginner:
     2:
     0.173,0.153,0.000,0.000,0.000: // measure 1
0000
0000
0000
0000
,  // measure 2
0000
0000
0000
0000
,  // measure 3
0000
0000
0000
0000
,  // measure 4
0000
0000
0000
0000
,  // measure 5
0000
0000
0000
0000
,  // measure 6
0000
1000
0000
1000
,  // measure 7
0000
0001
0000
0001
,  // measure 8
0000
0100
0000
0100
,  // measure 9
0000
0010
0000
0010
,  // measure 10
0000
1000
0000
1000
,  // measure 11
0000
0001
0000
0001
,  // measure 12
0000
1000
0000
1000
,  // measure 13
0000
0001
0000
0001
,  // measure 14
0000
0100
0100
0100
,  // measure 15
0000
0010
0010
0010
,  // measure 16
0000
0100
0100
0100
,  // measure 17
0000
0010
0010
0010
,  // measure 18
0000
1000
1000
1000
,  // measure 19
0000
0001
0001
0001
,  // measure 20
0000
1000
1000
1000
,  // measure 21
0000
0001
0001
0001
,  // measure 22
0000
0100
0100
0100
,  // measure 23
0000
0010
0010
0010
,  // measure 24
0000
0100
0100
0100
,  // measure 25
0000
0010
0010
0010
,  // measure 26
0000
1000
1000
1000
,  // measure 27
0000
0001
0001
0001
,  // measure 28
0000
1000
1000
1000
,  // measure 29
0000
0001
0001
0001
,  // measure 30
0000
1000
0000
1000
,  // measure 31
0000
0100
0000
0100
,  // measure 32
0000
0010
0000
0010
,  // measure 33
0000
0001
0000
0001
,  // measure 34
0000
0010
0000
0010
,  // measure 35
0000
0100
0000
0100
,  // measure 36
0000
1000
0000
1000
,  // measure 37
0000
0001
0000
0001
,  // measure 38
0000
1000
1000
1000
,  // measure 39
0000
0001
0001
0001
,  // measure 40
0000
1000
1000
1000
,  // measure 41
0000
0001
0001
0001
,  // measure 42
0000
0100
0100
0100
,  // measure 43
0000
0010
0010
0010
,  // measure 44
0000
0100
0100
0100
,  // measure 45
0000
0010
0010
0010
,  // measure 46
0000
0100
0100
0100
,  // measure 47
0000
0010
0010
0010
,  // measure 48
0000
0100
0100
0100
,  // measure 49
0000
0010
0010
0010
,  // measure 50
0000
1000
1000
1000
,  // measure 51
0000
0001
0001
0001
,  // measure 52
0000
1000
1000
1000
,  // measure 53
0000
0001
0001
0001
,  // measure 54
0000
0001
0000
0001
,  // measure 55
0000
0100
0000
0100
,  // measure 56
0000
0010
0000
0010
,  // measure 57
0000
1000
0000
1000
,  // measure 58
0000
0100
0000
0100
,  // measure 59
0000
1000
0000
1000
,  // measure 60
0000
1000
0000
1000
,  // measure 61
0000
0001
0000
0001
,  // measure 62
0000
0100
0000
0100
;
