#TITLE:Energy Drink;
#SUBTITLE:;
#ARTIST:Virtual Riot;
#TITLETRANSLIT:;
#SUBTITLETRANSLIT:;
#ARTISTTRANSLIT:;
#CREDIT:;
#BANNER:Energy Drink.png;
#BACKGROUND:Energy Drink-bg.png;
#LYRICSPATH:;
#CDTITLE:;
#MUSIC:Energy Drink.ogg;
#OFFSET:0.460;
#SAMPLESTART:58.080;
#SAMPLELENGTH:15.000;
#SELECTABLE:YES;
#BPMS:0.000=128.000;
#STOPS:;
#BGCHANGES:;

//---------------dance-single - Destrier75----------------
#NOTES:
     dance-single:
     Destrier75:
     Beginner:
     2:
     0.157,0.156,0.030,0.030,0.000: // measure 1
0000
0000
0000
0000
,  // measure 2
0000
0000
0000
0000
,  // measure 3
0000
0000
0000
0000
,  // measure 4
0000
0000
0000
0000
,  // measure 5
0000
1000
0000
1000
,  // measure 6
0000
0001
0000
0001
,  // measure 7
0000
1000
0000
1000
,  // measure 8
0000
0001
0000
0001
,  // measure 9
0000
0100
0100
0100
,  // measure 10
0000
0010
0010
0010
,  // measure 11
0000
0100
0100
0100
,  // measure 12
0000
0010
0010
0010
,  // measure 13
0000
1000
1000
1000
,  // measure 14
0000
0001
0001
0001
,  // measure 15
0000
1000
1000
1000
,  // measure 16
0000
0001
0001
0001
,  // measure 17
0000
2002
0000
0000
,  // measure 18
0000
0000
0000
0000
,  // measure 19
0000
0000
0000
0000
,  // measure 20
0000
0000
0000
0000
,  // measure 21
0000
0000
0000
0000
,  // measure 22
0000
0000
0000
0000
,  // measure 23
0000
0000
0000
0000
,  // measure 24
0000
0000
0000
0000
,  // measure 25
3003
1000
0000
1000
,  // measure 26
0000
0001
0000
0001
,  // measure 27
0000
1000
0000
1000
,  // measure 28
0000
0001
0000
0001
,  // measure 29
0000
1000
1000
1000
,  // measure 30
0000
0001
0001
0001
,  // measure 31
0000
0100
0000
0100
,  // measure 32
0000
0110
0000
0110
,  // measure 33
0000
1000
1000
1000
,  // measure 34
0000
0001
0001
0001
,  // measure 35
0000
0100
0100
0100
,  // measure 36
0000
0010
0010
0010
,  // measure 37
0000
1000
1000
1000
,  // measure 38
0000
0001
0001
0001
,  // measure 39
0000
0100
0100
0100
,  // measure 40
0000
0010
0010
0010
,  // measure 41
0000
1000
1000
1000
,  // measure 42
0000
0001
0001
0001
,  // measure 43
0000
1000
1000
1000
,  // measure 44
0000
0001
0001
0001
,  // measure 45
0000
0100
0100
0100
,  // measure 46
0000
0010
0010
0010
,  // measure 47
0000
1000
1000
1000
,  // measure 48
0000
0001
0001
0001
,  // measure 49
0000
0100
0000
0100
,  // measure 50
0000
0010
0000
0010
,  // measure 51
0000
1000
0000
1000
,  // measure 52
0000
0001
0000
0001
,  // measure 53
0000
0100
0000
0100
,  // measure 54
0000
0010
0000
0010
,  // measure 55
0000
1000
0000
1000
,  // measure 56
0000
0001
0000
0001
,  // measure 57
0000
0100
0100
0100
,  // measure 58
0000
0001
0001
0001
,  // measure 59
0000
1000
1000
1000
,  // measure 60
0000
0010
0010
0010
,  // measure 61
0000
0100
0100
0100
,  // measure 62
0000
0001
0001
0001
,  // measure 63
0000
1000
1000
1000
,  // measure 64
0000
0001
0001
0001
,  // measure 65
0000
0220
0000
0000
,  // measure 66
0000
0000
0000
0000
,  // measure 67
0000
0000
0000
0000
,  // measure 68
0000
0000
0000
0000
,  // measure 69
0000
0000
0000
0000
,  // measure 70
0000
0000
0000
0000
,  // measure 71
0000
0330
0000
0000
;

//---------------dance-single - Destrier75----------------
#NOTES:
     dance-single:
     Destrier75:
     Easy:
     4:
     0.233,0.338,0.037,0.030,0.000:
0000
0000
0000
0000
,
0000
0000
0000
0000
,
0000
0000
0000
0000
,
0000
0000
0000
0000
,
0000
1000
1000
0001
,
0001
0100
0100
0010
,
0010
1000
1000
0001
,
0001
1000
1000
0001
,
0001
0100
0100
0010
,
0010
0001
0001
1000
,
1000
0001
0001
0100
,
0100
0010
0010
1000
,
1000
0001
0001
0100
,
0100
0010
0010
1000
,
1000
0001
0001
1000
,
1000
0001
0001
0100
,
0100
2000
0000
0000
,
0000
0000
0000
0000
,
0000
0000
0000
0000
,
0000
0000
0000
0000
,
0000
3002
0000
0000
,
0000
0000
0000
0000
,
0000
0000
0000
0000
,
0000
0000
0000
0000
,
0000
1003
1000
1000
,
1000
0001
0001
0001
,
0001
0100
0100
0100
,
0100
0010
0010
0010
,
0010
0100
0100
0100
,
0100
1000
1000
1000
,
1000
0001
0001
0001
,
0001
1001
1001
1001
,
1001
1000
0010
1000
,
0010
0100
0001
0100
,
0001
0010
1000
0010
,
1000
0100
0001
0100
,
0001
0010
1000
0010
,
1000
0100
0001
0100
,
0001
0010
1000
0010
,
1000
0100
0001
0100
,
0001
1000
0010
1000
,
0010
0100
0001
0100
,
0001
0010
1000
0010
,
1000
0100
0001
0100
,
0001
1000
0010
1000
,
0010
0100
0001
0100
,
0001
1000
0010
1000
,
0010
0100
0001
0100
,
0001
1000
1000
0001
,
0001
0100
0100
0010
,
0010
1000
1000
0001
,
0001
0100
0100
0010
,
0010
1000
1000
0001
,
0001
0100
0100
0010
,
0010
1000
1000
0001
,
0001
0100
0100
0001
,
0001
1000
1000
0001
,
0001
0100
0100
0010
,
0010
1000
1000
0001
,
0001
0100
0100
0010
,
0010
1000
1000
0001
,
0001
0100
0100
0010
,
0010
1000
1000
0001
,
0001
1000
1000
0001
,
0001
2002
0000
0000
,
0000
0000
0000
0000
,
0000
0000
0000
0000
,
0000
0000
0000
0000
,
0000
0000
0000
0000
,
0000
0000
0000
0000
,
0000
3003
0000
0000
;

//---------------dance-single - Destrier75----------------
#NOTES:
     dance-single:
     Destrier75:
     Medium:
     8:
     0.324,0.364,0.007,0.096,0.022:
0000
0000
0000
0000
,
0000
0000
0000
0000
,
0000
0000
0000
0000
,
0000
0000
0000
0000
,
0000
0000
1000
0010
1000
0000
0100
0000
,
0010
0000
0001
0100
0001
0000
1000
0000
,
0010
0000
1000
0001
1000
0000
0001
0000
,
0100
0000
0001
0100
0001
0000
1000
0000
,
0010
0000
1000
0001
1000
0001
1000
0000
,
0010
0000
0100
0010
0100
0010
0100
0000
,
0001
0000
1000
0010
1000
0010
1000
0000
,
0010
0000
0100
0001
0100
0001
0100
0000
,
0010
0000
1000
0010
1000
0010
1000
0000
,
0010
0000
0100
0010
0100
0010
0100
0000
,
0001
0000
1000
0001
1000
0001
1000
0000
,
0001
0000
0100
0001
0100
0001
0100
0000
,
0001
2000
0000
0000
,
0000
0000
0000
0000
,
0000
3002
0000
0000
,
0000
0000
0000
0000
,
0000
2003
0000
0000
,
0000
0000
0000
0000
,
0000
3002
0000
0000
,
0000
0000
0000
0000
,
0000
0000
1003
0010
1000
0000
0100
0001
,
0100
0000
1000
0001
1000
0000
0100
0001
,
0100
0000
0010
1000
0010
0000
0100
0010
,
0100
0000
0001
1000
0001
0000
0100
0001
,
0100
0000
0010
1000
0010
1000
0010
0000
,
0100
0000
0100
0001
0100
0001
0100
0000
,
0001
0000
1000
0001
1000
0001
1000
0001
,
1000
0000
0000
0000
0001
0000
0000
1000
0000
0000
0001
0000
0000
1000
0000
0000
,
0001
1000
0002
0000
1003
0010
1000
0000
,
0010
0000
0200
0000
0310
0001
0010
0000
,
1000
0000
1000
0001
1000
0000
0010
0000
,
1000
0000
0100
0001
0100
0000
0010
0000
,
0100
0000
0002
0000
1003
0001
1000
0000
,
0010
0000
2000
0000
3100
0010
0100
0000
,
0010
0000
0100
0001
0100
0000
0010
0000
,
1000
0000
0000
0000
1000
0000
0000
0001
0000
0000
1000
0000
0000
0001
0000
0000
,
1000
0001
2000
0000
3010
0100
0010
0000
,
0100
0000
0001
0100
0001
0000
0010
0000
,
1000
0000
0100
0010
0100
0000
0001
0000
,
1000
0000
0100
0001
0100
0000
0010
0000
,
1000
0000
0020
0000
1030
0001
1000
0000
,
0100
0000
0002
0000
1003
0001
1000
0000
,
0100
0000
0010
1000
0010
0000
0100
0000
,
0010
0000
0000
0000
1000
0000
0000
0010
0000
0000
1000
0000
0000
0010
0000
0000
,
1000
0001
1000
0010
1000
0000
1000
0000
,
0010
0000
0100
0001
0100
0000
0100
0000
,
1000
0000
0100
0010
0100
0000
0100
0000
,
0010
0000
0001
1000
0001
0000
0001
0000
,
0010
0000
1000
0010
1000
0000
1000
0000
,
0100
0000
0001
0100
0001
0000
0001
0000
,
0010
0000
1000
0010
1000
0000
1000
0000
,
0010
0000
0100
0010
0100
0000
0100
0000
,
0001
0000
1000
0001
1000
0001
1000
0000
,
0010
0000
1000
0010
1000
0010
1000
0000
,
0100
0000
0001
0100
0001
0100
0001
0000
,
0010
0000
1000
0010
1000
0010
1000
0000
,
0001
0000
0100
0001
0100
0001
0100
0000
,
0010
0000
1000
0010
1000
0010
1000
0000
,
0100
0000
0010
0100
0010
0100
0010
0000
,
0100
0000
0001
0100
0001
0100
0001
0000
,
0010
2002
0000
0000
,
0000
0000
0000
0000
,
0000
0000
0000
0000
,
0000
0000
0000
0000
,
0000
0000
0000
0000
,
0000
0000
0000
0000
,
0000
3003
0000
0000
;

//---------------dance-single - Destrier75----------------
#NOTES:
     dance-single:
     Destrier75:
     Hard:
     13:
     0.517,0.676,0.141,0.319,0.348:
0000
0000
0000
0000
,
0000
0000
0000
0000
,
0000
0000
0000
0000
,
0000
0000
0000
0000
,
0000
0000
0000
0000
2000
0000
0000
0000
3010
0000
0100
0010
0000
0100
0010
0000
,
0100
0000
0001
0000
2000
0000
0000
0000
3010
0000
0100
0001
0000
0100
0001
0000
,
0010
0000
0100
0000
2000
0000
0000
0000
3010
0000
0100
0001
0000
0100
0001
0000
,
0010
0100
2000
0000
3010
0100
0001
1000
,
0100
0000
0010
0000
0200
0000
0000
0000
0301
0000
0100
0001
0000
0100
0001
0000
,
1000
0000
0010
0000
2000
0000
0000
0000
3100
0000
0010
0100
0000
0010
0100
0000
,
1000
0000
0001
0000
2000
0000
0000
0000
3001
0000
1000
0001
0000
1000
0001
0000
,
0010
0000
0100
0000
2000
0000
0000
0000
3001
0000
0000
1000
0000
0001
1000
0001
,
1000
0000
0010
0000
2000
0000
0000
0000
3001
0000
0100
0001
0000
0100
0001
0000
,
0010
0000
0100
0000
2000
0000
0000
0000
3001
0000
0100
0001
0000
0100
0001
0000
,
0010
0000
1000
0000
0002
0000
0000
0000
0103
0000
0010
0100
0000
0010
0100
0000
,
0001
1000
0002
0000
0103
0010
0100
0001
,
1000
0100
1000
0100
2000
0000
0000
0000
0000
0000
0000
0000
0000
0000
0000
0000
,
0000
3002
0000
0000
,
0000
0203
0000
0000
,
0000
0320
0000
0000
,
0000
2030
0000
0000
,
0000
3002
0000
0000
,
0000
2003
0000
0000
,
0000
3020
0000
0000
,
0000
0000
0000
0000
0130
0000
0000
1000
0000
0000
0100
0000
0000
1000
0000
0000
,
0100
0000
0000
0010
0000
0000
0001
0000
0000
0010
0000
0000
0001
0000
0000
0010
,
0000
0000
0001
0000
1000
0000
0000
0001
0000
0000
1000
0000
0000
0001
0000
0000
,
1000
0000
0000
0100
0000
0000
1000
0000
0000
0100
0000
0000
1000
0000
0000
0100
,
0000
1000
0001
0010
0100
0001
1000
0001
,
1000
0100
0010
0001
0100
0001
0100
0001
,
0100
0000
0001
0000
1000
0010
1000
0010
1000
0100
1000
0100
1000
0001
1000
0001
,
1000
0001
1000
0000
1001
0000
0000
1010
0000
0000
0110
0000
0000
1001
0000
0000
,
1000
0010
2000
0000
3100
0010
0100
0001
,
0100
0001
2000
0000
3000
0001
0100
0010
,
1000
0000
0001
0000
1000
0001
1000
0000
1000
0010
1000
0010
1000
0000
0010
0000
,
0001
1000
0010
0100
0010
1000
0001
0100
,
0010
0100
0002
0000
1003
0010
2000
0000
,
3010
0100
0020
0000
0031
0010
0100
1000
,
0100
0000
0001
0000
1000
0001
1000
0000
0001
1000
0001
1000
0001
0000
0100
0000
,
0010
0000
1000
0000
1001
0000
0000
1010
0000
0000
0110
0000
0000
0101
0000
0000
,
1001
1000
0002
0000
1003
0010
1000
0010
,
0100
0001
0200
0000
0301
0010
1000
0001
,
1000
0000
0010
0000
1000
0010
1000
0000
1000
0010
1000
0010
1000
0000
0100
0000
,
0001
0000
1000
0000
0001
0000
0010
0000
1000
0001
1000
0001
1000
0000
0100
0000
,
0010
0100
2000
0000
3001
0100
0010
0001
,
1000
0010
2000
0000
3100
0010
1000
0001
,
1000
0000
0001
0000
1000
0001
1000
0000
0100
0001
0100
0001
0100
0000
0010
0000
,
1000
0000
0010
0000
1000
0000
0000
1010
0000
0000
0110
0000
0000
0101
0000
0000
,
1001
0000
0001
0000
1000
0000
0010
0000
1000
0000
0010
1000
0000
0010
1000
0000
,
0100
0000
0010
0000
0002
0000
0000
0000
0103
0000
0001
0100
0000
0001
0100
0000
,
0010
0000
0100
0000
2000
0000
0000
0000
3001
0000
1000
0001
0000
1000
0001
0000
,
0100
0000
0010
0000
0002
0000
0000
0000
1003
0000
0010
0000
1000
0010
1000
0010
,
1000
0000
0001
0000
2000
0000
0000
0000
3001
0000
0010
0001
0000
0010
0001
0000
,
1000
0000
0100
0000
0002
0000
0000
0000
0103
0000
1000
0100
0000
1000
0100
0000
,
0010
0000
0001
0000
2000
0000
0000
0000
3010
0000
0100
0010
0000
0100
0010
0000
,
0001
0010
2000
0000
3001
0100
1000
0001
,
1000
0001
1000
0001
2000
0000
0000
0000
3010
0000
0100
0010
0000
0100
0010
0000
,
0001
0000
1000
0000
0020
0000
0000
0000
0130
0000
0001
0100
0000
0001
0100
0000
,
0010
0000
1000
0000
0020
0000
0000
0000
0130
0000
0001
0100
0000
0001
0100
0000
,
1000
0010
2000
0000
3100
0010
1000
0001
,
1000
0000
0010
0000
0100
0000
0010
0000
1000
0000
0010
1000
0000
0010
1000
0000
,
0001
0000
1000
0000
0002
0000
0000
0000
0103
0000
0100
0001
0000
0100
0001
0000
,
1000
0000
0001
0000
0100
0000
0010
0000
1000
0001
1000
0001
1000
0100
1000
0100
,
1000
0010
1000
0010
1000
0000
0000
1010
0000
0000
0110
0000
0000
0101
0000
0000
,
0110
0110
0220
0000
0000
0000
0000
0000
,
0000
0000
0000
0000
,
0000
0000
0000
0000
,
0000
0000
0000
0000
,
0000
0000
0000
0000
,
0000
0000
0000
0000
,
0000
0330
0000
0000
;
