#TITLE:Enemy Storm ~Dark Jungle Mix~;
#SUBTITLE:;
#ARTIST:Paul Bazooka;
#TITLETRANSLIT:;
#SUBTITLETRANSLIT:;
#ARTISTTRANSLIT:;
#CREDIT:;
#BANNER:Enemy Storm ~Dark Jungle Mix~.png;
#BACKGROUND:Enemy Storm ~Dark Jungle Mix~-bg.png;
#LYRICSPATH:;
#CDTITLE:;
#MUSIC:Enemy Storm ~Dark Jungle Mix~.ogg;
#OFFSET:0.160;
#SAMPLESTART:9.820;
#SAMPLELENGTH:15.000;
#SELECTABLE:YES;
#BPMS:0.000=170.000;
#STOPS:;
#BGCHANGES:0.438=Enemy Storm ~Dark Jungle Mix~.avi=1.000=1=1=0,
99999=-nosongbg-=1.000=0=0=0 // don't automatically add -songbackground-
;

//---------------dance-single - Destrier75----------------
#NOTES:
     dance-single:
     Destrier75:
     Challenge:
     15:
     0.793,0.945,0.345,0.387,0.425:
0000
0000
0000
0000
,
0000
0000
0000
0000
,
0000
0000
0000
0000
,
0000
0000
0000
0000
,
0000
0000
0000
0000
,
0000
0000
0000
0000
,
0000
0000
0000
0000
,
0000
0000
0000
0000
1001
0000
0000
0000
1000
0001
1000
0000
0001
0000
0000
0000
,
1001
0000
0000
0000
1000
0000
0100
0000
1000
0000
0100
0010
0100
0000
0010
0000
,
1000
0000
0001
0000
0100
0000
0001
0000
0010
0000
0001
0100
0001
0000
0010
0000
,
1000
0000
0010
0000
0100
0000
0001
0000
0010
0000
1000
0100
1000
0000
0010
0000
,
0100
0000
0001
0000
0100
0000
0001
0000
0100
0000
1000
0010
1000
0000
0100
0000
,
1000
0000
0010
0000
0100
0000
0001
0000
0010
0000
0001
0100
0001
0000
0010
0000
,
1000
0000
0010
0000
0100
0000
0001
0000
0100
0000
0010
0001
0010
0000
0100
0000
,
1000
0000
0010
0000
1000
0000
0001
0000
0100
0000
0010
0001
0010
0000
0100
0000
,
0001
0000
0100
0000
1000
0000
0010
0000
1000
0000
0010
1000
0010
0000
0100
0000
,
0010
0000
0100
0000
1000
0010
1000
0000
0100
0000
0010
0000
0100
0000
0001
0000
,
0100
0000
0101
0000
0001
1000
0001
0000
0100
0000
0010
0000
1000
0000
0010
0000
,
1000
0000
1010
0000
1000
0001
1000
0000
0100
0000
0010
0000
0100
0000
0001
0000
,
0100
0000
0101
0000
0001
1000
0001
0000
0100
0000
0010
0000
1000
0000
0010
0000
,
1000
0000
1010
0000
0010
0001
0010
0000
1000
0000
0010
0000
0100
0000
0001
0000
,
0100
0000
0101
0000
0001
0100
0001
0000
0010
0000
1000
0000
0010
0000
0100
0000
,
0010
0000
0011
0000
1000
0010
1000
0000
0100
0000
0010
0000
1000
0000
0001
0000
,
0100
0000
0101
0000
0000
0000
0000
0000
1000
0000
0001
1000
0000
0100
0000
0000
,
0001
1001
2000
0000
3020
0000
0230
0000
,
0302
0203
0320
2030
,
3020
0230
0320
0230
,
0302
0000
0000
0000
1003
0010
1000
0010
1000
0100
1000
0100
1000
0001
1000
0001
,
1000
0010
1000
0010
2000
0000
0000
0000
3020
0000
0000
0000
0230
0000
0000
0000
,
0302
2003
3020
0230
,
0302
0023
2030
3002
,
2003
0000
0000
0000
3001
0100
0001
0100
0001
0010
0001
0010
0001
1000
0001
1000
,
0001
0100
0001
0100
0002
0000
0000
0000
2003
0000
0000
0000
3020
0000
0000
0000
,
0230
0320
0032
2003
,
3020
0032
2003
3002
,
1003
2002
0000
0000
,
3003
0000
0000
0000
1000
0000
0010
1000
0010
0000
0100
0000
0001
0000
0100
0001
,
0100
0000
0010
0000
1000
0000
0001
1000
0001
0000
0100
0000
0001
0000
0100
0010
,
0100
0000
1000
0000
0010
0000
0100
0010
0100
0000
0001
0000
1000
0000
0001
1000
,
0001
1000
0001
0001
1000
1000
0001
0001
,
0100
0100
0220
0000
0000
0000
0000
0000
,
0000
0330
0000
0000
0000
0000
0000
0000
,
0000
2002
0000
0000
,
0000
3003
0000
0000
0000
0000
0000
0000
,
0000
0220
0000
0000
,
0000
0330
0000
0000
0000
0000
0000
0000
,
0000
2002
0000
0000
,
0000
3003
0100
0000
0010
0000
0100
0000
,
1001
0000
1000
0010
1000
0100
0010
0001
,
0100
0001
0100
0000
0001
0000
1000
0000
0010
0000
0100
0000
0010
0000
0100
0000
,
0010
0001
0010
0000
1000
0000
0010
0000
1000
0000
0001
0000
0100
0000
0010
0000
,
0100
0001
0100
0000
0010
0000
0100
0000
1000
0000
0001
0000
0100
0000
0010
0000
,
1000
0010
1000
0000
0100
0000
0010
0000
1000
0000
0001
0000
0100
0000
0010
0000
,
0001
0010
0001
0000
1000
0000
0010
0000
0100
0000
0001
0000
0100
0000
0001
0000
,
1000
0001
1000
0000
0100
0000
0010
0000
1000
0000
0001
0000
0100
0000
0010
0000
,
0100
0010
0100
0000
1000
0100
0010
0001
1000
0100
0010
0001
1000
0100
0010
0001
,
1000
0100
0010
0001
1000
0010
1000
0000
0100
0000
0010
0000
1000
0000
0010
0000
,
0100
0000
0001
0000
0100
0001
0100
0000
0100
0000
0010
0000
1000
0000
0001
0000
,
0100
0000
0001
0000
0100
0001
0100
0000
0010
0000
1000
0000
0100
0000
0010
0000
,
0100
0000
0001
0000
0100
0001
0100
0000
0010
0000
0100
0000
1000
0000
0010
0000
,
0010
0100
1000
1000
0010
0010
0001
0001
,
1000
0001
1000
0001
1000
0000
1000
0000
0001
0000
0001
0000
1000
0000
1000
0000
,
0010
1000
0010
1000
0010
0000
0010
0000
0001
0000
0001
0000
1000
0000
1000
0000
,
0010
1000
0010
1000
0020
0000
0000
0000
0000
0000
0000
0000
0000
0000
0000
0000
,
0030
0000
1010
0010
0011
0001
1001
1000
,
1000
0001
1000
0001
1000
0000
1000
0000
1010
0000
0010
0000
0011
0000
0001
0000
,
1000
0001
1000
0001
1000
0000
1000
0000
1001
0000
0001
0000
0101
0000
0100
0000
,
0100
0010
0100
0010
0100
0000
0100
0000
0110
0000
0010
0000
0011
0000
0001
0000
,
1001
1000
1010
0010
0011
0001
1001
1000
,
1000
0010
1000
0010
1000
0000
1000
0000
1010
0000
0010
0000
0011
0000
0010
0000
,
1000
0010
1000
0010
1000
0000
1000
0000
1010
0000
0010
0000
0011
0000
0001
0000
,
1001
0000
1000
0000
1000
0100
0010
0001
1000
0100
0010
0001
1000
0100
0010
0001
,
1000
0100
0010
0001
1000
0000
0010
0000
1000
0000
0010
1000
0010
0000
0100
0000
,
0001
0000
0101
0000
0001
0000
1000
0000
0001
0000
0100
0010
0100
0000
0010
0000
,
0100
0000
0110
0000
1000
0000
0001
0000
0100
0000
0010
0001
0010
0000
0001
0000
,
1000
0000
1001
0000
0001
0000
1000
0000
0010
0000
0100
0001
0100
0000
0010
0000
,
0010
0000
1010
0000
1000
0000
0010
1000
0010
0000
0100
0010
0100
0000
0001
0000
,
1000
0000
1001
0000
0001
0000
1000
0001
1000
0000
0100
0001
0100
0000
0001
0000
,
1000
0000
1010
0000
0010
0000
1000
0001
1000
0000
0010
1000
0010
0000
1000
0000
,
0001
0000
1001
0000
1000
0100
1000
0100
1000
0001
1000
0001
1000
0010
1000
0010
,
1000
0100
1000
0100
1000
0000
0000
0000
0000
0000
0000
0000
0000
0000
0000
0000
;

//---------------dance-single - Destrier75----------------
#NOTES:
     dance-single:
     Destrier75:
     Hard:
     13:
     0.658,0.699,0.286,0.370,0.055: // measure 1
0000
0000
0000
0000
,  // measure 2
0000
0000
0000
0000
,  // measure 3
0000
0000
0000
0000
,  // measure 4
0000
0000
0000
0000
,  // measure 5
0000
0000
0000
0000
,  // measure 6
0000
0000
0000
0000
,  // measure 7
0000
0000
0000
0000
,  // measure 8
0000
0000
0000
0000
1001
0000
0000
0000
1000
0001
1000
0000
0001
0000
0000
0000
,  // measure 9
1001
0000
1000
0010
1000
0100
1000
0100
,  // measure 10
1000
0100
1000
0010
1000
0001
1000
0001
,  // measure 11
0100
1000
0010
0001
0100
0010
1000
0001
,  // measure 12
1000
0100
0010
0001
1000
0010
1000
0010
,  // measure 13
1000
0100
0010
0001
0100
0001
0100
0010
,  // measure 14
1000
0001
1000
0100
1000
0100
0010
1000
,  // measure 15
0001
1000
0100
0010
0001
0100
0001
0010
,  // measure 16
1000
0001
1000
0001
1000
0001
1000
0001
,  // measure 17
1001
0000
1000
0010
1000
0010
1000
0010
,  // measure 18
1000
1010
0100
0001
0100
0001
0100
0001
,  // measure 19
0100
0101
0100
0010
0100
0010
0100
0010
,  // measure 20
0100
0110
1000
0010
1000
0010
1000
0010
,  // measure 21
1000
1010
0100
0001
0100
0001
0100
0001
,  // measure 22
0100
0101
0001
1000
0001
1000
0001
1000
,  // measure 23
0001
1001
1000
0010
1000
0010
1000
0010
,  // measure 24
1000
0000
1010
0000
0000
0000
0000
0000
1000
0000
0001
1000
0000
0001
0000
0000
,  // measure 25
1000
1001
2000
0000
3002
0000
0203
0000
,  // measure 26
0320
2030
3002
2003
,  // measure 27
3020
0230
0302
2003
,  // measure 28
3010
0000
0000
0000
1000
0010
1000
0000
0100
0000
0010
0000
0100
0001
0100
0000
,  // measure 29
0010
0100
0002
0000
2003
0000
3020
0000
,  // measure 30
0230
0302
0023
0230
,  // measure 31
2300
3002
2003
3020
,  // measure 32
0130
0000
0000
0000
0100
0001
0100
0000
0010
0000
1000
0000
0100
0010
0100
0000
,  // measure 33
0100
0001
2000
0000
3020
0000
0230
0000
,  // measure 34
0302
2003
3002
0203
,  // measure 35
0320
2030
3002
2003
,  // measure 36
3010
0220
0000
0330
,  // measure 37
0000
0000
1000
0010
1010
0010
0001
0010
,  // measure 38
0011
0001
1000
0001
1001
1000
0010
1000
,  // measure 39
1010
0010
0001
0010
0001
0010
0001
0010
,  // measure 40
0100
1000
0010
1000
0010
1000
0010
1000
,  // measure 41
0010
2020
0000
0000
,  // measure 42
0000
3030
0000
0000
0000
0000
0000
0000
,  // measure 43
0000
0202
0000
0000
,  // measure 44
0000
0303
0000
0000
0000
0000
0000
0000
,  // measure 45
0000
0220
0000
0000
,  // measure 46
0000
0330
0000
0000
0000
0000
0000
0000
,  // measure 47
0000
2002
0000
0000
,  // measure 48
0000
3003
0000
0000
0000
0000
0000
0000
,  // measure 49
0000
0000
1000
0010
1000
0100
1000
0010
,  // measure 50
1000
1100
0100
0001
0100
0001
0010
0100
,  // measure 51
0001
0101
1000
0001
1000
0010
0100
1000
,  // measure 52
0010
1010
0010
0100
0010
0001
1000
0001
,  // measure 53
1000
1010
0100
0010
0100
0001
1000
0001
,  // measure 54
1000
1010
0010
0100
0001
0100
0001
0100
,  // measure 55
0010
0110
1000
0001
1000
0001
1000
0001
,  // measure 56
1000
0000
1001
0000
1000
0100
1000
0000
0100
0000
0010
0000
0001
0100
0001
0000
,  // measure 57
1000
0001
1000
0100
1000
0001
1000
0100
,  // measure 58
1000
0010
0100
0001
1000
0001
1000
0100
,  // measure 59
0010
1000
0001
1000
0100
0010
0001
0100
,  // measure 60
0001
0100
0010
0100
1000
0100
0010
0001
,  // measure 61
0100
0001
1000
0100
1000
0100
1000
0100
,  // measure 62
1000
0100
0001
0100
0001
0100
0001
0100
,  // measure 63
0001
0100
0010
0100
0010
0100
0010
0100
,  // measure 64
0010
0100
0020
0000
0000
0000
0000
0000
,  // measure 65
0000
0000
1030
1000
0001
0001
0100
0100
,  // measure 66
0010
0010
1000
1000
0001
0001
0100
0100
,  // measure 67
0010
0010
1000
1000
0100
0100
0010
0010
,  // measure 68
0001
0001
1000
1000
0001
0001
0100
0100
,  // measure 69
0010
0010
1000
1000
0100
0100
0001
0001
,  // measure 70
1000
1000
0100
0100
0010
0010
1000
1000
,  // measure 71
0100
0100
0001
0001
0100
0100
0010
0010
,  // measure 72
0100
0000
0100
0000
1000
0001
1000
0000
0100
0010
0100
0000
0010
0001
0010
0000
,  // measure 73
1000
0010
1000
0000
1000
0000
0010
0000
1000
0000
0100
0000
0010
0000
0001
0000
,  // measure 74
0100
0101
0001
0100
0010
0100
0010
1000
,  // measure 75
0100
0110
0010
0100
0001
1000
0001
0100
,  // measure 76
1000
1100
0100
0010
1000
0001
1000
0010
,  // measure 77
1000
1100
0001
0100
0010
0001
0010
0100
,  // measure 78
1000
1100
0100
0010
0100
0001
0100
0010
,  // measure 79
0001
0011
1000
0010
0100
1000
0010
0100
,  // measure 80
1000
1100
0000
0000
0000
0000
0000
0000
;

//---------------dance-single - Destrier75----------------
#NOTES:
     dance-single:
     Destrier75:
     Medium:
     11:
     0.533,0.607,0.193,0.345,0.000:
0000
0000
0000
0000
,
0000
0000
0000
0000
,
0000
0000
0000
0000
,
0000
0000
0000
0000
,
0000
0000
0000
0000
,
0000
0000
0000
0000
,
0000
0000
0000
0000
,
0000
1001
0000
1001
,
0000
0000
1000
0010
1000
0010
1000
0000
,
0010
0000
0100
0001
0100
0001
0100
0000
,
0010
0000
1000
0010
1000
0010
1000
0000
,
0100
0000
0001
0100
0001
0100
0001
0000
,
0010
0000
1000
0100
1000
0100
1000
0000
,
0001
0000
0100
0001
0100
0001
0100
0000
,
0010
0000
0100
0010
0100
0010
0100
0000
,
0010
1000
1010
0010
,
0011
0000
1000
0001
1000
0001
1000
0000
,
0001
0001
1000
0010
1000
0010
1000
0000
,
0010
0010
1000
0100
1000
0100
1000
0000
,
0100
0100
0001
0100
0001
0100
0001
0000
,
0001
0001
1000
0010
1000
0010
1000
0000
,
0010
0010
0100
0010
0100
0010
0100
0000
,
0100
0100
0001
0100
0001
0100
0001
0000
,
0001
0001
0000
0000
1000
0000
0001
0000
,
1000
0002
2003
3002
,
2003
3002
2003
3002
,
2003
3002
2003
3002
,
1003
0000
0001
1000
0001
0000
1000
0001
,
1000
0200
0320
0230
,
0320
0230
0320
0230
,
0320
0230
0320
0230
,
0310
0000
0100
0010
0100
0000
0010
0100
,
0010
2000
3200
2300
,
3200
2300
3200
2300
,
3200
2300
3200
2300
,
3100
2200
0000
0000
,
3300
0000
1000
0100
0010
0000
0001
0010
,
0100
0000
1000
0100
0010
0000
0001
0010
,
0100
0000
1000
0001
1000
0000
0001
0100
,
0001
0000
0001
0100
0001
0100
0001
0100
,
0001
0100
0002
0000
0000
0000
0000
0000
,
0000
0003
0000
0000
0000
0000
0000
0000
,
0000
2000
0000
0000
,
0000
3000
0000
0000
0000
0000
0000
0000
,
0000
0002
0000
0000
,
0000
0003
0000
0000
0000
0000
0000
0000
,
0000
2000
0000
0000
,
0000
3000
0010
0000
0010
0000
0010
0000
,
0010
0000
1000
0010
1000
0010
1000
0000
,
1000
1000
0001
0100
0001
0100
0001
0000
,
0001
0001
0100
0010
0100
0010
0100
0000
,
0010
0010
1000
0100
1000
0100
1000
0000
,
0100
0100
0001
0100
0001
0100
0001
0000
,
0100
0100
0010
0100
0010
0100
0010
0000
,
0010
0010
1000
0010
1000
0010
1000
0000
,
1000
1000
0001
0000
1001
0000
1000
0000
,
1010
0000
1000
0001
1000
0000
0100
0000
,
0010
0000
0100
0001
0100
0000
0010
0000
,
1000
0000
0100
0010
0100
0000
0001
0000
,
0100
0000
0001
0100
0001
0000
0010
0000
,
0100
0000
1000
0010
1000
0000
0100
0000
,
0010
0000
0001
0100
0001
0000
0010
0000
,
1000
0000
0100
0010
0100
0000
0010
0000
,
1000
2002
0000
0000
,
3003
0000
1000
0010
1000
0010
1000
0000
,
1010
0000
0100
0010
0100
0010
0100
0000
,
0110
0000
0001
0100
0001
0100
0001
0000
,
0101
0000
1000
0010
1000
0010
1000
0000
,
1010
0000
0100
0010
0100
0010
0100
0000
,
0110
0000
0001
0100
0001
0100
0001
0000
,
0101
0000
1000
0001
1000
0001
1000
0000
,
1001
0000
0001
0001
1000
1000
0001
0001
,
1000
1000
0001
0100
0001
0100
0001
0000
,
0001
0101
1000
0010
1000
0010
1000
0000
,
1000
1010
1000
0001
1000
0001
1000
0000
,
1000
1001
0001
0100
0001
0100
0001
0000
,
0001
0101
1000
0100
0010
0001
0010
0000
,
0010
0011
0010
0100
1000
0100
0010
0000
,
0010
0110
1000
0100
0010
0001
0010
0000
,
0010
0011
1000
0001
1000
0001
1000
0001
,
1000
0001
1001
0000
0000
0000
0000
0000
;

//---------------dance-single - Destrier75----------------
#NOTES:
     dance-single:
     Destrier75:
     Easy:
     8:
     0.342,0.405,0.109,0.084,0.000:
0000
0000
0000
0000
,
0000
0000
0000
0000
,
0000
0000
0000
0000
,
0000
0000
0000
0000
,
0000
0000
0000
0000
,
0000
0000
0000
0000
,
0000
0000
0000
0000
,
0000
1001
0000
1001
,
0000
1000
1000
0010
,
0010
0100
0100
0001
,
0001
0010
0010
0100
,
0100
1000
1000
0001
,
0001
0100
0100
0010
,
0010
0001
0001
1000
,
1000
0001
0001
0010
,
0010
1000
1000
0010
,
0010
1000
0001
1000
,
0001
1000
0010
1000
,
0010
0100
0001
0100
,
0001
0100
0010
0100
,
0010
1000
0010
1000
,
0010
0100
0001
0100
,
0001
0010
1000
0010
,
1000
0100
0001
0000
,
0001
1000
0010
0001
,
0010
1000
0010
0001
,
0010
1000
0010
0001
,
0010
0000
1000
0001
1000
0001
1000
0001
,
1000
0001
0010
1000
,
0010
0001
0010
1000
,
0010
0001
0010
1000
,
0010
0000
1000
0001
1000
0001
1000
0001
,
1000
0010
0001
0010
,
1000
0010
0001
0010
,
1000
0010
0001
0010
,
1000
2002
0000
0000
,
3003
1000
1010
0010
,
0011
0001
1001
1000
,
1010
1000
1000
0001
,
0001
1000
1000
0001
,
0001
0202
0000
0000
,
0000
0303
0000
0000
0000
0000
0000
0000
,
0000
0220
0000
0000
,
0000
0330
0000
0000
0000
0000
0000
0000
,
0000
2020
0000
0000
,
0000
3030
0000
0000
0000
0000
0000
0000
,
0000
2002
0000
0000
,
0000
3003
0000
0000
0000
0000
0000
0000
,
0000
1000
1000
1000
,
1000
0001
0001
0001
,
0001
0100
0100
0100
,
0100
0010
0010
0010
,
0010
0100
0100
0100
,
0100
0001
0001
0001
,
0001
1000
1000
1000
,
1000
0001
0001
0001
,
0001
1000
0001
1000
,
0001
0100
0001
0100
,
0001
0010
1000
0010
,
1000
0100
0010
0100
,
0010
0100
0001
0100
,
0001
1000
0010
1000
,
0010
0100
0010
0100
,
0010
0110
0000
0000
,
0000
1000
1000
1000
,
1000
0001
0001
0001
,
0001
0100
0100
0100
,
0100
0010
0010
0010
,
0010
0100
0100
0100
,
0100
0001
0001
0001
,
0001
1000
1000
1000
,
1000
0010
0010
0010
,
0010
1000
0001
1000
,
0001
0100
0001
0100
,
0001
0010
1000
0010
,
1000
0100
0001
0100
,
0001
1000
1000
0001
,
0001
0100
0100
0010
,
0010
1000
1000
0100
,
0100
0010
0010
0001
,
0001
1001
0000
0000
;

//---------------dance-single - Destrier75----------------
#NOTES:
     dance-single:
     Destrier75:
     Beginner:
     4:
     0.234,0.202,0.050,0.067,0.000:
0000
0000
0000
0000
,
0000
0000
0000
0000
,
0000
0000
0000
0000
,
0000
0000
0000
0000
,
0000
0000
0000
0000
,
0000
0000
0000
0000
,
0000
0000
0000
0000
,
0000
0100
0000
0100
,
0000
0010
0010
0010
,
0000
1000
1000
1000
,
0000
0001
0001
0001
,
0000
0100
0100
0100
,
0000
0010
0010
0010
,
0000
1000
1000
1000
,
0000
0001
0001
0001
,
0000
0100
0100
0100
,
0000
0010
0010
0010
,
0000
0100
0100
0100
,
0000
0010
0010
0010
,
0000
0100
0100
0100
,
0000
1000
1000
1000
,
0000
0001
0001
0001
,
0000
1000
1000
1000
,
0000
0001
0001
0001
,
0000
0100
0100
0100
,
0000
0010
0010
0010
,
0000
0100
0100
0100
,
0000
0010
0010
0010
,
0000
1000
1000
1000
,
0000
0001
0001
0001
,
0000
1000
1000
1000
,
0000
0001
0001
0001
,
0000
0100
0100
0100
,
0000
0010
0010
0010
,
0000
0100
0100
0100
,
0000
0010
0010
0010
,
0000
0010
0000
0010
,
0000
1000
0000
1000
,
0000
0001
0000
0001
,
0000
1000
0000
1000
,
0000
2002
0000
0000
,
0000
3003
0000
0000
0000
0000
0000
0000
,
0000
0220
0000
0000
,
0000
0330
0000
0000
0000
0000
0000
0000
,
0000
2002
0000
0000
,
0000
3003
0000
0000
0000
0000
0000
0000
,
0000
0220
0000
0000
,
0000
0330
0000
0000
0000
0000
0000
0000
,
0000
1000
0000
1000
,
0000
0001
0000
0001
,
0000
0100
0000
0100
,
0000
0010
0000
0010
,
0000
0100
0000
0100
,
0000
0010
0000
0010
,
0000
1000
0000
1000
,
0000
0001
0000
0001
,
0000
1000
1000
1000
,
0000
0001
0001
0001
,
0000
0100
0100
0100
,
0000
0010
0010
0010
,
0000
1000
1000
1000
,
0000
0001
0001
0001
,
0000
1000
1000
1000
,
0000
1001
0000
0000
,
0000
1000
1000
1000
,
0000
0001
0001
0001
,
0000
0100
0100
0100
,
0000
0010
0010
0010
,
0000
0100
0100
0100
,
0000
0010
0010
0010
,
0000
1000
1000
1000
,
0000
0001
0001
0001
,
0000
1000
0000
1000
,
0000
0001
0000
0001
,
0000
1000
0000
1000
,
0000
0001
0000
0001
,
0000
0100
0100
0100
,
0000
0010
0010
0010
,
0000
0100
0100
0100
,
0000
0010
0010
0010
,
0000
0110
0000
0000
;
