#TITLE:Dual Bladez;
#SUBTITLE:;
#ARTIST:おもしろ三国志;
#TITLETRANSLIT:;
#SUBTITLETRANSLIT:;
#ARTISTTRANSLIT:Omoshiro Sangokushi;
#CREDIT:;
#BANNER:Dual Bladez.png;
#BACKGROUND:Dual Bladez-bg.png;
#LYRICSPATH:;
#CDTITLE:;
#MUSIC:Dual Bladez.ogg;
#OFFSET:0.260;
#SAMPLESTART:68.980;
#SAMPLELENGTH:15.000;
#SELECTABLE:YES;
#BPMS:0.000=150.000;
#STOPS:;
#BGCHANGES:;

//---------------dance-single - Destrier75----------------
#NOTES:
     dance-single:
     Destrier75:
     Hard:
     15:
     0.717,0.732,0.455,0.045,0.468:
0000
0000
0000
0000
,
0000
0000
0000
0000
,
0000
0000
0000
0000
,
0000
0000
0000
0000
,
0000
0000
0000
0000
,
0000
0000
0000
0000
1000
0000
0000
0010
0000
0000
1000
0000
1010
0000
0000
0010
,
0000
0000
0001
0000
1001
0000
0000
1000
0000
0000
0010
0000
1010
0000
0000
0010
,
0000
0000
0001
0000
0010
0001
0010
0000
1000
0010
1000
0000
1000
0100
0010
0001
,
1000
0100
0010
0001
1000
0010
1000
0010
1000
0010
1000
0010
2000
0000
0000
0000
,
0001
3001
1000
0010
1000
0100
0001
0100
,
0010
1000
0001
0100
0001
0100
0010
0100
,
1000
0000
0010
0000
1000
0000
0001
1000
0001
0000
0100
0000
0010
0000
1000
0010
,
1000
0000
0001
0000
0100
0000
0001
1000
0001
0000
0100
0000
0010
0000
1000
0010
,
1000
0000
0100
0000
0010
0000
0100
0010
0100
0000
0010
0000
0001
0000
1000
0001
,
1000
0000
0100
0000
0010
0000
1000
0010
1000
0000
0100
0000
0001
0000
0100
0001
,
0100
0000
0010
0000
1000
0000
0100
0010
0100
0000
1000
0000
0010
0000
1000
0010
,
1000
0000
0001
0000
0100
0001
0100
0000
0010
1000
0010
0000
0100
0000
0001
0000
,
1000
0001
1001
0000
1010
0000
0110
0000
,
0101
0110
1010
0110
,
0101
1010
1010
0110
,
0101
1001
1010
0110
,
0100
0010
1000
0010
1000
0010
0001
0010
,
1000
0001
1001
0000
0011
0000
1001
0000
,
1010
0000
0000
0000
1000
0100
0010
0001
1000
0100
0010
0001
1000
0100
0010
0001
,
1000
0100
0010
0000
0001
1000
0001
0000
1000
0010
0000
1000
0000
0000
0000
0000
,
0100
0001
0100
0001
0200
0000
0000
0000
0000
0000
0000
0000
0000
0000
0000
0000
,
0000
0020
0000
0000
,
0000
0000
0330
0000
1000
0010
1000
0000
0001
0100
0001
0000
1000
0000
0000
0010
,
0000
0000
1010
0000
0010
0100
0010
0000
1000
0010
1000
0000
0100
0000
0000
0001
,
0000
0000
0101
0000
0010
0100
0010
0000
1000
0010
1000
0000
1000
0000
0000
0001
,
0000
0000
1001
0000
1000
0010
1000
0000
0001
0100
0001
0000
1000
0000
0000
0010
,
0000
0000
1000
0000
0001
1000
0001
0000
0100
0001
0100
0000
0010
0000
0000
1000
,
0000
0000
1001
0000
0100
0001
0100
0000
0010
1000
0010
0000
1000
0000
0000
0001
,
0000
0000
1001
0000
0100
0010
0100
0000
0001
1000
0001
0000
1000
0000
0000
0010
,
0000
0000
1010
0000
1000
0001
1000
0000
0100
0001
0100
0000
0010
0000
0000
1000
,
0000
1010
1000
0100
1000
0100
1000
0100
,
1000
0000
0001
0100
0001
0100
0001
0100
,
0001
0000
0100
0010
0100
0010
0100
0010
,
0100
0000
1000
0001
1000
0001
1000
0001
,
1000
0000
0000
0000
0001
0000
0000
0100
0000
0000
0001
0000
0101
0000
0000
0100
,
0000
0000
1000
0000
1100
0000
0000
0100
0000
0000
0010
0000
0110
0000
0000
0010
,
0000
0000
0001
0000
1000
0100
1000
0000
0010
0001
0010
0000
1000
0100
0010
0001
,
1000
0100
0010
0001
1000
0001
1000
0001
1000
0001
1000
0001
2000
0000
0000
0000
,
0001
0000
3001
0000
1000
0000
0010
0000
0100
0000
0010
0000
0001
0000
0010
0100
,
0010
0000
0100
0000
0001
0000
0100
0000
0010
0000
1000
0000
0001
0000
0100
0001
,
0100
0000
0010
0000
0100
0000
0010
0000
1000
0000
0001
0000
0100
0000
0010
0001
,
0010
0000
1000
0000
0010
0000
0000
0000
0010
0000
0100
0000
0010
0000
0100
0001
,
0100
0010
0001
0010
0001
0100
0010
0001
,
0001
0000
0010
0000
1000
0000
0010
0000
0100
0000
0010
0000
0001
0000
0100
0001
,
0100
0000
0001
0000
0010
0000
1000
0000
0001
0000
0100
0000
0010
0000
0100
0010
,
0100
0000
0001
0000
1000
0000
0010
0000
1000
0000
0010
0000
0110
0000
0000
1001
,
0000
0110
1010
0000
1001
0000
1010
0000
,
0101
1010
0110
0101
,
1010
0000
0000
0000
0100
0000
0010
0000
1000
0000
0001
0000
0100
0000
0001
0100
,
0001
0000
0010
0000
1000
0000
0001
0000
1000
0000
0010
0000
1000
0000
0000
0001
,
0000
0000
1000
0000
1001
0000
0001
0000
1000
0000
0010
0000
1000
0000
0010
1000
,
0010
0000
0100
0000
0001
0000
1000
0000
0010
0000
0100
0000
0001
0000
0100
0001
,
0100
0000
0010
0000
1000
0000
0010
0000
0100
0000
0010
0000
0100
0000
0010
0100
,
0010
0000
0001
0000
1000
0000
0001
0000
0100
0000
0010
0000
1001
0000
0000
0110
,
0000
1001
1000
0010
1000
0100
0010
0001
,
0100
0000
0001
0100
0001
0100
0010
0001
,
1000
0000
0100
0010
0100
0001
0100
0010
,
1000
0000
0001
0100
0001
0100
0001
0100
,
0010
0000
0000
0000
1000
0000
0000
0001
0000
0000
1000
0000
1010
0000
0000
0010
,
0000
0000
0001
0000
0101
0000
0000
0001
0000
0000
1000
0000
1001
0000
0000
1000
,
0000
0000
0010
0000
1000
0001
1000
0000
0001
0100
0001
0000
0001
0010
0100
1000
,
0001
0010
0100
1000
0001
1000
0001
1000
0001
1000
0001
1000
0002
0000
0000
0000
,
1000
1003
0000
0000
0000
0000
0000
0000
;

//---------------dance-single - Destrier75----------------
#NOTES:
     dance-single:
     Destrier75:
     Medium:
     11:
     0.547,0.549,0.245,0.127,0.159:
0000
0000
0000
0000
,
0000
0000
0000
0000
,
0000
0000
0000
0000
,
0000
0000
0000
0000
,
0000
0000
0000
0000
,
0000
0000
0000
0000
1000
0000
0000
0001
0000
0000
1000
0000
0001
0000
0000
1000
,
0000
0000
0010
0000
1000
0000
0000
0010
0000
0000
0100
0000
0001
0000
0000
0100
,
0000
0001
0100
0010
0100
0010
2020
0000
,
0000
3030
0202
0000
0000
0000
0303
0000
,
0000
0000
1000
0010
1000
0010
1000
0010
,
1000
0000
0100
0001
0100
0001
0100
0001
,
0100
0000
0010
1000
0010
1000
0010
1000
,
0010
0000
0100
0010
0100
0010
0100
0010
,
0100
0000
0001
1000
0001
1000
0001
1000
,
0001
0000
0100
0001
0100
0001
0100
0001
,
0100
0000
0100
0010
0100
0010
0100
0010
,
0100
0000
1000
0100
0010
0001
0010
0100
,
1000
1001
1001
1001
,
1001
1010
1010
1010
,
1010
0101
0101
0101
,
0101
0110
0110
0110
,
0110
0000
1000
0001
1000
0001
1000
0001
,
1000
0000
0100
0001
0100
0001
0100
0001
,
0100
0000
1000
0100
0010
0001
0010
0100
,
1000
0000
0010
0001
1000
0001
1000
0010
,
1000
0001
2000
0000
0000
0000
0000
0000
,
0000
0002
0000
0000
,
3003
0000
0000
0000
1000
0000
0010
0000
1000
0000
0010
0000
1000
0000
0000
0010
,
0000
0000
0001
0000
0100
0000
0001
0000
0100
0000
0001
0000
0100
0000
0000
0010
,
0000
0000
1000
0000
0010
0000
0100
0000
0010
0000
0100
0000
0010
0000
0000
0001
,
0000
0000
0100
0000
0001
0000
1000
0000
0001
0000
1000
0000
0001
0000
0000
0100
,
0000
0000
0010
0000
0001
0000
0100
0000
0001
0000
0100
0000
0001
0000
0000
0010
,
0000
0000
1000
0000
0010
0000
1000
0000
0010
0000
1000
0000
0010
0000
0000
0100
,
0000
0000
0001
0000
1000
0000
0010
0000
1000
0000
0010
0000
1000
0000
0000
0100
,
0000
0000
0010
0000
0001
0000
0100
0000
0001
0000
0100
0000
0001
0000
0000
0010
,
0000
0100
0001
1000
0001
1000
0001
1000
,
0001
0000
0100
0010
0100
0010
0100
0010
,
0100
0000
0001
0100
0001
0100
0001
0100
,
0001
0000
1000
0010
1000
0010
1000
0010
,
1000
0000
0000
0000
1000
0000
0000
0010
0000
0000
0100
0000
0001
0000
0000
0100
,
0000
0000
0010
0000
0001
0000
0000
0010
0000
0000
1000
0000
0010
0000
0000
0100
,
0000
0010
0100
0001
0100
0001
0202
0000
,
0000
0303
2020
0000
0000
0000
3030
0000
,
0000
0000
0000
0000
1000
0000
0010
0000
1000
0000
0010
0000
1000
0000
0000
0100
,
0000
0000
1000
0000
0010
0000
0001
0000
0010
0000
0001
0000
0100
0000
0000
0001
,
0000
0000
0100
0000
0010
0000
1000
0000
0010
0000
1000
0000
0010
0000
0000
0100
,
0000
0000
0010
0000
1000
0000
0001
0000
1000
0000
0001
0000
1000
0000
0000
0001
,
0000
0000
1000
0000
0001
0000
0100
0000
0001
0000
0100
0000
0001
0000
0000
0010
,
0000
0000
1000
0000
0001
0000
0100
0000
0001
0000
0100
0000
0001
0000
0000
0100
,
0000
0000
0010
0000
1000
0000
0010
0000
1000
0000
0010
0000
1000
0000
0000
0100
,
0000
0000
0001
0000
1000
0000
0001
0000
1000
0000
0001
0000
1000
0000
0000
0010
,
0000
0000
1000
0000
0001
0000
0100
0000
0001
0000
0100
0000
0001
0000
0000
0010
,
0000
1000
1001
0000
1001
0000
1010
0000
,
1010
0000
0000
0000
1000
0000
0001
0000
1000
0000
0001
0000
1000
0000
0000
0010
,
0000
0000
1000
0000
0100
0000
0001
0000
0100
0000
0001
0000
0100
0000
0000
0010
,
0000
0000
0001
0000
1000
0000
0010
0000
1000
0000
0010
0000
1000
0000
0000
0100
,
0000
0000
0001
0000
1000
0000
0001
0000
1000
0000
0001
0000
1000
0000
0000
0001
,
0000
0000
0100
0000
0010
0000
1000
0000
0010
0000
1000
0000
0010
0000
0000
0100
,
0000
0000
0001
0000
1000
0000
0001
0000
1000
0000
0001
0000
1000
0000
0000
0010
,
0000
0001
1000
0010
1000
0010
1000
0010
,
1000
0000
0100
0001
0100
0001
0100
0001
,
0100
0000
0010
0100
0010
0100
0010
0100
,
0010
0000
1000
0010
1000
0010
1000
0010
,
1000
0000
0000
0000
0001
0000
0000
0010
0000
0000
1000
0000
0100
0000
0000
0010
,
0000
0000
0001
0000
0100
0000
0000
0010
0000
0000
1000
0000
0100
0000
0000
0001
,
0000
0100
0001
1000
0001
1000
2002
0000
,
0000
3003
0220
0000
0000
0000
0330
0000
,
0100
0110
0000
0000
0000
0000
0000
0000
;

//---------------dance-single - Destrier75----------------
#NOTES:
     dance-single:
     Destrier75:
     Easy:
     7:
     0.335,0.364,0.327,0.082,0.000: // measure 1
0000
0000
0000
0000
,  // measure 2
0000
0000
0000
0000
,  // measure 3
0000
0000
0000
0000
,  // measure 4
0000
0000
0000
0000
,  // measure 5
0000
0000
0000
0000
,  // measure 6
0000
1001
0000
1001
,  // measure 7
0000
1001
0000
1001
,  // measure 8
0000
1000
0001
2000
,  // measure 9
0000
0002
0000
3003
,  // measure 10
0000
1000
1000
0010
,  // measure 11
0010
0100
0100
0001
,  // measure 12
0001
0010
0010
1000
,  // measure 13
1000
0001
0001
1000
,  // measure 14
1000
0001
0001
0100
,  // measure 15
0100
0010
0010
1000
,  // measure 16
1000
0001
0001
0100
,  // measure 17
0100
1000
0001
1000
,  // measure 18
0001
1000
1000
0010
,  // measure 19
0010
0001
0001
1000
,  // measure 20
1000
0100
0100
0010
,  // measure 21
0010
0001
0001
1000
,  // measure 22
1000
0001
0001
1000
,  // measure 23
1000
0010
0010
0100
,  // measure 24
0100
2000
0000
0000
,  // measure 25
0000
3001
0000
0001
,  // measure 26
0000
2000
0000
0000
,  // measure 27
0002
0000
0000
0000
,  // measure 28
3003
1000
1000
0001
,  // measure 29
1001
0001
0001
0100
,  // measure 30
0101
1000
1000
0010
,  // measure 31
1010
0001
0001
0100
,  // measure 32
0101
1000
1000
0010
,  // measure 33
1010
0010
0010
0001
,  // measure 34
0011
0100
0100
0001
,  // measure 35
0101
0010
0010
1000
,  // measure 36
1010
1000
1000
0001
,  // measure 37
0001
1000
1000
0001
,  // measure 38
0001
1000
1000
0001
,  // measure 39
0001
1000
1000
0001
,  // measure 40
0001
1010
0000
1010
,  // measure 41
0000
0101
0000
0101
,  // measure 42
0000
1000
0001
2000
,  // measure 43
0000
0002
0000
3003
,  // measure 44
0000
1000
1000
0001
,  // measure 45
1001
0001
0001
0100
,  // measure 46
0101
0100
0100
0010
,  // measure 47
0110
1000
1000
0010
,  // measure 48
1010
0010
0010
0001
,  // measure 49
0011
0001
0001
1000
,  // measure 50
1001
1000
1000
0010
,  // measure 51
1010
0001
0001
0100
,  // measure 52
0101
0100
0100
0010
,  // measure 53
0110
1000
1000
0010
,  // measure 54
1010
0010
0010
0001
,  // measure 55
0011
1000
1000
0010
,  // measure 56
1010
0100
0100
0010
,  // measure 57
0110
0001
0001
1000
,  // measure 58
1001
1000
1000
0010
,  // measure 59
1010
0100
0100
0001
,  // measure 60
0101
1000
1000
0001
,  // measure 61
0001
1000
1000
0001
,  // measure 62
0001
1000
1000
0001
,  // measure 63
0001
1000
1000
0001
,  // measure 64
0001
1010
0000
1010
,  // measure 65
0000
0101
0000
0101
,  // measure 66
0000
0001
1000
0002
,  // measure 67
0000
2000
0000
3003
;

//---------------dance-single - Destrier75----------------
#NOTES:
     dance-single:
     Destrier75:
     Beginner:
     3:
     0.222,0.243,0.082,0.000,0.000:
0000
0000
0000
0000
,
0000
0000
0000
0000
,
0000
0000
0000
0000
,
0000
0000
0000
0000
,
0000
0000
0000
0000
,
0000
1000
0000
1000
,
0000
0001
0000
0001
,
0000
0100
0100
0100
,
0000
0010
0010
0010
,
0000
1000
1000
1000
,
0000
0001
0001
0001
,
0000
1000
1000
1000
,
0000
0001
0001
0001
,
0000
0100
0100
0100
,
0000
0010
0010
0010
,
0000
0100
0100
0100
,
0000
0010
0010
0010
,
0000
1001
0000
1001
,
0000
1001
0000
1001
,
0000
0110
0000
0110
,
0000
0110
0000
0110
,
0000
0100
0100
0100
,
0000
0010
0010
0010
,
0000
0100
0100
0100
,
0000
0010
0000
0010
,
0000
1001
0000
0000
,
0000
0000
0000
0000
,
0000
1000
1000
1000
,
0000
0001
0001
0001
,
0000
1000
1000
1000
,
0000
0001
0001
0001
,
0000
0100
0100
0100
,
0000
0010
0010
0010
,
0000
0100
0100
0100
,
0000
0010
0010
0010
,
0000
1000
0000
1000
,
0000
0001
0000
0001
,
0000
0100
0000
0100
,
0000
0010
0000
0010
,
0000
0001
0000
0001
,
0000
1000
0000
1000
,
0000
0010
0010
0010
,
0000
0100
0100
0100
,
0000
1000
1000
1000
,
0000
0001
0001
0001
,
0000
0100
0100
0100
,
0000
0010
0010
0010
,
0000
1000
1000
1000
,
0000
0001
0001
0001
,
0000
0100
0100
0100
,
0000
0010
0010
0010
,
0000
1000
1000
1000
,
0000
0001
0001
0001
,
0000
1000
1000
1000
,
0000
0001
0001
0001
,
0000
0100
0100
0100
,
0000
0010
0010
0010
,
0000
0100
0100
0100
,
0000
0010
0010
0010
,
0000
0100
0000
0100
,
0000
0010
0000
0010
,
0000
0100
0000
0100
,
0000
0010
0000
0010
,
0000
1000
0000
1000
,
0000
0001
0000
0001
,
0000
0100
0100
0100
,
0000
0010
0010
0010
;
