#TITLE:Drop That Low (When I Dip);
#SUBTITLE:;
#ARTIST:Tujamo;
#TITLETRANSLIT:;
#SUBTITLETRANSLIT:;
#ARTISTTRANSLIT:;
#CREDIT:;
#BANNER:Drop That Low (When I Dip).png;
#BACKGROUND:Drop That Low (When I Dip)-bg.png;
#LYRICSPATH:;
#CDTITLE:CDTITLE.png;
#MUSIC:Drop That Low (When I Dip).ogg;
#OFFSET:0.380;
#SAMPLESTART:28.520;
#SAMPLELENGTH:15.000;
#SELECTABLE:YES;
#BPMS:0.000=126.000;
#STOPS:;
#BGCHANGES:0.813=Drop That Low (When I Dip).avi=1.000=1=1=0,
99999=-nosongbg-=1.000=0=0=0 // don't automatically add -songbackground-
;

//---------------dance-single - Destrier75----------------
#NOTES:
     dance-single:
     Destrier75:
     Hard:
     13:
     0.529,0.628,0.085,0.138,0.511:
0000
0000
0000
0000
,
0000
0000
0000
0000
,
0000
0000
0000
0000
,
0000
0000
0000
0000
,
0000
0000
0000
0000
,
0000
0000
2000
0000
3010
0001
2000
0000
,
3100
0000
0010
0000
0001
0000
0000
1000
0001
0000
0000
0001
1000
0000
0000
1000
,
0010
0000
0000
0010
2000
0000
0000
0000
3100
0000
0010
0000
0002
0000
0000
0000
,
1003
0000
0010
0000
0001
0000
0000
0100
0010
0000
0000
0010
0001
0000
0000
0001
,
1000
0000
0000
1000
0010
0000
0000
0010
0001
0000
0000
0001
0010
0000
0000
0010
,
1000
0000
0000
1000
0001
0000
0000
0001
0100
0000
0000
0100
0010
0000
0000
0010
,
1000
0000
0000
1000
0001
0000
0001
0000
0010
0000
0001
0000
0010
0000
0100
0000
,
1000
0100
0010
0001
0010
0100
1000
0100
,
0010
0000
0001
0000
1000
0100
0010
0001
1000
0100
0010
0001
1000
0100
0010
0001
,
1000
0100
0010
0001
1000
0000
0000
0000
1010
0000
0000
0000
1000
0000
0100
0000
,
0010
0000
0001
0000
1001
0000
0000
0000
1000
0000
0001
1000
0000
0000
0000
0000
,
0010
0000
1000
0000
0100
0000
0000
0001
0000
1000
0001
0000
1000
0000
0000
0001
,
0000
1000
0010
0000
0100
0000
0000
0000
1000
0000
0010
1000
0000
0000
0100
0000
,
0010
0001
1001
0000
1010
0000
1000
0100
,
0010
0001
0020
0000
1030
0100
0020
0000
,
0130
0000
0010
0000
0001
0000
0000
1000
0010
0000
0000
0010
0001
0000
0000
0001
,
0100
0000
0000
0100
2000
0000
0000
0000
3010
0000
0001
0000
0200
0000
0000
0000
,
1300
0000
0001
0000
0100
0000
0000
0010
1000
0000
0000
1000
0010
0000
0000
0010
,
0001
0000
0000
0001
2000
0000
0000
0000
0000
0000
0000
0000
0000
0000
0000
0000
,
0000
0000
0000
0000
,
0000
0000
3001
0000
1000
0010
0001
0000
,
0001
0000
0010
0000
1000
0000
0000
1000
0010
0000
0000
0010
0001
0000
0000
0001
,
1000
0000
0000
1000
0010
0000
0000
0000
1000
0000
0100
0000
0010
0000
0000
0000
,
0001
0000
0010
0000
0100
0000
0000
0010
0100
0000
0000
0100
0010
0000
0000
0010
,
0001
0000
0000
0001
2000
0000
0000
0000
3010
0000
1000
0000
0020
0000
0000
0000
,
0130
0000
0010
0000
0001
0000
0000
0001
1000
0000
0000
1000
0010
0000
0000
0010
,
0100
0000
0000
0100
2000
0000
0000
0000
3001
0000
0010
0000
0200
0000
0000
0000
,
1300
0000
0100
0000
0010
0000
0000
0001
1000
0000
0000
1000
0010
0000
0000
0010
,
0100
0000
0000
0100
0001
0000
0000
0001
1000
0000
0000
1000
0010
0000
0000
0010
,
0001
0000
0000
0001
0100
0000
0000
0100
1000
0000
0000
1000
0100
0000
0000
0100
,
0010
0000
0000
0010
0001
0000
0010
0000
0100
0000
1000
0000
0100
0000
1000
0000
,
0100
0010
0001
0010
0001
0010
0001
0010
,
0001
0000
0010
0000
0001
0010
0100
1000
0001
0010
0100
1000
0001
0010
0100
1000
,
0001
0010
0100
1000
0001
0000
0000
0000
1010
0000
0000
0000
1000
0000
0100
0000
,
0010
0000
0001
0000
1001
0000
0000
0000
0100
0000
0010
0100
0000
0000
0000
0000
,
0001
0000
1000
0000
0100
0000
0000
0001
0000
1000
0010
0000
1010
0000
0000
0100
,
0000
0001
0100
0000
0101
0000
0001
0000
0010
0000
1000
0010
0000
0000
0100
0000
,
0001
0000
0010
0000
1000
0100
0010
0001
1000
0100
0010
0001
1000
0100
0010
0001
,
1000
0100
0010
0001
0010
0000
0100
0000
1000
0000
0100
0000
0001
0000
0010
0000
,
0100
0000
0001
0000
0100
0000
0000
0001
1000
0000
0000
1000
0010
0000
0000
0010
,
0001
0000
0000
0001
1000
0000
0010
0000
0100
0000
0010
0000
0001
0000
1000
0000
,
0010
0000
0100
0000
1000
0001
0100
0010
1000
0001
0100
0010
1000
0001
0100
0010
,
1000
0001
0100
0010
1000
0000
0000
0000
0000
0000
0000
0000
0000
0000
0000
0000
;

//---------------dance-single - Destrier75----------------
#NOTES:
     dance-single:
     Destrier75:
     Medium:
     8:
     0.380,0.352,0.287,0.032,0.000:
0000
0000
0000
0000
,
0000
0000
0000
0000
,
0000
0000
0000
0000
,
0000
0000
0000
0000
,
0000
0000
0000
0000
,
0000
0000
2000
0000
3001
0010
0001
0000
,
1000
0010
1000
0000
1010
0000
0010
0000
,
0011
0000
0001
0000
0100
0001
0100
0000
,
0010
1000
0010
0000
1000
0000
1010
0000
,
0010
0011
0001
1001
,
1000
1010
0010
0011
,
0010
0000
0010
0001
0010
0000
0100
0001
,
0100
0000
0001
1000
0001
0000
0100
0001
,
0100
0000
1000
0001
1000
0001
1000
0001
,
1000
0001
1000
0000
1001
0000
0001
0010
,
0100
0000
1000
0010
1000
0000
0100
0000
,
0010
0100
0010
0000
1000
0000
0010
1000
,
0010
0000
0100
0000
0001
0100
0001
0000
,
0010
0000
1000
0010
1000
0010
1000
0010
,
1000
0010
1000
0000
0001
1000
0001
0000
,
0100
0001
0100
0000
0001
0000
0101
0000
,
0100
0000
1100
0000
1000
0010
1000
0000
,
0100
0001
0100
0000
0001
0000
1001
0000
,
1000
2020
0000
0000
,
0000
0000
0000
0000
,
3030
0000
1001
0000
1000
0001
1000
0000
,
0100
0001
0100
0000
0010
0000
0110
0000
,
0100
0000
1100
0000
1000
0001
1000
0000
,
0001
0100
0001
0000
0010
0000
0110
0000
,
0010
0000
0011
0000
1000
0010
1000
0000
,
0100
0001
0100
0000
0001
0000
0101
0000
,
0100
0000
1100
0000
0100
0001
0100
0000
,
0010
1000
0010
0000
0100
0000
0110
0000
,
0010
0011
0001
1001
,
1000
1010
0010
0110
,
0010
0000
1000
0010
1000
0000
0100
0001
,
0100
0000
0010
1000
0010
0000
0100
0001
,
0100
0000
0001
0100
0001
0100
0001
0100
,
0001
0100
0001
0000
0101
0000
0001
0010
,
0100
0000
1000
0010
1000
0000
0100
0000
,
0010
0100
0010
0000
0001
0000
0100
0001
,
0100
0000
0010
0000
1000
0010
1000
0000
,
0010
0000
1000
0010
1000
0010
1000
0010
,
1000
0010
1000
0000
0100
0010
0001
0000
,
0100
0010
0001
0000
0101
0000
0100
0000
,
0110
0000
0010
0000
1000
0010
0001
0000
,
1000
0010
1000
0010
0001
0010
1000
0001
,
1000
0001
1000
0000
0000
0000
0000
0000
;

//---------------dance-single - Destrier75----------------
#NOTES:
     dance-single:
     Destrier75:
     Easy:
     5:
     0.254,0.302,0.117,0.138,0.000: // measure 1
0000
0000
0000
0000
,  // measure 2
0000
0000
0000
0000
,  // measure 3
0000
0000
0000
0000
,  // measure 4
0000
0000
0000
0000
,  // measure 5
0000
0000
0000
0000
,  // measure 6
0000
1000
0001
1000
,  // measure 7
0001
0100
0001
0100
,  // measure 8
0001
0010
1000
0010
,  // measure 9
1000
0100
0001
0100
,  // measure 10
0001
1000
1001
0001
,  // measure 11
1001
1000
1001
0001
,  // measure 12
1001
1000
0001
1000
,  // measure 13
0001
0100
0001
0100
,  // measure 14
0001
0220
0000
0000
,  // measure 15
0330
0010
0010
0010
,  // measure 16
0010
1000
0010
1000
,  // measure 17
0010
0100
0001
0100
,  // measure 18
0001
0010
1000
0010
,  // measure 19
1000
2002
0000
0000
,  // measure 20
3003
0100
0001
0100
,  // measure 21
0001
0010
1000
0010
,  // measure 22
1000
0100
0001
0100
,  // measure 23
0001
0202
0000
0000
,  // measure 24
0303
0102
0000
0000
,  // measure 25
0000
0000
0000
0000
,  // measure 26
0000
1003
0010
1000
,  // measure 27
0010
0100
0001
0100
,  // measure 28
0001
0010
1000
0010
,  // measure 29
1000
0100
0001
0100
,  // measure 30
0001
1000
0010
1000
,  // measure 31
0010
0100
0001
0100
,  // measure 32
0001
0010
1000
0010
,  // measure 33
1000
0100
0001
0100
,  // measure 34
0010
0001
0001
0001
,  // measure 35
0001
1000
1000
1000
,  // measure 36
1000
0010
0010
0010
,  // measure 37
0010
0100
0100
0100
,  // measure 38
0100
0220
0000
0000
,  // measure 39
0330
0010
0010
0010
,  // measure 40
0010
1000
0001
1000
,  // measure 41
0001
0100
0001
0100
,  // measure 42
0001
1000
0010
1000
,  // measure 43
0010
0220
0000
0000
,  // measure 44
0330
0100
0010
0100
,  // measure 45
0010
0100
0001
0100
,  // measure 46
0001
0100
1000
0100
,  // measure 47
1000
2200
0000
0000
,  // measure 48
0000
3300
0000
0000
;

//---------------dance-single - Destrier75----------------
#NOTES:
     dance-single:
     Destrier75:
     Beginner:
     2:
     0.170,0.176,0.021,0.000,0.000:
0000
0000
0000
0000
,
0000
0000
0000
0000
,
0000
0000
0000
0000
,
0000
0000
0000
0000
,
0000
0000
0000
0000
,
0000
0100
0000
0100
,
0000
0010
0000
0010
,
0000
0100
0000
0100
,
0000
0010
0000
0010
,
0000
1000
1000
1000
,
0000
0001
0001
0001
,
0000
0100
0100
0100
,
0000
0010
0010
0010
,
0000
0100
0100
0100
,
0100
0100
0000
0100
,
0000
0010
0010
0010
,
0000
0100
0100
0100
,
0000
0001
0001
0001
,
0000
1000
1000
1000
,
0000
0001
0001
0001
,
0000
0100
0100
0100
,
0000
0010
0010
0010
,
0000
0100
0100
0100
,
0000
1001
0000
0000
,
0000
0000
0000
0000
,
0000
1000
0000
1000
,
0000
0001
0000
0001
,
0000
0100
0000
0100
,
0000
0010
0000
0010
,
0000
0100
0000
0100
,
0000
0001
0000
0001
,
0000
1000
0000
1000
,
0000
0001
0000
0001
,
0000
1000
1000
1000
,
0000
0001
0001
0001
,
0000
0100
0100
0100
,
0000
0010
0010
0010
,
0000
0100
0100
0100
,
0100
0100
0000
0100
,
0000
1000
1000
1000
,
0000
0001
0001
0001
,
0000
0100
0100
0100
,
0000
0010
0010
0010
,
0000
1000
1000
1000
,
0000
0001
0001
0001
,
0000
1000
1000
1000
,
0000
0001
0001
0001
,
0000
1001
0000
0000
;
