#TITLE:Do It!;
#SUBTITLE:;
#ARTIST:MK;
#TITLETRANSLIT:;
#SUBTITLETRANSLIT:;
#ARTISTTRANSLIT:;
#CREDIT:;
#BANNER:Do It!.png;
#BACKGROUND:Do It!-bg.png;
#LYRICSPATH:;
#CDTITLE:;
#MUSIC:Do It!.ogg;
#OFFSET:0.120;
#SAMPLESTART:26.840;
#SAMPLELENGTH:15.000;
#SELECTABLE:YES;
#BPMS:0.000=145.000;
#STOPS:;
#BGCHANGES:;

//---------------dance-single - Destrier75----------------
#NOTES:
     dance-single:
     Destrier75:
     Hard:
     13:
     0.603,0.645,0.210,0.219,0.136:
0000
0000
0000
0000
,
0000
0000
0000
0000
,
0000
0000
0000
0000
,
0000
0000
0000
0000
,
1000
0100
0010
0000
1000
0001
2000
0000
,
0000
3002
0000
0013
0100
0002
0000
0000
,
1003
0100
0010
0000
0001
0010
0200
0000
,
0000
0320
0000
1030
0100
0020
0000
0000
,
1030
0100
1000
0010
1000
0010
1000
0100
,
0010
0000
0000
0000
1000
0001
1000
0000
0100
0000
0010
0000
1000
0000
0001
0000
,
1000
0000
1001
0000
0001
1000
0100
0010
,
0100
0000
0000
0000
1000
0010
1000
0000
0010
0000
0100
0000
0010
0000
0001
0000
,
1000
0000
1010
0010
0010
0001
1001
1000
,
0010
1000
1010
0010
0100
0001
0101
0001
,
1000
0000
0001
0000
0010
0100
0010
0000
0100
0010
0100
0000
0001
1000
0001
0000
,
1000
0001
1000
0000
1000
0000
0010
0000
1000
0000
0010
0000
1000
0000
0010
0000
,
1000
0000
0110
0000
0100
1000
0100
0010
,
0001
0000
0000
0000
1000
0001
1000
0000
0100
0000
0010
0000
1000
0000
0010
0000
,
1000
0000
1010
0000
0100
0010
1000
0001
,
1000
0000
0000
0000
1000
0001
1000
0000
0100
0000
0010
0000
0100
0000
0001
0000
,
0100
0000
0101
0000
1000
0010
0001
0010
,
1000
0000
0000
0000
1000
0001
1000
0000
0010
0000
0100
0000
0010
0000
1000
0000
,
0001
0000
1001
0000
1000
0100
1000
0010
,
1000
0000
0110
0010
1000
0002
0000
0000
,
1003
0100
0010
0001
1000
0010
1000
0100
,
1010
0000
0000
0000
1000
0001
1000
0000
0100
0000
0010
0000
1000
0000
0001
0000
,
0100
0000
0101
0000
0010
0100
0001
0100
,
0010
0000
0000
0000
1000
0010
1000
0000
0100
0000
0010
0000
1000
0000
0010
0000
,
1000
0000
1010
0000
0100
0001
0100
0010
,
0100
0000
0000
0000
0001
0100
0001
0000
0010
0000
1000
0000
0001
0000
1000
0000
,
0001
0000
1000
1000
0001
0001
1000
1000
,
0001
0001
1001
0000
0000
0000
0000
0000
,
0010
0010
1000
0010
1000
0100
0010
0001
,
0100
0001
0100
0001
0010
0100
1000
0001
,
1000
0010
1000
0100
0010
0001
1000
0001
,
1000
0010
1000
0100
0010
0001
1000
0001
,
0100
0001
0101
0010
0100
1000
0001
0100
,
0010
0001
1000
0100
0010
0001
1000
0100
,
0010
0001
1000
0100
1000
0100
1000
0010
,
1000
0000
0010
0000
1000
0000
0000
0000
1010
0000
0000
0000
1000
0000
0010
1000
,
0010
0100
1001
0000
1000
0100
0020
0000
,
0000
0032
0000
0013
0100
2000
0000
0000
,
3100
0010
0101
0000
0001
1000
0002
0000
,
0000
2003
0000
3100
0001
0020
0000
0000
,
1030
0010
1010
1000
0010
1000
1010
0100
,
0010
0100
0110
0010
0001
0010
0011
0001
,
1000
0000
0001
0000
1000
0001
1000
0001
1000
0001
1000
0001
1000
0001
1000
0001
,
1000
0001
2000
0000
0000
0000
3010
0000
0100
0000
2000
0000
0000
0000
3000
0000
,
0001
0000
0100
0000
1000
0010
1000
0010
1000
0000
0100
0000
0010
0000
1000
0000
,
0001
0100
0010
0100
0001
0100
0010
0100
,
0001
0000
0100
0000
0001
0100
0001
0100
0001
0000
0010
0000
1000
0000
0010
0000
,
0100
0010
1000
0001
1000
0010
0100
0010
,
1000
0000
0010
0000
1000
0001
1000
0001
1000
0000
0010
0000
1000
0000
0001
0000
,
0100
0010
0100
0010
0100
0010
0001
0100
,
1000
0000
0100
0000
0010
1000
0010
1000
0010
0000
1000
0000
0001
0000
0100
0000
,
0010
2000
0000
3100
0010
0002
0000
0000
,
1003
0001
1001
0000
1000
0010
0200
0000
,
0000
2300
0000
3100
0010
0002
0000
0000
,
1003
0010
1010
0000
0001
0100
0002
0000
,
0000
2003
0000
3100
0010
0002
0000
0000
,
1003
0010
1000
0010
1000
0010
0001
0010
,
0001
1000
0001
1000
0100
1000
0100
0010
,
0100
0000
0010
0000
1000
0100
1000
0000
0001
0010
0001
0000
1000
0100
1000
0000
,
0010
0002
0000
1003
0100
0020
0000
0000
,
0130
0000
0000
0000
;

//---------------dance-single - Destrier75----------------
#NOTES:
     dance-single:
     Destrier75:
     Medium:
     9:
     0.449,0.421,0.070,0.202,0.000:
0000
0000
0000
0000
,
0000
0000
0000
0000
,
0000
0000
0000
0000
,
0000
0000
0000
0000
,
1000
0010
1000
0000
0001
0100
0002
0000
,
0003
2000
0000
3010
1000
0020
0000
0030
,
0100
0001
0100
0000
0001
1000
0002
0000
,
0003
0200
0000
0301
1000
0002
0000
0000
,
0000
0003
1000
0100
1000
0100
1000
0000
,
0100
0000
0010
0001
0010
0001
0010
0000
,
0001
0000
1000
0001
1000
0001
1000
0000
,
0010
0000
1000
0010
1000
0010
1000
0000
,
0010
0000
1000
0001
1000
0000
0001
1000
,
0001
0000
1000
0001
1000
0000
0001
1000
,
0001
0000
1000
0001
1000
0001
1000
0001
,
1000
0000
0100
0010
0100
0010
0100
0010
,
0100
0000
0010
0000
1000
0010
1000
0000
,
0100
0000
0010
0001
0010
0001
0010
0000
,
0001
0000
1001
0000
1000
0010
1000
0000
,
0010
0000
0100
0010
0100
0010
0100
0000
,
0010
0000
0110
0000
1000
0001
1000
0000
,
0001
0000
1000
0010
1000
0010
1000
0000
,
0010
0000
0110
0000
1000
0001
1000
0000
,
0001
0000
0010
0001
0010
0002
0000
0000
,
1003
0001
1000
0000
0010
1000
0010
0000
,
0100
0000
0010
0001
0010
0001
0010
0000
,
1000
0000
1010
0000
0100
0010
0100
0000
,
0010
0000
0100
0001
0100
0001
0100
0000
,
0001
0000
1001
0000
1000
0010
1000
0000
,
0010
0000
1000
0001
1000
0001
1000
0000
,
0001
0000
1001
0000
1000
0010
1000
0000
,
0010
0110
0000
0000
,
0001
0001
1000
0010
1000
0000
0100
0000
,
0001
0000
1000
0001
1000
0000
0100
0000
,
0010
0000
0100
0010
0100
0000
0001
0000
,
1000
0000
0001
1000
0001
0000
1000
0000
,
0010
0000
1000
0001
1000
0000
0100
0010
,
0100
0000
0100
0001
0100
0000
0010
1000
,
0010
0000
1000
0010
1000
0000
0100
0001
,
0100
0001
1000
0001
,
1000
0000
0001
0000
0100
0001
0100
0000
,
0010
0000
1000
0010
1000
0010
1000
0000
,
0100
0000
0110
0000
0001
0100
0001
0000
,
0100
0000
1000
0001
1000
0001
1000
0000
,
0010
0000
0100
0010
0100
0010
0100
0000
,
0001
0000
1000
0001
1000
0001
1000
0000
,
0100
0000
1000
0100
1000
0100
1000
0010
,
1000
0010
0000
1000
0100
0020
0000
0000
,
1030
0001
1000
0000
0100
0010
0002
0000
,
0000
0103
0000
0010
0001
0020
0000
0030
,
1000
0010
1000
0000
0100
0001
0200
0000
,
0300
0002
0000
1003
0001
2000
0000
3000
,
0010
0001
0010
0000
0100
0010
0100
0000
,
0000
0002
0000
1003
0001
2000
0000
3000
,
0010
1000
0010
0000
0100
0001
0100
0000
,
0000
0002
0000
1003
0001
2000
0000
3000
,
0001
0010
0100
0000
1000
0010
1000
0000
,
0000
0002
0000
0103
0010
0200
0000
0300
,
0001
0010
0100
0000
1000
0010
1000
0000
,
0000
0200
0000
0310
1000
0020
0000
0030
,
1000
0001
1000
0010
1000
0010
1000
0000
,
0100
0000
0001
0100
0001
0100
0001
0000
,
0010
0000
1000
0001
1000
0001
1000
0001
,
1000
0002
0000
0013
0100
2000
0000
0000
,
3001
0000
0000
0000
;

//---------------dance-single - Destrier75----------------
#NOTES:
     dance-single:
     Destrier75:
     Easy:
     5:
     0.273,0.353,0.175,0.035,0.000:
0000
0000
0000
0000
,
0000
0000
0000
0000
,
0000
0000
0000
0000
,
0000
0000
0000
0000
,
0000
0100
0001
0100
,
0000
1000
0010
1000
,
0000
0100
0001
0100
,
0000
0010
1000
0010
,
0000
1000
1000
1000
,
1000
0001
0001
0001
,
0001
0100
0100
0100
,
0100
0010
0010
0010
,
0010
0010
1010
1000
,
1001
0001
0101
0100
,
0110
0110
0110
0110
,
0110
0220
0000
0000
,
0330
1001
1000
1000
,
1000
0001
0001
0001
,
0001
0100
0100
0100
,
0100
0010
0010
0010
,
0010
1000
1000
1000
,
1000
0001
0001
0001
,
0001
1000
1000
1000
,
1000
0001
1000
0001
,
1000
0001
0100
0001
,
0100
1000
0010
1000
,
0010
0100
0001
0100
,
0001
1000
0100
1000
,
0100
0001
0010
0001
,
0010
1000
0010
1000
,
0010
0100
0010
0100
,
0010
0110
0000
0000
,
0000
1000
1000
0001
,
0001
0100
0100
0010
,
0010
1000
1000
0001
,
0001
1000
1000
0001
,
0001
0100
0100
0010
,
0010
0001
0001
1000
,
1000
0100
0100
0010
,
0010
0010
0000
0000
,
0000
0010
1000
0010
,
0000
0100
0001
0100
,
0000
0100
0010
0100
,
0000
1000
0010
1000
,
0000
1000
1001
0001
,
0101
0100
0110
0100
,
1100
1001
1001
1001
,
1001
2002
0000
0000
,
3003
1000
1000
0010
,
0010
0100
0100
0001
,
0001
0010
0010
0100
,
0100
1000
1000
0001
,
0001
0100
0100
1000
,
1000
0001
0001
1000
,
1000
0010
0010
0001
,
0001
1000
1000
0001
,
0001
0100
0100
0010
,
0010
1000
1000
0000
;

//---------------dance-single - Destrier75----------------
#NOTES:
     dance-single:
     Destrier75:
     Beginner:
     2:
     0.199,0.196,0.018,0.000,0.000:
0000
0000
0000
0000
,
0000
0000
0000
0000
,
0000
0000
0000
0000
,
0000
0000
0000
0000
,
0000
1000
1000
1000
,
0000
0001
0000
0001
,
0000
0100
0100
0100
,
0000
0010
0000
0010
,
0000
1000
1000
1000
,
0000
0010
0010
0010
,
0000
0100
0100
0100
,
0000
0001
0001
0001
,
0000
1000
1000
1000
,
0000
0010
0010
0010
,
0000
0001
0001
0001
,
0000
1001
0000
1001
,
0000
1000
1000
1000
,
0000
0010
0000
0010
,
0000
0100
0100
0100
,
0000
0001
0000
0001
,
0000
0100
0100
0100
,
0000
0010
0000
0010
,
0000
1000
1000
1000
,
0000
0001
0000
0001
,
0000
1000
1000
1000
,
0000
0010
0000
0010
,
0000
0100
0100
0100
,
0000
0001
0000
0001
,
0000
0010
0010
0010
,
0000
1000
0000
1000
,
0000
0100
0100
0100
,
0000
0001
0000
0000
,
0000
1000
1000
1000
,
0000
0010
0000
0010
,
0000
1000
1000
1000
,
0000
0001
0000
0001
,
0000
0100
0100
0100
,
0000
0010
0000
0010
,
0000
0100
0100
0100
,
0000
0010
0000
0010
,
0000
0000
0000
0000
,
0000
0000
0000
0000
,
0000
0100
0100
0100
,
0000
0010
0000
0010
,
0000
1000
1000
1000
,
0000
0001
0001
0001
,
0000
1000
1000
1000
,
0000
0001
0001
0001
,
0000
0100
0100
0100
,
0000
0010
0010
0010
,
0000
1000
1000
1000
,
0000
0001
0001
0001
,
0000
0100
0100
0100
,
0000
0010
0010
0010
,
0000
1000
1000
1000
,
0000
0001
0001
0001
,
0000
0100
0100
0100
,
0000
0010
0010
0010
,
0000
1000
1000
1000
,
0000
0001
0001
0001
,
0000
0100
0100
0100
,
0000
0010
0010
0010
,
0000
1000
1000
1000
,
0000
0001
0001
0001
;
