#TITLE:Destination Calabria;
#SUBTITLE:;
#ARTIST:Alex Gaudino feat.Crystal Waters;
#TITLETRANSLIT:;
#SUBTITLETRANSLIT:;
#ARTISTTRANSLIT:;
#CREDIT:;
#BANNER:Destination Calabria.png;
#BACKGROUND:Destination Calabria-bg.png;
#LYRICSPATH:;
#CDTITLE:;
#MUSIC:Destination Calabria.ogg;
#OFFSET:0.380;
#SAMPLESTART:46.920;
#SAMPLELENGTH:15.000;
#SELECTABLE:YES;
#BPMS:0.000=128.000;
#STOPS:;
#BGCHANGES:0.813=Destination Calabria.avi=1.000=1=1=0,
99999=-nosongbg-=1.000=0=0=0 // don't automatically add -songbackground-
;

//---------------dance-single - Destrier75----------------
#NOTES:
     dance-single:
     Destrier75:
     Hard:
     12:
     0.487,0.441,0.060,0.030,0.109:
0000
0000
0000
0000
,
0000
0000
0000
0000
,
0000
0000
0000
0000
,
0000
0000
0000
0000
,
0000
0000
0000
0000
0100
0000
0000
0001
0100
0000
0001
0000
1000
0000
0001
0000
,
0100
0000
0000
0000
0010
0000
0000
1000
0010
0000
0100
0000
0001
0000
0100
0000
,
0010
0000
0000
0000
1000
0000
0000
0001
1000
0000
0001
0000
1000
0000
0010
0000
,
1000
0000
0000
0000
0001
0000
0000
0100
0001
0000
0100
0000
0001
0000
1000
0000
,
0010
0000
1010
1000
0010
1000
0010
0100
,
0010
0100
0001
0100
0001
0100
0001
0000
,
0100
0000
1000
0010
1000
0010
1000
0010
,
0100
0010
0001
0010
0100
0001
0100
0000
,
0001
0000
1000
0010
1000
0010
1000
0001
,
0010
0001
0100
0010
0100
0001
0100
0000
,
0010
0000
0010
1000
0010
0100
0010
0001
,
0100
0010
0100
0001
0100
1000
0100
0000
,
0010
0000
1001
1000
0001
0100
0010
0100
,
0010
0000
1000
0010
1000
0100
0010
0001
,
0100
0000
0001
1000
0001
0100
0010
0100
,
0010
0000
0001
1000
0001
1000
0010
0100
,
0001
0000
1000
0010
1000
0001
1000
0100
,
0010
0000
1000
0100
0010
1000
0001
0100
,
0001
0000
0100
0010
1000
0001
0100
0010
,
1000
0000
0001
0100
0001
0100
0010
1000
,
0010
2002
0000
0000
,
3003
0000
0000
0000
1000
0000
0000
0001
1000
0000
0010
0000
1000
0000
0001
0000
,
1000
0000
0000
0000
0001
0000
0000
0100
0001
0000
0100
0000
0010
0000
0100
0000
,
0001
0000
0000
0000
0010
0000
0000
0100
0010
0000
0100
0000
0010
0000
1000
0000
,
0001
0000
0000
0000
1000
0000
0000
0001
1000
0000
0010
0000
1000
0000
0001
0000
,
0100
0000
0000
0000
0001
0000
0000
0100
0001
0000
0100
0000
0010
0000
1000
0000
,
0010
0000
0000
0000
1000
0000
0000
0001
0100
0000
0010
0000
1000
0000
0001
0000
,
0100
0000
0000
0000
0010
0000
0000
0100
0010
0000
0100
0000
0010
0000
1000
0000
,
0001
0000
0000
0000
1000
0000
0000
0010
1000
0000
0001
0000
0100
0000
0010
0000
,
1000
0000
1001
0001
1000
0001
0100
0010
,
0001
0010
0100
0010
1000
0010
0001
0000
,
1000
0000
0001
0100
0001
0100
0010
1000
,
0001
0100
0010
0001
1000
0001
0010
0000
,
0100
0000
0001
1000
0001
0100
0010
0100
,
0001
0100
0010
1000
0001
0100
0010
0000
,
0100
0000
0010
1000
0001
0100
0010
0100
,
0001
0100
0001
1000
0001
0100
0010
0000
,
1000
0000
1001
1000
0001
1000
0010
1000
,
0100
0000
0001
0100
0001
0100
0001
0100
,
0001
0000
0100
0001
1000
0001
0100
0010
,
0100
0000
1000
0010
1000
0001
0100
0010
,
0100
0000
1000
0010
1000
0001
0100
0010
,
0100
0000
1000
0001
1000
0100
0010
0001
,
0100
0000
0010
1000
0001
0100
0010
0100
,
0010
0000
1000
0001
0100
0010
0001
0100
,
0010
0220
0000
0000
,
0000
0030
0010
0000
0000
0010
0000
0000
,
0010
0000
0000
0010
0000
0000
0010
0000
,
0310
0000
0000
0000
0110
0000
0000
1000
0001
0000
0100
0000
0010
0000
0100
0000
,
0001
0000
0000
0000
1000
0000
0000
0001
1000
0000
0001
0000
0100
0000
0001
0000
,
0100
0000
0000
0000
1000
0000
0000
0010
1000
0000
0100
0000
0010
0000
0001
0000
,
1000
0000
0000
0000
0001
0000
0000
0100
0001
0000
0100
0000
0001
0000
1000
0000
,
0001
0000
0000
0000
1000
0000
0000
0001
1000
0000
0010
0000
1000
0000
0001
0000
,
1000
0000
0000
0000
0100
0000
0000
0001
0100
0000
0010
0000
0100
0000
0001
0000
,
0100
0000
0000
0000
0010
0000
0000
1000
0010
0000
0100
0000
0010
0000
0100
0000
,
0001
0000
0000
0000
1000
0000
0000
0001
1000
0000
0010
0000
0100
0000
0001
0000
,
1000
0000
0000
0000
1000
0000
0000
0001
1000
0000
0010
0000
1000
0000
0001
0000
,
0100
0000
0000
0000
0001
0000
0000
0100
0001
0000
0100
0000
0001
0000
0100
0000
,
0010
0000
0100
0000
0001
0000
0000
0100
0001
0000
0100
0000
0010
0000
0100
0000
,
0010
0000
1000
0000
0010
0000
0000
1000
0001
0000
0100
0000
0010
0000
0100
0000
,
0001
0000
0100
0000
1000
0000
0000
0010
1000
0000
0010
0000
1000
0000
0001
0000
,
1000
0000
0010
0000
1000
0000
0000
0010
1000
0000
0100
0000
0001
0000
1000
0000
,
0001
0000
0100
0000
0001
0000
0000
1000
0001
0000
0100
0000
0010
0000
0100
0000
,
0001
0000
0100
0000
0010
0000
0000
1000
0010
0000
1000
0000
0001
0000
0100
0000
,
0010
0000
0100
0000
0001
0000
0000
1000
0001
0000
0100
0000
0001
0000
0100
0000
,
0001
1001
0000
0000
;

//---------------dance-single - Destrier75----------------
#NOTES:
     dance-single:
     Destrier75:
     Medium:
     9:
     0.379,0.363,0.240,0.067,0.000:
0000
0000
0000
0000
,
0000
0000
0000
0000
,
0000
0000
0000
0000
,
0000
0000
0000
0000
,
0000
0000
1000
0010
1000
0000
0001
0000
,
1001
0000
0001
0100
0001
0000
0100
0000
,
0110
0000
1000
0010
1000
0000
0010
0000
,
1010
0000
0100
0001
0100
0000
0001
0000
,
0101
0000
1000
0001
1000
0000
1000
0000
,
0001
0000
0100
0010
0100
0000
0001
0000
,
0100
0000
0001
1000
0001
0000
0100
0000
,
0010
0000
1000
0001
1000
0000
0001
0000
,
0100
0000
0010
0100
0010
0000
1000
0000
,
0010
0000
0001
0100
0001
0000
0010
0000
,
1000
0000
0100
0010
0100
0000
0001
0000
,
0100
0000
0001
0100
0001
0000
0010
0000
,
1000
0000
0010
1000
0010
0000
1000
0000
,
1000
0000
0001
0100
0001
0000
0100
0000
,
0100
0000
0010
0100
0010
0000
0100
0000
,
0100
0000
1000
0010
1000
0000
0010
0000
,
0010
0000
0100
0001
0100
0000
0001
0000
,
0001
0000
1000
0010
1000
0000
0010
0000
,
0010
0000
0100
1000
0100
0000
1000
0000
,
1000
0000
0100
0001
0100
0000
0001
0000
,
0001
2002
0000
0000
,
3003
0000
1000
0010
1000
0000
0100
0000
,
1010
0000
0001
0100
0001
0000
0010
0000
,
1001
0000
0100
0010
0100
0000
0001
0000
,
0101
0000
0001
0100
0001
0000
0010
0000
,
1010
0000
0010
0100
0010
0000
1000
0000
,
0101
0000
1000
0001
1000
0000
0001
0000
,
1100
0000
0001
0100
0001
0000
1000
0000
,
1010
0000
1000
0010
1000
0000
0010
0000
,
0110
0000
0001
0100
0001
0000
0100
0000
,
0001
0000
1000
0010
1000
0000
0100
0000
,
0010
0000
0100
0010
0100
0000
0001
0000
,
1000
0000
0001
0100
0001
0000
0010
0000
,
0100
0000
0010
0001
0010
0000
1000
0000
,
0010
0000
1000
0001
1000
0000
0001
0000
,
0100
0000
0001
0100
0001
0000
1000
0000
,
0001
0000
0100
0010
0100
0000
0001
0000
,
1000
0000
0001
0100
0001
0000
0100
0000
,
0100
0000
0010
1000
0010
0000
1000
0000
,
1000
0000
0100
0001
0100
0000
0001
0000
,
0001
0000
0010
0100
0010
0000
0100
0000
,
0100
0000
0010
0001
0010
0000
0001
0000
,
0001
0000
0010
1000
0010
0000
1000
0000
,
1000
0000
0010
0100
0010
0000
0100
0000
,
0100
0000
0010
0001
0010
0000
0001
0000
,
0001
2002
0000
0000
,
0000
3003
2000
0000
0000
3002
0000
0000
,
2003
0000
0000
3002
0000
0000
2003
0000
,
0000
0000
3001
1000
0001
0000
0100
0000
,
0101
0000
0010
1000
0010
0000
0100
0000
,
0101
0000
0010
0100
0010
0000
0001
0000
,
0101
0000
1000
0010
1000
0000
0010
0000
,
1010
0000
0100
0001
0100
0000
0001
0000
,
0101
0000
0010
1000
0010
0000
0100
0000
,
1100
0000
0100
0001
0100
0000
0010
0000
,
0110
0000
1000
0001
1000
0000
0001
0000
,
1001
0000
1000
0010
1000
0000
0010
0000
,
1010
0000
0100
0001
0100
0000
0001
0000
,
0101
0000
0010
0100
0010
0000
0100
0000
,
0110
0000
1000
0001
1000
0000
0001
0000
,
1001
0000
1000
0010
1000
0000
0010
0000
,
1010
0000
0100
0001
0100
0000
0001
0000
,
0101
0000
1000
0001
1000
0000
0001
0000
,
1001
0000
0100
0010
0100
0000
0010
0000
,
0110
0000
1000
0010
1000
0000
0001
0000
,
1001
1001
0000
0000
;

//---------------dance-single - Destrier75----------------
#NOTES:
     dance-single:
     Destrier75:
     Easy:
     6:
     0.272,0.233,0.022,0.030,0.000:
0000
0000
0000
0000
,
0000
0000
0000
0000
,
0000
0000
0000
0000
,
0000
0000
0000
0000
,
0000
1000
0001
1000
,
0001
1000
0010
1000
,
0010
0100
0001
0100
,
0001
1000
0010
1000
,
0010
1000
0001
1000
,
0001
1000
0001
1000
,
0001
0100
0010
0100
,
0010
0100
0010
0100
,
0010
1000
0010
1000
,
0010
1000
0010
1000
,
0010
0100
0001
0100
,
0001
0100
0001
0100
,
0001
1000
0010
1000
,
0001
0100
0001
1000
,
0010
1000
0001
0100
,
0001
1000
0010
1000
,
0001
0100
0001
1000
,
0010
1000
0001
0100
,
0001
1000
0010
1000
,
0001
0100
0001
1000
,
0010
2002
0000
0000
,
3003
1000
0010
1000
,
0010
0100
0001
0100
,
0001
0100
0010
0100
,
0010
1000
0010
1000
,
0010
0100
0001
0100
,
0001
0010
1000
0010
,
1000
0001
0100
0001
,
0100
0010
1000
0010
,
1000
0001
0100
0001
,
0100
0001
0100
0001
,
0100
1000
0010
1000
,
0010
1000
0010
1000
,
0010
0100
0010
0100
,
0010
0100
0010
0100
,
0010
0100
0001
0100
,
0001
0100
0001
0100
,
0001
1000
0100
1000
,
0001
0010
0001
1000
,
0100
1000
0001
0010
,
0001
1000
0100
1000
,
0001
0010
0001
1000
,
0100
1000
0001
0010
,
0001
1000
0100
1000
,
0001
0010
0001
1000
,
0100
0220
0000
0000
,
0000
0000
0000
0000
,
0000
0000
0000
0000
,
0330
0100
0010
0100
,
0010
1000
0001
1000
,
0001
0100
0001
0100
,
0001
0010
1000
0010
,
1000
0100
0010
0100
,
0010
0001
0100
0001
,
0100
1000
0010
1000
,
0010
0100
0001
0100
,
0001
0010
1000
0010
,
1000
0001
0100
0001
,
0100
1000
0010
1000
,
0010
0100
0001
0100
,
0001
0010
0100
0010
,
0100
0001
0100
0001
,
0100
1000
0010
1000
,
0010
1000
0001
1000
,
0001
0100
0001
0100
,
0001
1001
0000
0000
;

//---------------dance-single - Destrier75----------------
#NOTES:
     dance-single:
     Destrier75:
     Beginner:
     3:
     0.185,0.156,0.022,0.030,0.000: // measure 1
0000
0000
0000
0000
,  // measure 2
0000
0000
0000
0000
,  // measure 3
0000
0000
0000
0000
,  // measure 4
0000
0000
0000
0000
,  // measure 5
0000
1000
0000
1000
,  // measure 6
0000
0001
0000
0001
,  // measure 7
0000
1000
0000
1000
,  // measure 8
0000
0001
0000
0001
,  // measure 9
0000
1000
0001
1000
,  // measure 10
0000
0100
0010
0100
,  // measure 11
0000
1000
0001
1000
,  // measure 12
0000
0010
0100
0010
,  // measure 13
0000
0001
1000
0001
,  // measure 14
0000
0100
0010
0100
,  // measure 15
0000
1000
0001
1000
,  // measure 16
0000
0010
0100
0010
,  // measure 17
0000
0001
0001
0001
,  // measure 18
0000
1000
1000
1000
,  // measure 19
0000
0001
0001
0001
,  // measure 20
0000
1000
1000
1000
,  // measure 21
0000
0001
0001
0001
,  // measure 22
0000
1000
1000
1000
,  // measure 23
0000
0001
0001
0001
,  // measure 24
0000
1000
1000
1000
,  // measure 25
0000
2002
0000
0000
,  // measure 26
3003
0100
0000
0100
,  // measure 27
0000
0010
0000
0010
,  // measure 28
0000
0100
0000
0100
,  // measure 29
0000
0010
0000
0010
,  // measure 30
0000
0100
0000
0100
,  // measure 31
0000
0010
0000
0010
,  // measure 32
0000
0100
0000
0100
,  // measure 33
0000
0010
0000
0010
,  // measure 34
0000
1000
0001
1000
,  // measure 35
0000
0100
0010
0100
,  // measure 36
0000
0001
1000
0001
,  // measure 37
0000
0010
0100
0010
,  // measure 38
0000
1000
0001
1000
,  // measure 39
0000
0100
0010
0100
,  // measure 40
0000
0001
1000
0001
,  // measure 41
0000
0010
0100
0010
,  // measure 42
0000
0100
0100
0100
,  // measure 43
0000
0010
0010
0010
,  // measure 44
0000
0100
0100
0100
,  // measure 45
0000
0010
0010
0010
,  // measure 46
0000
0100
0100
0100
,  // measure 47
0000
0010
0010
0010
,  // measure 48
0000
0100
0100
0100
,  // measure 49
0000
0010
0010
0010
,  // measure 50
0000
0220
0000
0000
,  // measure 51
0000
0000
0000
0000
,  // measure 52
0000
0000
0000
0000
,  // measure 53
0330
0100
0000
0100
,  // measure 54
0000
0010
0000
0010
,  // measure 55
0000
0001
0000
0001
,  // measure 56
0000
1000
0000
1000
,  // measure 57
0000
0001
0000
0001
,  // measure 58
0000
1000
0000
1000
,  // measure 59
0000
0010
0000
0010
,  // measure 60
0000
0100
0000
0100
,  // measure 61
0000
1000
0001
1000
,  // measure 62
0000
0100
0010
0100
,  // measure 63
0000
0001
1000
0001
,  // measure 64
0000
0010
0100
0010
,  // measure 65
0000
1000
0001
1000
,  // measure 66
0000
0100
0010
0100
,  // measure 67
0000
0001
1000
0001
,  // measure 68
0000
0010
0100
0010
,  // measure 69
0000
1000
0001
1000
,  // measure 70
0000
1001
0000
0000
;
