#TITLE:Dear New York;
#SUBTITLE:;
#ARTIST:Firebeatz & Schella;
#TITLETRANSLIT:;
#SUBTITLETRANSLIT:;
#ARTISTTRANSLIT:;
#CREDIT:;
#BANNER:Dear New York.png;
#BACKGROUND:Dear New York-bg.png;
#LYRICSPATH:;
#CDTITLE:CDTITLE.png;
#MUSIC:Dear New York.ogg;
#OFFSET:2.400;
#SAMPLESTART:58.100;
#SAMPLELENGTH:15.000;
#SELECTABLE:YES;
#BPMS:0.000=128.000;
#STOPS:;
#BGCHANGES:;

//---------------dance-single - Destrier75----------------
#NOTES:
     dance-single:
     Destrier75:
     Medium:
     11:
     0.409,0.487,0.118,0.145,0.068:
0000
0000
0000
0000
,
0000
0000
0000
0000
,
0000
0000
0000
0000
,
0000
0000
0000
0000
,
0000
0000
0000
0000
,
0000
0220
0000
0000
,
0000
0000
0000
0000
,
0330
0000
0000
0000
1010
0000
0000
0000
0101
0000
0000
0000
0010
0000
0000
0100
,
0000
0000
0010
0000
0000
0100
0000
0000
0010
0000
0000
0100
0000
0000
0010
0000
,
0000
0100
0000
0000
0110
0000
0000
0000
1001
0000
0000
0000
0001
0000
0000
1000
,
0000
0000
0001
0000
0000
0000
1000
0000
0000
0001
0000
0000
1000
0000
0000
0001
,
0000
0000
1000
0010
1000
0000
0000
0000
0010
0000
0000
0000
0100
0000
0000
0010
,
0000
0000
0100
0000
0000
0010
0000
0000
0100
0000
0000
0010
0000
0000
0100
0000
,
0000
0010
0000
0000
0101
0000
0000
0000
0110
0000
0000
0000
0110
0000
0000
0100
,
0000
0100
0100
0000
0110
0000
0000
0000
,
0000
0000
0100
0001
0100
0001
0100
0000
,
0010
0000
1000
0010
1000
0010
1000
0000
,
0100
0000
0010
0100
0010
0100
0010
0000
,
0001
0000
1000
0010
1000
0010
1000
0000
,
0001
2000
0000
3002
,
0000
0203
0000
0320
,
0000
2030
0000
3002
,
0000
0203
0000
0320
,
0000
0000
1030
0100
1000
0100
1000
0000
,
0100
0000
0100
0010
0100
0010
0100
0000
,
0001
0000
0100
0001
0100
0001
0100
0000
,
0010
0000
1000
0010
1000
0010
1000
0000
,
0100
0000
1000
0100
1000
0100
1000
0001
,
1000
0001
1000
0001
1000
0010
1000
0010
,
1000
0100
1000
0100
1000
0001
1000
0001
,
1000
0010
1000
0010
1000
0100
1000
0100
,
1000
0000
0100
0000
1000
0000
0100
0000
0010
0000
0001
0100
0000
0001
0100
0000
,
0001
0101
0010
0100
0010
0100
0010
0000
,
0100
0000
1000
0010
1000
0010
1000
0000
,
0001
0000
0100
0010
0100
0000
0010
0100
,
0010
0000
1000
0100
1000
0100
1000
0000
,
0001
0000
0100
0010
0100
0010
0100
0000
,
0001
0000
1000
0010
1000
0010
1000
0000
,
0010
0000
0100
0010
0100
0000
1000
0001
,
1000
2020
0000
0000
,
3030
0000
0100
0001
0100
0001
0100
0000
,
0010
0000
1000
0010
1000
0010
1000
0000
,
0001
0000
0010
0100
0010
0000
0010
0100
,
0010
0000
1000
0001
1000
0001
1000
0000
,
0001
0000
0100
0010
0100
0010
0100
0000
,
0010
0000
1000
0010
1000
0010
1000
0000
,
0001
0000
0100
0001
0100
0000
0010
1000
,
0010
2020
0000
0000
,
3030
0000
1000
0010
1000
0010
1000
0000
,
0100
0000
0001
0100
0001
0100
0001
0000
,
1000
0000
0010
0100
0010
0000
0001
1000
,
0001
0000
1000
0010
1000
0010
1000
0000
,
0010
0000
0100
0010
0100
0010
0100
0000
,
0010
0000
0100
0001
0100
0001
0100
0000
,
0010
0000
0100
0010
0100
0000
0001
0100
,
0001
2002
0000
0000
,
3003
0000
1000
0010
1000
0000
0100
0001
,
0100
0000
0010
0100
0010
0000
1000
0010
,
1000
0000
0001
0100
0001
0000
0010
0001
,
0010
0000
0100
0010
0100
0000
0000
0000
;

//---------------dance-single - Destrier75----------------
#NOTES:
     dance-single:
     Destrier75:
     Easy:
     6:
     0.277,0.243,0.036,0.145,0.000:
0000
0000
0000
0000
,
0000
0000
0000
0000
,
0000
0000
0000
0000
,
0000
0000
0000
0000
,
0000
0000
0000
0000
,
0000
0220
0000
0000
,
0000
0000
0000
0000
,
0330
0100
0100
0010
,
0010
1000
1000
0001
,
0001
1000
1000
0001
,
0001
0100
0100
0010
,
0010
1000
1000
0001
,
0001
1000
1000
0001
,
0001
0100
0100
0010
,
0010
0100
0100
0100
,
0000
1000
0010
1000
,
0010
0100
0001
0100
,
0001
0010
1000
0010
,
1000
0100
0010
0100
,
0010
0002
0000
2003
,
0000
3002
0000
2003
,
0000
3002
0000
2003
,
0000
3002
0000
2003
,
0000
3001
0001
0010
,
0010
0100
0100
1000
,
1000
0100
0100
0010
,
0010
0001
0001
0010
,
0010
1000
1000
0001
,
0001
0100
0100
0010
,
0010
0001
0001
1000
,
1000
0010
0010
0100
,
0100
0010
0010
0100
,
0100
1000
0010
1000
,
0010
0100
0001
0100
,
0001
0010
1000
0010
,
1000
0100
0010
0100
,
0010
0100
0001
0100
,
0001
1000
0010
1000
,
0010
0100
0010
0100
,
0010
0220
0000
0000
,
0330
0010
1000
0010
,
1000
0100
0001
0100
,
0001
0010
1000
0010
,
1000
0100
0010
0100
,
0010
0100
0001
0100
,
0001
0010
1000
0010
,
1000
0100
0010
0100
,
0010
0202
0000
0000
,
0303
1000
0010
1000
,
0010
0100
0010
0100
,
0010
0100
0001
0100
,
0001
0010
1000
0010
,
1000
0100
0010
0100
,
0010
0100
0001
0100
,
0001
1000
0010
1000
,
0010
2020
0000
0000
,
3030
1000
1000
0001
,
0001
1000
1000
0001
,
0001
1000
1000
0001
,
0001
1000
1000
0000
;

//---------------dance-single - Destrier75----------------
#NOTES:
     dance-single:
     Destrier75:
     Beginner:
     3:
     0.191,0.163,0.009,0.018,0.000: // measure 1
0000
0000
0000
0000
,  // measure 2
0000
0000
0000
0000
,  // measure 3
0000
0000
0000
0000
,  // measure 4
0000
0000
0000
0000
,  // measure 5
0000
0000
0000
0000
,  // measure 6
0000
2002
0000
0000
,  // measure 7
0000
0000
0000
0000
,  // measure 8
3003
1000
0000
1000
,  // measure 9
0000
0001
0000
0001
,  // measure 10
0000
0100
0000
0100
,  // measure 11
0000
0010
0000
0010
,  // measure 12
0000
0100
0000
0100
,  // measure 13
0000
1000
0000
1000
,  // measure 14
0000
0001
0000
0001
,  // measure 15
0000
0001
0000
0001
,  // measure 16
0000
1000
1000
1000
,  // measure 17
0000
0001
0001
0001
,  // measure 18
0000
0100
0100
0100
,  // measure 19
0000
0010
0010
0010
,  // measure 20
0000
1000
1000
1000
,  // measure 21
0000
0001
0001
0001
,  // measure 22
0000
0100
0100
0100
,  // measure 23
0000
0010
0010
0010
,  // measure 24
0000
1000
1000
1000
,  // measure 25
0000
0001
0001
0001
,  // measure 26
0000
1000
1000
1000
,  // measure 27
0000
0001
0001
0001
,  // measure 28
0000
0100
0100
0100
,  // measure 29
0000
0010
0010
0010
,  // measure 30
0000
0100
0100
0100
,  // measure 31
0000
0010
0010
0010
,  // measure 32
0000
0100
0000
0100
,  // measure 33
0000
1000
1000
1000
,  // measure 34
0000
0100
0100
0100
,  // measure 35
0000
0001
0001
0001
,  // measure 36
0000
1000
1000
1000
,  // measure 37
0000
0010
0010
0010
,  // measure 38
0000
1000
1000
1000
,  // measure 39
0000
0001
0001
0001
,  // measure 40
0000
0010
0000
0010
,  // measure 41
0000
0010
0010
0010
,  // measure 42
0000
1000
1000
1000
,  // measure 43
0000
0001
0001
0001
,  // measure 44
0000
0100
0100
0100
,  // measure 45
0000
0010
0010
0010
,  // measure 46
0000
1000
1000
1000
,  // measure 47
0000
0001
0001
0001
,  // measure 48
0000
1000
0000
1000
,  // measure 49
0000
0001
0001
0001
,  // measure 50
0000
1000
1000
1000
,  // measure 51
0000
0001
0001
0001
,  // measure 52
0000
0100
0100
0100
,  // measure 53
0000
0010
0010
0010
,  // measure 54
0000
0100
0100
0100
,  // measure 55
0000
0001
0001
0001
,  // measure 56
0000
1000
0000
1000
,  // measure 57
0000
0001
0000
0001
,  // measure 58
0000
1000
0000
1000
,  // measure 59
0000
0001
0000
0001
,  // measure 60
0000
0100
0000
0100
;

//---------------dance-single - Destrier75----------------
#NOTES:
     dance-single:
     Destrier75:
     Hard:
     14:
     0.604,0.757,0.127,0.100,0.432:
0000
0000
0000
0000
,
0000
0000
0000
0000
,
0000
0000
0000
0000
,
0000
0000
0000
0000
,
0000
0000
0000
0000
,
0000
2002
0000
0000
,
0000
0000
0000
0000
,
3003
0000
0000
0000
0100
0000
0000
0000
0010
0000
0000
0000
0001
0000
0000
1000
,
0000
0000
0001
0000
0000
1000
0000
0000
0001
0000
0000
0100
0000
0000
1000
0000
,
0000
0001
0000
0000
1001
0000
0000
0000
0010
0000
0000
0000
1000
0000
0000
0010
,
0000
0000
0001
0000
0000
0000
1000
0000
0000
0010
0000
0000
1000
0000
0000
0010
,
0000
0000
0100
0010
0100
0000
0010
0000
0100
0000
0001
0000
1000
0000
0001
0000
,
0100
0000
0001
0000
0000
1000
0000
0000
0010
0000
0000
0001
0000
0000
1000
0000
,
0000
0010
0000
0000
0100
0000
0000
0000
0010
0000
0000
0000
0100
0000
0000
0001
,
0000
1000
1001
0000
1001
0000
1001
0000
,
1000
0100
0010
0001
0010
0001
0010
0001
,
0010
0001
0100
0010
0100
0010
0100
0010
,
0100
0010
1000
0001
1000
0001
1000
0001
,
1000
0100
0001
0010
0001
0010
0001
0010
,
0001
0100
0002
0000
0100
0000
2003
0000
,
0010
3200
0001
0320
,
1000
2030
0010
3002
,
0100
0023
1000
2030
,
0001
0000
3001
0010
0001
0010
0001
0010
,
0001
0010
1000
0010
1000
0010
1000
0100
,
0010
0100
0001
0010
0100
0010
0100
0010
,
0100
0000
0010
0000
0001
0000
0100
0000
0001
0000
0100
0000
0001
0100
0001
0100
,
0001
0000
0010
0000
1000
0001
1000
0000
0100
0010
0100
0000
0001
0100
0001
0000
,
0100
0010
0100
0000
1000
0100
1000
0000
0001
0010
0001
0000
0010
1000
0010
0000
,
0100
0010
0100
0000
1000
0100
0010
0001
1000
0100
0010
0001
1000
0100
0010
0001
,
1000
0100
0010
0001
1000
0100
0010
0001
1000
0100
0010
0001
1000
0100
0010
0001
,
1000
0100
0010
0001
1000
0000
0010
0000
1000
0000
0010
1000
0000
1000
0010
0000
,
1000
0000
1010
0000
1000
0000
0010
0000
1000
0000
0010
0000
1000
0100
0010
0000
,
0001
0000
0100
0000
0010
0000
0001
0000
0010
0000
0001
0000
0010
0001
0010
0000
,
0100
0000
0001
0000
0010
0100
0010
0000
1000
0000
0010
0000
1000
0010
1000
0000
,
0001
0000
0100
0010
0100
0000
0010
0000
1000
0000
0100
0001
0100
0000
0001
0000
,
0120
0000
0000
0000
1030
0000
0001
0000
1000
0000
0001
0000
1000
0100
0010
0000
,
1000
0000
0010
0000
0100
0000
0010
0000
0100
0000
0010
0000
0100
0010
0001
0000
,
0100
0000
0010
0000
1000
0010
1000
0000
0010
0000
0001
0000
0100
0010
0100
0000
,
0010
0000
0000
1000
0000
0000
0100
0000
0010
0000
0100
0000
0010
0000
0001
0000
0010
0000
0001
0000
0010
0000
0001
0000
,
0010
0000
0000
0000
0100
0000
0000
0000
0001
0000
0000
0000
1000
0000
0000
0000
0000
0000
0001
0000
0000
0000
0000
0000
1000
0000
0000
0000
0000
0000
0001
0000
0000
0000
0000
0000
1000
0000
0000
0100
0000
0000
0010
0000
0000
0000
0000
0000
,
1000
0000
0010
0000
0100
0000
0001
0000
0100
0000
0001
0000
0100
0010
0001
0000
,
0010
0000
0100
0000
0010
0100
0010
0000
0001
0000
0010
0000
0010
1000
0010
0000
,
1000
0000
0000
0000
0000
0000
0010
0000
0000
1000
0000
0000
0010
0000
0000
0000
0100
0000
0000
0000
0010
0000
0000
0000
0100
0000
0000
0000
0010
0000
0000
0000
0100
0000
0000
0000
0010
0000
0000
0000
0000
0000
0001
0000
0000
0000
0000
0000
,
0010
0000
0000
0000
1000
0000
0001
0000
1000
0000
0001
0000
1000
0000
0010
1000
,
0010
0000
0000
0000
0001
0000
0100
0000
0001
0000
0100
0000
0001
0000
0100
0001
,
0100
0000
0010
0000
1000
0010
1000
0000
1000
0000
0010
0000
1000
0001
1000
0000
,
1000
0000
0000
0010
0000
0000
0100
0000
0001
0000
1000
0000
0001
0000
0100
0000
0001
0000
0100
0000
0010
0000
1000
0000
,
0010
0000
0000
0000
1000
0000
0000
0000
0010
0000
0000
0000
1000
0000
0000
0000
0000
0000
0010
0000
0000
0000
0000
0000
1000
0000
0000
0000
0000
0000
0010
0000
0000
0000
0000
0000
1000
0000
0000
0100
0000
0000
0010
0000
0000
0000
0000
0000
,
1000
0000
0100
0000
0010
0000
0100
0000
0010
0000
0100
0000
0010
0100
1000
0000
,
0100
0000
0010
0000
0001
0100
0001
0000
0010
0000
0100
0000
1000
0010
1000
0000
,
0010
0100
1000
0010
0001
0010
0100
0010
,
0001
0000
0100
0000
1000
0000
0010
0000
1000
0000
0010
0000
1000
0100
1000
0000
,
0001
0000
0010
0000
0001
0000
0100
0000
0001
0000
0100
0000
0001
0100
0001
0000
,
0010
0000
0001
0000
0100
0010
0100
0000
0100
0000
0010
0000
1000
0010
1000
0000
,
0100
0000
0010
0000
1000
0100
0010
0001
1000
0100
0010
0001
1000
0100
0010
0001
,
1000
0100
0010
0001
1000
0000
0000
0000
1001
0000
0000
0000
1000
0000
0000
0000
,
1010
0010
0011
0001
,
1001
1000
1010
0010
,
0011
0001
1001
0000
;
