#TITLE:Chae Chae (Yak Sin Fi Kap Thoe) #Selfie;
#SUBTITLE:;
#ARTIST:La Da R-Siam;
#TITLETRANSLIT:;
#SUBTITLETRANSLIT:;
#ARTISTTRANSLIT:;
#CREDIT:;
#BANNER:Chae Chae (Yak Sin Fi Kap Thoe) Selfie.png;
#BACKGROUND:Chae Chae (Yak Sin Fi Kap Thoe) Selfie-bg.png;
#LYRICSPATH:;
#CDTITLE:;
#MUSIC:Chae Chae (Yak Sin Fi Kap Thoe) Selfie.ogg;
#OFFSET:0.440;
#SAMPLESTART:54.980;
#SAMPLELENGTH:15.000;
#SELECTABLE:YES;
#BPMS:0.000=135.000;
#STOPS:;
#BGCHANGES:1.000=Chae Chae (Yak Sin Fi Kap Thoe) Selfie.avi=1.000=1=1=0,
99999=-nosongbg-=1.000=0=0=0 // don't automatically add -songbackground-
;

//---------------dance-single - Destrier75----------------
#NOTES:
     dance-single:
     Destrier75:
     Hard:
     12:
     0.506,0.471,0.336,0.345,0.015:
0000
0000
0000
0000
,
0000
0000
0000
0000
,
0000
0000
0000
0000
,
0000
0000
0000
0000
,
0000
0000
1000
0100
0010
0100
1000
1010
,
0000
0110
0001
0100
0010
0010
0000
1010
,
0000
0101
0001
0100
0001
0100
0010
1010
,
0000
0110
0000
0001
0010
0100
0001
0100
,
0010
0001
2000
0000
3010
0100
0100
0010
,
2000
0000
0001
3001
0000
1000
0100
0010
,
0001
0010
0001
0000
0010
0100
0010
0100
,
0010
0001
0010
0020
0000
0000
0030
1000
,
0010
1000
0020
0000
0130
0100
0010
0001
,
0010
0100
0010
0001
0000
0001
1000
0001
,
1000
0000
0001
0000
1000
0000
0000
0100
0000
0000
0010
0000
0001
0000
1000
0000
,
0001
1000
0001
2002
0000
0000
0000
0000
,
3003
0000
1000
0100
0010
0001
1001
1000
,
0000
0001
1000
0000
0000
0100
0010
0100
,
2000
0000
0010
3010
0000
1000
0100
0010
,
0001
0010
0100
0000
0000
1000
0010
1000
,
0010
2000
0000
0002
0000
3003
0000
0002
,
0000
0203
0000
2300
0000
3100
0010
0001
,
0010
0100
2000
0000
3100
0010
0100
0010
,
0000
0100
0000
0000
0010
0000
0000
1000
0000
0000
0010
0000
1000
0000
0001
0000
,
1000
0001
1000
0001
2002
0000
0000
0000
,
3003
0110
1010
0101
,
1001
0000
1000
0010
1000
0010
1000
0000
,
0010
0000
1000
0001
1000
0001
1000
0000
,
0001
0000
0100
0001
0100
0001
0100
0000
,
0001
0000
0100
0010
0100
0010
0100
0000
,
0100
1001
1001
1001
,
0000
0000
1000
0000
1010
0000
0001
0100
,
0001
0100
0002
0000
0103
0000
0010
0100
,
0010
0100
0020
0000
2030
0000
3001
0010
,
0200
0000
0001
0002
0000
0000
0000
0000
,
0303
0000
0001
0000
0101
0000
0001
0010
,
0100
0010
0002
0000
1003
0000
1000
0010
,
1000
0010
2000
0000
3002
0000
0103
0010
,
0002
0000
1000
2000
0000
0000
0000
0000
,
3003
0000
1000
0000
1010
0000
1000
0010
,
1000
0010
0002
0000
0103
0000
0001
0010
,
0100
0010
0002
0000
2003
0000
3010
1000
,
0020
0000
0100
0200
0000
0000
0000
0000
,
0330
0000
0010
0000
0110
0000
1000
0100
,
0010
0100
2000
0000
3001
0000
0001
0100
,
0001
0100
0002
0000
2003
0000
3001
0010
,
0200
0000
0001
0002
0000
0000
0000
0000
,
0303
0000
1000
0010
1000
0010
1000
0101
,
0000
0110
0000
1000
0100
0010
0100
0110
,
0000
1001
0000
0001
0100
0001
1000
1001
,
0000
1010
0000
1000
0100
0010
1000
0001
,
1000
0001
0100
0010
0100
0010
0100
1001
,
0000
1010
0000
1000
0010
1000
0010
1010
,
0000
0101
0000
0001
0100
0001
0100
0001
,
0100
0010
0100
0010
0100
1000
0100
0010
,
0001
0100
0000
1001
0000
0110
0000
1010
,
0000
0101
0000
0000
0000
0000
0000
0000
;

//---------------dance-single - Destrier75----------------
#NOTES:
     dance-single:
     Destrier75:
     Medium:
     8:
     0.395,0.417,0.158,0.039,0.000:
0000
0000
0000
0000
,
0000
0000
0000
0000
,
0000
0000
0000
0000
,
0000
0000
0000
0000
,
0000
0000
1000
0001
1000
0001
0000
1000
,
0000
1001
0000
0100
0010
0100
0000
0010
,
0000
0110
0000
1000
0010
1000
0000
0010
,
0000
1010
0000
1000
0001
1000
0001
1000
,
0001
0000
1001
0000
1000
0010
1000
0000
,
0100
0000
0010
1000
0001
0000
0100
0000
,
0010
0100
0010
0000
1000
0000
0001
0100
,
0001
0010
1000
0100
,
0001
0000
0100
0010
0100
0000
0001
0000
,
1000
0000
0010
0100
0010
0000
1000
0000
,
0001
0000
0100
0001
0100
0000
0001
0000
,
1000
0100
0001
0000
1000
0000
0001
0000
,
1000
0001
1001
1001
,
0000
0000
1000
0010
1000
0000
0001
0000
,
0100
0010
0100
0000
1000
0000
0010
0100
,
0010
0000
0100
0000
0001
0100
0001
0000
,
1000
0001
1000
0001
,
0100
0000
0010
1000
0010
0000
0100
0000
,
0010
0100
0010
0000
0001
0000
0100
0001
,
0100
0000
0010
0000
1000
0010
1000
0000
,
0010
0100
1000
0001
,
0100
1001
1001
1001
,
0000
0000
1000
0001
1000
0000
0100
0000
,
0001
0000
1000
0010
1000
0000
0100
0000
,
0010
0000
0100
0001
0100
0000
1000
0000
,
0001
0000
0100
0010
0100
0000
0001
0000
,
0010
1000
0010
0110
,
0000
0000
1000
0001
1000
0000
0010
0000
,
1000
0010
0001
0000
0001
0000
1000
0010
,
1000
0000
0100
0000
0001
0010
1000
0000
,
0001
0000
0100
0010
0100
0000
0001
0000
,
1000
0000
1000
0010
1000
0000
0100
0000
,
0010
0000
0010
0100
1000
0000
1000
0000
,
0001
1000
0001
0000
0100
0000
0010
0100
,
0010
0100
0010
0100
,
0010
0000
1000
0010
1000
0000
0100
0000
,
0001
0000
0100
0010
0100
0000
0001
0000
,
1000
0000
0100
0010
0100
0000
0001
0000
,
0100
0001
0100
0001
,
0100
0000
0001
1000
0001
0000
0100
0000
,
0001
0000
1000
0010
1000
0000
0100
0000
,
0010
0000
0100
0001
0100
0000
0010
0000
,
1000
0010
1000
0010
,
1000
0000
0001
0100
0001
0100
0000
0010
,
0000
0110
0000
1000
0010
1000
0000
0001
,
0000
1001
0000
0100
0010
0100
0000
0010
,
0000
0110
0000
1000
0001
1000
0001
1000
,
0001
1000
0000
0001
0100
0001
0000
0100
,
0000
0101
0000
0010
0100
0010
0000
0100
,
0000
0110
0000
1000
0010
1000
0000
0010
,
0000
1010
0000
1000
0100
0010
0001
0010
,
0100
1000
0010
2000
0000
3002
0000
2003
,
0000
3002
0000
0003
0000
0000
0000
0000
;

//---------------dance-single - Destrier75----------------
#NOTES:
     dance-single:
     Destrier75:
     Easy:
     5:
     0.302,0.359,0.089,0.020,0.000:
0000
0000
0000
0000
,
0000
0000
0000
0000
,
0000
0000
0000
0000
,
0000
0000
0000
0000
,
0000
1000
0010
1000
,
0010
0100
0001
0100
,
0001
1000
0001
1000
,
0001
1000
0010
1000
,
0010
0100
0001
0100
,
0001
1000
0001
0100
,
0010
0100
1000
0010
,
1000
0100
0001
0100
,
0001
1000
0001
0100
,
0001
0100
0010
1000
,
0010
0100
0010
0100
,
0001
1000
0001
0100
,
0001
0100
0001
0101
,
0000
0100
0010
0100
,
1000
0001
1000
0100
,
0001
0100
0010
1000
,
0010
0100
0001
0100
,
0010
1000
0010
0100
,
0001
0100
0010
0100
,
0010
1000
0001
1000
,
0100
0001
0100
0001
,
0100
1001
1001
1001
,
1001
1000
0010
1000
,
0010
1000
0001
0100
,
0001
0100
0001
0010
,
0100
0010
0100
0010
,
0100
0110
0110
0110
,
0000
1000
1000
0001
,
0001
1000
1000
0010
,
0010
0100
0100
0010
,
0010
0100
0100
0010
,
0010
0001
0001
1000
,
1000
0010
0010
0100
,
0100
0001
0001
0100
,
0100
0010
0010
1000
,
1000
0001
1000
0001
,
1000
0010
1000
0010
,
0100
0010
0100
0001
,
0100
0001
0010
1000
,
0010
0100
0001
0100
,
0001
1000
0001
1000
,
0001
0100
0010
0100
,
0001
0010
1000
0001
,
0010
0100
0010
0100
,
0010
0100
0001
0100
,
0001
0010
1000
0010
,
1000
0100
0001
0100
,
0001
1000
0010
1000
,
0010
0100
0001
0100
,
0001
1000
0010
1000
,
0010
0100
0010
0100
,
0010
0220
0000
0000
,
0330
0000
0000
0000
;

//---------------dance-single - Destrier75----------------
#NOTES:
     dance-single:
     Destrier75:
     Beginner:
     2:
     0.190,0.164,0.030,0.000,0.000: // measure 1
0000
0000
0000
0000
,  // measure 2
0000
0000
0000
0000
,  // measure 3
0000
0000
0000
0000
,  // measure 4
0000
0000
0000
0000
,  // measure 5
0000
0100
0000
0100
,  // measure 6
0000
0001
0000
0001
,  // measure 7
0000
1000
0000
1000
,  // measure 8
0000
0010
0000
0010
,  // measure 9
0000
0100
0100
0100
,  // measure 10
0000
0010
0010
0010
,  // measure 11
0000
1000
1000
1000
,  // measure 12
0000
0001
0001
0001
,  // measure 13
0000
1000
1000
1000
,  // measure 14
0000
0001
0001
0001
,  // measure 15
0000
0100
0100
0100
,  // measure 16
0000
0010
0010
0010
,  // measure 17
0000
0100
0000
0100
,  // measure 18
0000
1000
1000
1000
,  // measure 19
0000
0001
0001
0001
,  // measure 20
0000
0100
0100
0100
,  // measure 21
0000
0010
0010
0010
,  // measure 22
0000
0100
0100
0100
,  // measure 23
0000
1000
1000
1000
,  // measure 24
0000
0001
0001
0001
,  // measure 25
0000
0100
0100
0100
,  // measure 26
0000
0010
0010
0010
,  // measure 27
0000
1000
1000
1000
,  // measure 28
0000
0001
0001
0001
,  // measure 29
0000
1000
1000
1000
,  // measure 30
0000
0001
0001
0001
,  // measure 31
0000
1001
0000
1001
,  // measure 32
0000
1000
0000
1000
,  // measure 33
0000
0010
0010
0010
,  // measure 34
0000
0100
0000
0100
,  // measure 35
0000
0001
0001
0001
,  // measure 36
0000
0001
0000
0001
,  // measure 37
0000
1000
1000
1000
,  // measure 38
0000
0010
0000
0010
,  // measure 39
0000
0100
0100
0100
,  // measure 40
0000
0001
0000
0001
,  // measure 41
0000
1000
1000
1000
,  // measure 42
0000
0010
0000
0010
,  // measure 43
0000
0100
0100
0100
,  // measure 44
0000
1000
0000
1000
,  // measure 45
0000
0001
0001
0001
,  // measure 46
0000
0010
0000
0010
,  // measure 47
0000
0100
0100
0100
,  // measure 48
0000
0010
0000
0010
,  // measure 49
0000
1000
0000
1000
,  // measure 50
0000
0001
0000
0001
,  // measure 51
0000
0100
0000
0100
,  // measure 52
0000
0010
0000
0010
,  // measure 53
0000
0100
0000
0100
,  // measure 54
0000
0001
0000
0001
,  // measure 55
0000
1000
0000
1000
,  // measure 56
0000
1001
0000
0000
;
