#TITLE:Casanova;
#SUBTITLE:;
#ARTIST:Mike Geno;
#TITLETRANSLIT:;
#SUBTITLETRANSLIT:;
#ARTISTTRANSLIT:;
#CREDIT:;
#BANNER:Casanova.png;
#BACKGROUND:Casanova-bg.png;
#LYRICSPATH:;
#CDTITLE:;
#MUSIC:Casanova.ogg;
#OFFSET:0.460;
#SAMPLESTART:43.980;
#SAMPLELENGTH:15.000;
#SELECTABLE:YES;
#BPMS:0.000=131.000;
#STOPS:;
#BGCHANGES:1.000=Casanova.avi=1.000=1=1=0,
99999=-nosongbg-=1.000=0=0=0 // don't automatically add -songbackground-
;

//---------------dance-single - Destrier75----------------
#NOTES:
     dance-single:
     Destrier75:
     Hard:
     17:
     0.815,1.000,0.229,0.008,1.000:
0000
0000
0000
0000
,
0000
0000
0000
0000
,
0000
0000
0000
0000
,
0000
0000
0000
0000
,
0000
0000
0000
0000
1001
0000
0000
0001
0000
0000
1000
0000
0010
0000
0000
0000
,
1010
0000
0000
0000
0110
0000
0000
0010
0000
0000
0100
0000
0010
0000
0000
0000
,
0110
0000
0000
0000
1010
0000
0000
0010
0000
0000
1000
0000
0010
0000
0000
0000
,
1010
0000
0000
0000
0110
0000
0100
0000
0010
0000
0100
0010
0000
0100
0010
0100
,
0010
0100
0010
0100
0010
0000
1000
0010
1000
0000
0100
0000
0010
0000
0100
0010
,
0100
0000
0001
0000
1000
0000
0001
1000
0001
0000
0100
0000
0010
0000
1000
0010
,
1000
0000
0100
0000
0001
0000
0010
0100
0010
0000
1000
0000
0010
0000
1000
0010
,
1000
0000
0100
0000
0001
0000
0100
0010
0100
0000
0001
0000
0100
0000
0001
1000
,
0001
0000
1000
0000
0010
0000
0100
0010
0100
0000
0010
0000
1000
0000
0100
0010
,
0100
0000
0010
0000
0001
0000
1000
0010
1000
0000
0100
0000
0001
0000
1000
0001
,
1000
0000
0010
0000
1000
0000
0100
0010
0100
0000
0001
0000
1000
0000
0001
0010
,
0001
0000
0100
0000
0010
0000
0100
1000
0100
0000
0010
0000
0001
0000
0100
0001
,
0100
0000
0000
0000
0010
0000
0100
0010
0100
0000
0010
0000
0100
0000
0010
0100
,
0010
0000
0100
0000
0001
0000
1000
0001
1000
0000
0100
0000
0010
0000
0100
0010
,
0100
0000
0001
0000
1000
0000
0010
1000
0010
0000
0100
0000
0001
0000
0100
0010
,
0100
0000
0010
0000
1000
0000
0010
0100
0010
0000
0100
0000
0001
0000
0100
0010
,
0100
0000
0001
0000
1000
0000
0010
1000
0010
0000
0100
0000
0001
0000
0100
0010
,
0100
0000
0010
0000
1000
0000
0010
0100
0010
0000
0100
0000
0001
0000
0100
0010
,
0100
0000
1000
0000
0010
0000
0100
0010
0100
0000
0001
0000
0100
0000
0001
0100
,
0001
0000
0010
0000
1000
0000
0010
1000
0010
0000
0100
0000
0001
0000
0100
0001
,
0100
0000
0010
0000
1000
0100
0010
0001
1000
0100
0010
0001
1000
0100
0010
0001
,
1000
0100
1000
0100
1000
0100
1000
0100
1000
0000
0000
0000
0000
0000
0010
0000
0000
0000
1000
0000
0100
0000
0000
0000
0001
0000
0000
0000
0000
0000
0010
0000
,
0000
0100
0001
0000
0001
0010
0100
1000
0001
0010
0100
1000
0001
0010
0100
1000
,
0100
0001
0100
0001
0100
0001
0100
0001
0100
0000
0000
0000
0000
0000
0010
0000
0000
0000
1000
0000
0010
0000
0000
0000
1000
0000
0000
0000
0000
0000
0010
0000
,
0000
0100
0001
0000
1000
0100
0010
0001
1000
0100
0010
0001
1000
0100
0010
0001
,
1000
0010
1000
0010
1000
0010
1000
0010
1000
0000
0100
0000
0010
0000
0001
0000
1000
0000
0100
0000
0010
0000
0001
0000
1000
0000
0100
0000
0010
0000
0001
0000
,
1000
0100
0010
0001
0001
0010
0100
1000
0001
0010
0100
1000
0001
0010
0100
1000
,
0001
0100
0001
0100
0001
0100
0001
0100
0001
0000
0010
0000
0100
0000
1000
0000
0001
0000
0010
0000
0100
0000
1000
0000
0001
0000
0010
0000
0100
0000
1000
0000
,
0010
0100
0010
1000
1010
0000
0000
0010
0000
0000
0100
0000
0010
0000
0000
0000
,
0110
0000
0000
0000
1001
0000
0000
1000
0000
0000
0010
0000
1000
0000
0000
0000
,
1010
0000
0000
0000
0110
0000
0000
0010
0000
0000
0100
0000
0010
0000
0000
0000
,
0110
0000
0000
0000
0001
0000
1000
0000
0001
0000
0100
0010
0000
0010
0100
0010
,
0100
0010
0100
0010
0100
0000
0000
0010
0000
0000
1000
0000
0010
0000
0000
0000
,
1010
0000
0000
0000
0101
0000
0000
0100
0000
0000
0001
0000
1000
0000
0000
0000
,
1001
0000
0000
0000
0110
0000
0000
0010
0000
0000
0100
0000
0010
0000
0000
0000
,
0110
0000
0000
0000
1000
0000
0001
0000
1000
0000
0001
1000
0000
1000
0001
0000
,
0001
0000
1000
0000
0001
0000
1000
0000
1000
0010
1000
0010
1000
0010
1000
0010
1000
0000
0000
0000
0010
0000
0000
0000
0100
0001
0100
0001
0100
0001
0100
0001
,
0100
0000
0000
0000
0010
0000
0000
0000
0100
0010
0100
0010
0100
0010
0100
0010
0100
0000
0000
0000
0001
0000
0000
0000
1000
0001
1000
0001
1000
0001
1000
0001
,
1000
0000
0010
0000
1000
0000
0100
1000
0000
1000
0100
0000
0010
0000
0100
0001
,
0000
0001
0100
0000
0010
0000
0100
0010
0000
0010
0100
0000
0010
0000
1000
0000
,
0010
0000
0000
0000
0100
0000
0000
0000
1000
0100
1000
0100
1000
0100
1000
0100
1000
0000
0000
0000
0100
0000
0000
0000
0010
0100
0010
0100
0010
0100
0010
0100
,
0010
0000
0000
0000
0001
0000
0000
0000
0100
0001
0100
0001
0100
0001
0100
0001
0100
0000
0000
0000
0010
0000
0000
0000
1000
0010
1000
0010
1000
0010
1000
0010
,
1000
0000
0100
0000
0001
0000
0100
0010
0000
0010
0100
0000
0001
0000
1000
0100
,
0000
0100
1000
0000
0010
0000
0001
0100
0000
0100
0001
0000
0010
0000
0100
0000
,
0001
0100
0001
0100
0001
0010
0100
1000
0001
0010
0100
1000
0001
0010
0100
1000
,
0001
0100
0001
0100
0001
0100
0001
0100
0001
0000
0000
0000
0000
0000
0010
0000
0000
0000
1000
0000
0010
0000
0000
0000
0100
0000
0000
0000
0000
0000
0001
0000
,
0000
0100
0001
0000
1000
0100
0010
0001
1000
0100
0010
0001
1000
0100
0010
0001
,
1000
0010
1000
0010
1000
0010
1000
0010
1000
0000
0000
0000
0000
0000
0010
0000
0000
0000
0100
0000
0010
0000
0000
0000
1000
0000
0000
0000
0000
0000
0010
0000
,
0000
0100
0010
0000
0001
0010
0100
1000
0001
0010
0100
1000
0001
0010
0100
1000
,
0100
0001
0100
0001
0100
0001
0100
0001
1000
0000
0100
0000
0010
0000
0001
0000
1000
0000
0100
0000
0010
0000
0001
0000
1000
0000
0100
0000
0010
0000
0001
0000
,
1000
0100
0010
0001
1000
0001
0010
0100
1000
0001
0010
0100
1000
0001
0010
0100
,
1000
0100
1000
0100
1000
0100
1000
0100
1000
0000
0100
0000
0010
0000
0001
0000
1000
0000
0100
0000
0010
0000
0001
0000
1000
0000
0100
0000
0010
0000
0001
0000
,
1000
0100
0010
0001
1001
0000
0000
0001
0000
0000
1000
0000
0010
0000
0000
0000
,
1010
0000
0000
0000
0110
0000
0000
0010
0000
0000
0100
0000
0001
0000
0000
0000
,
0101
0000
0000
0000
1001
0000
0000
1000
0000
0000
0010
0000
1000
0000
0000
0000
,
1010
0000
0000
0000
1000
0000
0010
0000
1000
0000
0010
1000
0000
0010
1000
0010
,
1000
0010
1000
0010
1000
0000
0000
0010
0000
0000
0100
0000
0001
0000
0000
0000
,
0101
0000
0000
0000
0110
0000
0000
0100
0000
0000
0010
0000
1000
0000
0000
0000
,
1010
0000
0000
0000
1000
0000
0000
0001
0000
0000
0100
0000
0010
0000
0000
0000
,
0110
0000
0000
0000
0100
0000
0001
0000
0100
0000
0001
0100
0000
0100
0001
0100
,
0001
0100
0001
0100
0002
0000
0000
0000
0000
0000
0000
0000
0000
0000
0000
0000
,
0000
0003
0000
0000
;

//---------------dance-single - Destrier75----------------
#NOTES:
     dance-single:
     Destrier75:
     Medium:
     13:
     0.564,0.559,0.212,0.041,0.347:
0000
0000
0000
0000
,
0000
0000
0000
0000
,
0000
0000
0000
0000
,
0000
0000
0000
0000
,
0000
0000
0000
0000
1000
0000
0000
0010
0000
0000
1000
0000
0010
0000
0000
0000
,
1000
0000
0000
0000
0001
0000
0000
0100
0000
0000
0001
0000
0100
0000
0000
0000
,
0001
0000
0000
0000
0100
0000
0000
0010
0000
0000
0100
0000
0010
0000
0000
0000
,
0100
0000
1000
0100
0010
0001
0010
0100
,
1000
0000
0000
0000
1001
0000
0000
1000
0000
0000
0010
0000
1000
0000
0000
0000
,
1010
0000
0000
0000
0110
0000
0000
0001
0000
0000
0100
0000
0001
0000
0000
0000
,
0101
0000
0000
0000
0110
0000
0000
0010
0000
0000
1000
0000
0010
0000
0000
0000
,
1010
0000
0000
0000
1000
0000
0100
0000
0010
0000
0001
0010
0000
0010
0001
0000
,
0010
0000
0100
0000
1100
0000
0000
0100
0000
0000
0010
0000
1000
0000
0000
0000
,
1010
0000
0000
0000
0110
0000
0000
0001
0000
0000
0100
0000
0001
0000
0000
0000
,
0101
0000
0000
0000
0110
0000
0000
0010
0000
0000
1000
0000
0010
0000
0000
0000
,
1010
0000
0000
0000
1000
0000
0010
0000
1000
0000
0001
1000
0000
1000
0001
0000
,
0010
0010
1000
0100
0010
0001
1000
0001
,
1000
0001
1000
0010
0001
0010
1000
0010
,
0001
0010
2000
0100
3100
0010
0002
0010
,
0013
0100
2000
0100
3100
0001
0020
0001
,
0031
0100
0010
0100
1000
0001
0100
0010
,
0001
0100
0010
0100
1000
0100
0010
0001
,
0100
0001
0100
0010
0100
0001
1000
0100
,
0010
0001
1000
0010
0100
0010
0100
0001
,
0001
0101
1000
0010
0001
0010
1000
0010
,
0001
0010
0001
0010
0001
0000
0000
0010
0000
0100
0010
0000
1000
0000
0000
0100
,
0000
0010
0001
0000
0100
0000
0010
0000
0100
0000
0010
0000
0100
0000
0001
0000
,
1000
0001
1000
0001
1000
0000
0000
0010
0000
0100
0001
0000
1000
0000
0000
0010
,
0000
0100
1000
0000
0100
0000
0010
0000
0001
0000
0100
0000
0010
0000
0001
0000
,
0100
0010
0100
0010
0100
0000
0010
0000
1000
0000
0010
0000
0100
0000
0010
0000
,
0001
1000
0001
0010
0100
1000
0001
0010
,
0100
0001
0100
0001
0100
0000
0010
0000
1000
0000
0100
0000
0010
0000
0001
0000
,
0100
0000
0010
0000
1010
0000
0000
0010
0000
0000
1000
0000
0010
0000
0000
0000
,
1010
0000
0000
0000
0010
0000
0000
0100
0000
0000
0010
0000
0100
0000
0000
0000
,
0110
0000
0000
0000
0001
0000
0000
0100
0000
0000
0001
0000
0100
0000
0000
0000
,
0101
0000
0000
0000
0010
0000
0100
0000
1000
0000
0010
1000
0000
1000
0010
0000
,
1000
0000
0100
0000
0010
0000
0000
0100
0000
0000
0010
0000
0100
0000
0000
0000
,
0110
0000
0000
0000
1000
0000
0000
0010
0000
0000
1000
0000
0010
0000
0000
0000
,
1010
0000
0000
0000
0010
0000
0000
0100
0000
0000
0010
0000
0100
0000
0000
0000
,
0101
0000
0000
0000
0001
0000
0010
0000
1000
0000
0010
0001
0000
0001
0010
0000
,
0100
0000
0010
0000
1000
0100
1000
0000
0100
0000
0010
0000
0100
0010
0100
0000
,
0010
0000
0001
0000
0100
0001
0100
0000
0001
0000
0010
0000
1000
0100
1000
0000
,
0100
0000
0001
0000
0100
0000
0001
0100
0000
0100
0001
0000
0010
0000
0100
0010
,
0000
0010
0100
0000
1000
0000
0100
1000
0000
1000
0100
0000
0010
0000
0001
0000
,
0010
0000
0100
0000
1000
0100
1000
0000
0010
0000
0100
0000
0010
0001
0010
0000
,
1000
0000
0010
0000
1000
0100
1000
0000
0010
0000
0001
0000
0100
0010
0100
0000
,
0001
0000
1000
0000
0010
0000
1000
0010
0000
0010
1000
0000
0100
0000
0010
0100
,
0000
0100
0010
0000
0001
0000
1000
0001
0000
0001
1000
0000
0010
0000
0100
0000
,
0010
0100
0010
0100
0001
0100
1000
0100
,
0010
0001
0010
0001
0010
0000
0000
0100
0000
0010
0100
0000
0010
0000
0000
1000
,
0000
0010
1000
0000
0010
0000
1000
0000
0001
0000
0010
0000
0100
0000
1000
0000
,
0100
0001
0100
0001
0100
0000
0000
0010
0000
0100
0001
0000
0010
0000
0000
0010
,
0000
0100
1000
0000
0100
0000
0010
0000
0001
0000
1000
0000
0100
0000
0010
0000
,
0100
0010
0100
0010
0100
0000
0001
0000
0010
0000
0100
0000
1000
0000
0001
0000
,
1000
0010
0100
0010
0001
1000
0010
0100
,
0001
0100
0001
0100
0001
0000
0010
0000
1000
0000
0010
0000
0100
0000
0010
0000
,
1000
0000
0001
0000
0100
0000
0000
0010
0000
0000
0100
0000
0010
0000
0000
0000
,
1010
0000
0000
0000
0100
0000
0000
0001
0000
0000
0100
0000
0010
0000
0000
0000
,
0110
0000
0000
0000
1000
0000
0000
0010
0000
0000
1000
0000
0010
0000
0000
0000
,
1010
0000
0000
0000
1000
0000
0010
0000
1000
0000
0010
1000
0000
1000
0010
0000
,
0100
0000
0010
0000
0001
0000
0000
0100
0000
0000
0001
0000
0100
0000
0000
0000
,
0101
0000
0000
0000
0010
0000
0000
1000
0000
0000
0010
0000
1000
0000
0000
0000
,
1010
0000
0000
0000
0100
0000
0000
0010
0000
0000
0100
0000
0010
0000
0000
0000
,
0110
0000
0000
0000
1000
0000
0100
0000
0010
0000
0001
0010
0000
0010
0001
0000
,
0010
0001
0020
0000
0000
0000
0000
0000
,
0000
0030
0000
0000
;

//---------------dance-single - Destrier75----------------
#NOTES:
     dance-single:
     Destrier75:
     Easy:
     9:
     0.310,0.341,0.008,0.000,0.000: // measure 1
0000
0000
0000
0000
,  // measure 2
0000
0000
0000
0000
,  // measure 3
0000
0000
0000
0000
,  // measure 4
0000
0000
0000
0000
,  // measure 5
0000
1000
1000
0001
,  // measure 6
0001
0100
0100
0010
,  // measure 7
0010
1000
1000
0001
,  // measure 8
0001
0100
0100
0010
,  // measure 9
0010
1000
0001
1000
,  // measure 10
0001
0100
0001
0100
,  // measure 11
0001
0010
1000
0010
,  // measure 12
1000
0100
0001
0100
,  // measure 13
0001
0010
1000
0010
,  // measure 14
1000
0100
0001
0100
,  // measure 15
0001
0010
0100
0010
,  // measure 16
0100
0010
0001
0010
,  // measure 17
0001
1000
0010
1000
,  // measure 18
0010
0100
0001
0100
,  // measure 19
0001
1000
0010
1000
,  // measure 20
0010
0100
0001
0100
,  // measure 21
0001
0010
1000
0010
,  // measure 22
1000
0100
0001
0100
,  // measure 23
0001
1000
0010
1000
,  // measure 24
0010
0100
0001
0100
,  // measure 25
0001
0000
0100
0010
0100
0000
0001
0000
,  // measure 26
1000
0000
0001
0100
0001
0000
0010
0000
,  // measure 27
1000
0000
0100
0010
0100
0000
0010
0000
,  // measure 28
0100
0000
1000
0010
1000
0000
0100
0000
,  // measure 29
0001
0000
1000
0010
1000
0000
0100
0000
,  // measure 30
0010
0000
0100
0010
0100
0000
0001
0000
,  // measure 31
0100
0000
0001
0100
0001
0000
1000
0000
,  // measure 32
0010
0000
1000
0010
1000
0000
0100
0000
,  // measure 33
0010
1000
1000
0001
,  // measure 34
0001
1000
1000
0010
,  // measure 35
0010
0100
0100
0010
,  // measure 36
0010
0100
0100
0001
,  // measure 37
0001
1000
1000
0001
,  // measure 38
0001
0100
0100
0010
,  // measure 39
0010
0100
0100
0001
,  // measure 40
0001
1000
1000
0010
,  // measure 41
0010
0000
1000
0100
1000
0000
0100
0010
,  // measure 42
0100
0000
0001
0010
0001
0000
1000
0010
,  // measure 43
1000
0010
0100
0010
,  // measure 44
0100
0010
0100
0010
,  // measure 45
0100
0000
0001
0010
0001
0000
0100
0010
,  // measure 46
0100
0000
1000
0100
1000
0000
0100
0001
,  // measure 47
0100
1000
0010
1000
,  // measure 48
0010
0100
0001
0100
,  // measure 49
0001
0000
1000
0010
1000
0000
0100
0000
,  // measure 50
0010
0000
0100
0001
0100
0000
0010
0000
,  // measure 51
0001
0000
1000
0010
1000
0000
0100
0000
,  // measure 52
0010
0000
1000
0010
1000
0000
0100
0000
,  // measure 53
0010
0000
0100
0001
0100
0000
0010
0000
,  // measure 54
0001
0000
1000
0010
1000
0000
0100
0000
,  // measure 55
0010
0000
0100
0001
0100
0000
0001
0000
,  // measure 56
0100
0000
1000
0010
1000
0000
0100
0000
,  // measure 57
0010
1000
1000
0001
,  // measure 58
0001
1000
1000
0010
,  // measure 59
0010
0100
0100
1000
,  // measure 60
1000
0001
0001
1000
,  // measure 61
1000
0010
0010
0100
,  // measure 62
0100
0010
0010
0100
,  // measure 63
0100
0010
0010
0100
,  // measure 64
0100
0010
0010
0100
,  // measure 65
0100
0110
0000
0000
;

//---------------dance-single - Drestrier75----------------
#NOTES:
     dance-single:
     Drestrier75:
     Beginner:
     4:
     0.194,0.210,0.008,0.000,0.000:
0000
0000
0000
0000
,
0000
0000
0000
0000
,
0000
0000
0000
0000
,
0000
0000
0000
0000
,
0000
1000
0000
1000
,
0000
0001
0000
0001
,
0000
0100
0000
0100
,
0000
0010
0000
0010
,
0000
0100
0100
0100
,
0000
0010
0010
0010
,
0000
0100
0100
0100
,
0000
0010
0010
0010
,
0000
0001
0001
0001
,
0000
1000
1000
1000
,
0000
0001
0001
0001
,
0000
0010
0010
0010
,
0000
1000
1000
1000
,
0000
0001
0001
0001
,
0000
1000
1000
1000
,
0000
0001
0001
0001
,
0000
0100
0100
0100
,
0000
0010
0010
0010
,
0000
0100
0100
0100
,
0000
0010
0010
0010
,
0000
0100
0010
0100
,
0000
0010
0100
0010
,
0000
1000
0001
1000
,
0000
0001
1000
0001
,
0000
0100
0010
0100
,
0000
0100
0010
0100
,
0000
1000
0001
1000
,
0000
0001
1000
0001
,
0000
1000
0000
1000
,
0000
0001
0000
0001
,
0000
0100
0000
0100
,
0000
0010
0000
0010
,
0000
1000
0000
1000
,
0000
0001
0000
0001
,
0000
0100
0000
0100
,
0000
0010
0000
0010
,
0000
1000
1000
0001
,
0001
1000
1000
0001
,
0001
1000
1000
1000
,
0000
0001
0001
0001
,
0000
0100
0100
0010
,
0010
0100
0100
0010
,
0010
0100
0100
0100
,
0000
0010
0010
0010
,
0000
1000
0001
1000
,
0000
0001
1000
0001
,
0000
0100
0010
0100
,
0000
0010
0100
0010
,
0000
1000
0001
1000
,
0000
0001
1000
0001
,
0000
0100
0010
0100
,
0000
0010
0100
0010
,
0000
1000
0000
1000
,
0000
0001
0000
0001
,
0000
1000
0000
1000
,
0000
0001
0000
0001
,
0000
0100
0000
0100
,
0000
0010
0000
0010
,
0000
0100
0000
0100
,
0000
0010
0000
0010
,
0000
0110
0000
0000
;
