#TITLE:Build a Bitch;
#SUBTITLE:;
#ARTIST:Bella Poarch;
#TITLETRANSLIT:;
#SUBTITLETRANSLIT:;
#ARTISTTRANSLIT:;
#CREDIT:;
#BANNER:Build a Bitch.png;
#BACKGROUND:Build a Bitch-bg.png;
#LYRICSPATH:;
#CDTITLE:;
#MUSIC:Build a Bitch.ogg;
#OFFSET:0.180;
#SAMPLESTART:38.180;
#SAMPLELENGTH:15.000;
#SELECTABLE:YES;
#BPMS:0.000=103.000;
#STOPS:;
#BGCHANGES:0.313=Build a Bitch.avi=1.000=1=1=0,
99999=-nosongbg-=1.000=0=0=0 // don't automatically add -songbackground-
;

//---------------dance-single - Destrier75----------------
#NOTES:
     dance-single:
     Destrier75:
     Medium:
     5:
     0.246,0.251,0.064,0.233,0.000:
0000
0000
0000
0000
,
0000
0000
0000
0000
,
0000
0000
0000
0000
,
0000
0000
0000
0000
,
0000
0000
0000
0000
0001
0000
1000
0001
,
1000
0000
0100
0000
0010
0000
0100
0010
,
0100
0000
0001
0000
0100
0000
0001
0100
,
0001
1000
0010
1000
,
0001
0000
1000
0000
1001
0000
1000
0001
,
1000
0000
0100
0000
0010
0000
0100
0010
,
0100
0000
0001
0000
0100
0000
1000
0010
,
1000
0000
0010
0000
0100
0000
1000
0010
,
1000
0000
0100
0000
0010
0000
0001
0100
,
0001
0000
0010
0000
1000
0000
0100
0010
,
0100
0000
0001
0000
1000
0000
0001
1000
,
0001
1000
0001
1001
,
0000
0000
0000
2000
,
0000
3020
0000
0230
,
0000
0302
0000
2003
,
0000
3002
0000
2003
,
0000
3020
0000
0230
,
0000
0302
0000
2003
,
0000
3002
0000
0203
,
0000
0302
0000
1003
,
1000
1000
1001
0000
,
1000
0010
1000
0000
0100
0000
0010
0000
,
0001
0100
0001
0000
1000
0000
0001
0000
,
1000
0001
1000
0000
0100
0000
0001
0000
,
0100
0010
0100
0000
0010
0000
0110
0000
,
0000
0000
0000
0000
,
0000
0000
0000
0000
1001
0000
1000
0001
,
1000
0000
0100
0000
0010
0000
0001
1000
,
0001
0000
0100
0000
0010
0000
1000
0010
,
1000
0000
0100
0000
0010
0000
0100
0001
,
0100
0000
1000
0000
0100
0000
1000
0100
,
1000
0001
0100
0101
,
0000
2000
0000
3002
,
0000
0203
0000
0320
,
0000
2030
0000
3002
,
0000
0203
0000
0320
,
0000
0032
0000
2003
,
0000
3020
0000
0230
,
0000
0302
0000
2003
,
0000
3002
0000
1003
,
1000
1000
1001
0001
,
1000
0010
1000
0000
0100
0000
0010
0000
,
0100
0001
0100
0000
1000
0000
0010
0000
,
1000
0010
1000
0000
0100
0000
0010
0000
,
0100
0001
0100
0000
0010
0000
1000
0000
,
0010
1000
0010
0000
0100
0000
0001
0000
,
1000
0001
1000
0000
0100
0000
0010
0000
,
1000
0100
1000
0000
0001
0000
0100
0000
,
1000
0101
0000
0000
;

//---------------dance-single - Destrier75----------------
#NOTES:
     dance-single:
     Destrier75:
     Easy:
     3:
     0.173,0.189,0.024,0.120,0.000:
0000
0000
0000
0000
,
0000
0000
0000
0000
,
0000
0000
0000
0000
,
0000
0000
0000
0000
,
0000
0000
0000
1000
,
1000
1000
0000
0001
,
0001
0001
0000
0100
,
0100
0100
0000
0010
,
0010
0010
0000
1000
,
0010
1000
0000
0001
,
0100
0001
0000
1000
,
0010
1000
0000
0001
,
0100
0001
0000
1000
,
0010
1000
0000
0100
,
0001
0100
0000
1000
,
0001
1000
0000
1001
,
0000
0000
0000
0002
,
0000
1000
0000
2003
,
0000
0001
0000
3002
,
0000
1000
0000
2003
,
0000
0001
0000
3002
,
0000
1000
0000
2003
,
0000
0001
0000
3002
,
0000
1000
0000
2003
,
0000
0000
3001
0000
,
1000
1000
1000
1000
,
0100
0100
0100
0100
,
0001
0001
0001
0001
,
0010
0010
0010
0010
,
0000
0010
0000
0010
,
0000
0010
0000
1000
,
0010
1000
0000
0001
,
0100
0001
0000
0100
,
0010
0100
0000
1000
,
0010
1000
0000
0001
,
0100
0001
0000
1001
,
0000
0000
0000
0200
,
0000
0010
0000
0320
,
0000
0100
0000
0230
,
0000
0010
0000
0320
,
0000
0100
0000
0230
,
0000
0010
0000
0320
,
0000
0100
0000
0230
,
0000
0010
0000
0010
,
0010
0010
0310
0000
,
1000
1000
1000
1000
,
0001
0001
0001
0001
,
0100
0100
0100
0100
,
0010
0010
0010
0010
,
1000
1000
1000
1000
,
0001
0001
0001
0001
,
1000
1000
1000
1000
,
0001
1001
0000
0000
;

//---------------dance-single - Destrier75----------------
#NOTES:
     dance-single:
     Destrier75:
     Beginner:
     1:
     0.127,0.147,0.016,0.000,0.000:
0000
0000
0000
0000
,
0000
0000
0000
0000
,
0000
0000
0000
0000
,
0000
0000
0000
0000
,
0000
0000
0000
1000
,
0000
1000
0000
0001
,
0000
0001
0000
0100
,
0000
0100
0000
0010
,
0000
0010
0000
1000
,
0000
1000
0000
0001
,
0000
0001
0000
1000
,
0000
1000
0000
0001
,
0000
0001
0000
0100
,
0100
0100
0000
0010
,
0010
0010
0000
0100
,
0100
0100
0000
0110
,
0000
0000
0000
1000
,
0000
1000
0000
0001
,
0000
0001
0000
1000
,
0000
1000
0000
0010
,
0000
0010
0000
0100
,
0000
0100
0000
1000
,
0000
1000
0000
0001
,
0000
0001
0000
1000
,
0000
1000
0000
0000
,
0001
0001
0001
1000
,
1000
1000
0000
0001
,
0001
0001
0000
0100
,
0100
0100
0000
0010
,
0000
0000
0000
0010
,
0000
0000
0000
1000
,
0000
1000
0000
0001
,
0000
0001
0000
0100
,
0100
0100
0000
0010
,
0010
0010
0000
0100
,
0100
0100
0000
0110
,
0000
0000
0000
1000
,
0000
1000
0000
0001
,
0000
0001
0000
1000
,
0000
1000
0000
0001
,
0000
0001
0000
0100
,
0000
0100
0000
0010
,
0000
0010
0000
0100
,
0000
0100
0000
0010
,
0000
0000
0000
0100
,
0100
0100
0000
1000
,
1000
1000
0000
0001
,
0001
0001
0000
0100
,
0100
0100
0000
1000
,
1000
1000
0000
0001
,
0001
0001
0000
1000
,
1000
1000
0000
0001
,
0001
0001
0000
0000
;

//---------------dance-single - Destrier75----------------
#NOTES:
     dance-single:
     Destrier75:
     Challenge:
     11:
     0.429,0.377,0.088,0.305,0.036:
0000
0000
0000
0000
,
0000
0000
0000
0000
,
0000
0000
0000
0000
,
0000
0000
0000
0000
,
0000
0000
0000
0000
0000
0000
0000
0000
1000
0000
0010
0000
1000
0000
0000
0010
,
1000
1000
2010
0000
3100
0001
0100
0001
,
0100
0001
0020
0000
1030
0100
1000
0100
,
1000
0001
1000
0001
1000
0010
2000
0000
,
3002
0000
2003
0000
3001
0000
1000
0010
,
1000
0100
1000
0010
1010
0000
0100
0001
,
0100
0010
0002
0000
1003
0000
0010
0100
,
0010
0100
0010
0001
0100
0000
0001
1000
,
0001
0000
1000
0000
0020
0000
0000
0000
0032
0000
0000
0000
1003
0000
0000
1000
,
0001
1000
0010
1000
0010
0000
0100
0010
,
0100
0010
0100
0000
0101
0000
0001
0010
,
0100
0010
1000
0010
1000
0000
1001
1000
,
0100
0000
0010
0000
0001
0000
0000
0000
1000
0000
0001
0000
1000
0000
0000
0001
,
1000
1000
2001
0000
3001
0100
0001
0100
,
0010
0100
0002
0000
1003
0010
1000
0100
,
1000
0010
2000
0000
3001
0100
0010
0001
,
0100
0000
0001
0000
0200
0000
0000
0000
0310
0000
0001
0000
1000
0000
0000
0001
,
1000
0001
1002
0000
0103
0010
0100
1000
,
0010
0001
2000
0000
3010
0100
0010
0001
,
1000
0001
1000
0001
1000
0001
2000
0000
,
3020
2030
3020
0130
,
1000
0001
1000
0001
1000
0100
1000
0100
,
0010
0001
2000
0000
0001
0000
3001
0000
,
1000
0010
1000
0010
1000
0001
1000
0001
,
1000
0001
2000
0000
0001
0000
3001
0010
,
0001
0010
0002
0000
2003
0000
3010
0100
,
0010
0100
0020
0000
0230
0000
0301
1000
,
0001
1000
0001
0010
0100
0000
0010
0001
,
1000
0000
0001
0000
2000
0000
0000
0000
3001
0000
0000
0000
1000
0000
0000
0010
,
1000
0010
1000
0010
0001
0010
1000
0010
,
0001
1000
0020
0000
0230
0000
0301
0010
,
0100
1000
0001
0100
0001
0000
1001
1000
,
0001
0000
1000
0000
0001
0000
0000
0000
1000
0000
0010
0000
1000
0000
0000
0010
,
1000
1000
2010
0000
3001
0100
0010
0001
,
0100
0001
0200
0000
0310
0001
1000
0010
,
0100
0001
2000
0000
3001
0100
0010
0001
,
0100
0000
0010
0000
2000
0000
0000
0000
3100
0000
0010
0000
0100
0000
0000
0010
,
0100
0010
0210
0000
0301
0010
0001
1000
,
0100
1000
0002
0000
0103
0010
0100
0010
,
1000
0001
1000
0010
1000
0001
2000
0000
,
3020
0000
0230
0000
0002
0303
0101
0001
,
0010
0100
1000
0001
1000
0010
0100
0010
,
0100
0001
2000
0000
0010
0000
3010
0000
,
1000
0001
1000
0010
1000
0100
1000
0100
,
0010
0000
0001
0000
1000
0000
0000
0000
0001
0000
0100
0000
0001
0000
0000
0010
,
1000
0000
0010
0000
1000
0000
0010
0000
1000
0000
0001
0000
1000
0000
0000
0001
,
1000
0001
1000
0010
1000
0010
1000
0100
,
0010
0001
0010
0001
0010
0001
1000
0001
,
1000
0001
1001
0000
0000
0000
0000
0000
;

//---------------dance-single - Destrier75----------------
#NOTES:
     dance-single:
     Destrier75:
     Hard:
     7:
     0.331,0.314,0.016,0.096,0.000: // measure 1
0000
0000
0000
0000
,  // measure 2
0000
0000
0000
0000
,  // measure 3
0000
0000
0000
0000
,  // measure 4
0000
0000
0000
0000
,  // measure 5
0000
0000
0000
0000
0000
0000
1000
0010
,  // measure 6
1000
0010
1000
0000
0100
0000
0001
0100
,  // measure 7
0001
0100
0001
0000
0010
0000
1000
0010
,  // measure 8
1000
0010
1000
0000
0100
0000
2000
0000
,  // measure 9
3002
0000
2003
0000
3001
0000
0100
0001
,  // measure 10
0100
0001
0100
0000
0010
0000
1000
0010
,  // measure 11
1000
0010
1000
0000
0010
0000
0100
0010
,  // measure 12
0100
0010
0100
0000
0001
0000
1000
0001
,  // measure 13
1000
0001
1000
0000
0100
0000
0010
0001
,  // measure 14
0010
0001
0010
0000
1000
0000
0100
1000
,  // measure 15
0100
1000
0100
0000
0010
0000
0001
0100
,  // measure 16
0001
0100
0001
0000
0010
0000
0100
0010
,  // measure 17
0100
0010
0100
0000
0010
0000
1000
0001
,  // measure 18
1000
0001
1000
0000
0010
0000
0100
0010
,  // measure 19
0100
0010
0100
0000
0001
0000
1000
0001
,  // measure 20
1000
0001
1000
0000
0001
0000
0100
0001
,  // measure 21
0100
0001
0100
0000
0010
0000
1000
0010
,  // measure 22
1000
0010
1000
0000
0100
0000
0010
0001
,  // measure 23
0010
0001
0010
0000
0100
0000
1000
0100
,  // measure 24
1000
0100
1000
0000
0010
0000
2000
0000
,  // measure 25
3002
2003
3001
1001
,  // measure 26
1000
0010
1000
0010
1000
0000
1000
0010
,  // measure 27
1000
0010
1000
0000
0010
0000
0100
0000
,  // measure 28
0001
0100
0001
0100
0001
0000
0001
0100
,  // measure 29
0001
0100
0001
0000
0010
0000
1000
0001
,  // measure 30
1000
0000
0001
1000
0001
0000
1000
0001
,  // measure 31
1000
0000
0001
1000
0001
0000
1000
0010
,  // measure 32
1000
0010
1000
0000
0100
0000
0001
1000
,  // measure 33
0001
1000
0001
0000
0100
0000
1000
0100
,  // measure 34
1000
0100
1000
0000
0010
0000
0001
0100
,  // measure 35
0001
0100
0001
0000
0100
0000
0010
0001
,  // measure 36
0010
0001
0010
0000
1000
0000
2002
0000
,  // measure 37
0000
0000
3003
0000
0000
0000
1000
0010
,  // measure 38
1000
0010
1000
0000
0100
0000
0010
0100
,  // measure 39
0010
0100
0010
0000
0001
0000
1000
0001
,  // measure 40
1000
0001
1000
0000
0100
0000
0001
0100
,  // measure 41
0001
0100
0001
0000
0010
0000
1000
0010
,  // measure 42
1000
0010
1000
0000
0010
0000
0100
0001
,  // measure 43
0100
0001
0100
0000
0010
0000
0100
0010
,  // measure 44
0100
0010
0100
0000
0001
0000
2000
0000
,  // measure 45
3002
2003
0020
3030
,  // measure 46
1000
0010
1000
0010
1000
0000
0010
1000
,  // measure 47
0010
1000
0010
0000
0100
0000
0010
0000
,  // measure 48
0001
0100
0001
0100
0001
0000
0100
0001
,  // measure 49
0100
0001
0100
0000
0001
0000
1000
0000
,  // measure 50
0001
1000
0001
1000
0001
0000
1000
0001
,  // measure 51
1000
0001
1000
0000
1000
0000
0010
0000
,  // measure 52
1000
0001
1000
0001
1000
0000
0100
0001
,  // measure 53
0100
0001
0100
0000
0000
0000
0000
0000
;
