#TITLE:ばかみたい (Camellia Eurobeat Remix);
#SUBTITLE:;
#ARTIST:かめりあ;
#TITLETRANSLIT:Baka Mitai (Camellia Eurobeat Remix);
#SUBTITLETRANSLIT:;
#ARTISTTRANSLIT:Camellia;
#CREDIT:;
#BANNER:Baka Mitai (Camellia Eurobeat Remix).png;
#BACKGROUND:Baka Mitai (Camellia Eurobeat Remix)-bg.png;
#LYRICSPATH:;
#CDTITLE:;
#MUSIC:Baka Mitai (Camellia Eurobeat Remix).ogg;
#OFFSET:0.120;
#SAMPLESTART:96.840;
#SAMPLELENGTH:15.000;
#SELECTABLE:YES;
#BPMS:0.000=160.000;
#STOPS:;
#BGCHANGES:;

//---------------dance-single - Destrier75----------------
#NOTES:
     dance-single:
     Destrier75:
     Hard:
     15:
     0.730,0.877,0.300,0.231,0.377:
0000
0000
0000
0000
,
0000
0000
0000
0000
,
0000
0000
0000
0000
,
0000
0000
0000
0000
,
0000
0000
0000
0000
,
0000
0000
0000
0000
,
0000
0000
0000
0000
,
0000
0000
0000
0000
,
0000
0000
0000
0000
,
0000
0000
1000
0100
1000
0100
0010
0100
,
0010
0001
0010
0001
0010
1000
0010
1000
,
0001
0000
1000
0000
1001
0000
0000
1001
0000
0000
1010
0000
0110
0000
0000
0000
,
1010
0000
0000
0000
0000
0000
1000
0010
1000
0000
0100
0001
0100
0000
0001
0000
,
1000
0010
2000
0000
0010
0000
3020
0000
,
0001
0032
1000
2003
,
0010
3020
0100
0230
,
0001
0000
0000
0000
0301
0000
0010
0000
0001
0010
0001
0000
0010
0000
0100
0000
,
0001
0000
0010
0000
1000
0001
1000
0001
1000
0000
0100
0000
0010
0000
1000
0000
,
0001
0000
0100
0000
0010
0001
0010
0001
0010
0000
0100
0000
0010
0000
1000
0000
,
0001
0000
0100
0000
0010
0100
0010
0100
0010
0000
0100
0000
1000
0000
0010
0000
,
1000
0000
0010
0000
1000
0010
1000
0010
1000
0000
0100
0000
0001
0000
0100
0000
,
0010
0000
0001
0000
0100
0001
0100
0001
0100
0000
0010
0000
0100
0000
1000
0000
,
0001
0000
0100
0000
0010
1000
0010
1000
0010
0000
0100
0000
0001
0000
0100
0000
,
0010
0000
0100
0000
0001
0100
0001
0100
0001
0000
0010
0000
0100
0000
0001
0000
,
0010
0000
0100
0000
1000
0100
0010
0001
1000
0100
0010
0001
1000
0100
0010
0001
,
1000
0100
0010
0001
1000
0010
1000
0010
1000
0000
0010
0000
1000
0000
0010
0000
,
0100
0000
0010
0000
0001
0100
0001
0100
0001
0000
0100
0000
0010
0000
0100
0000
,
0001
0000
0100
0000
0101
0000
0000
0110
0000
0000
1010
0000
1000
0010
1000
0000
,
0010
0000
0100
0000
0010
0000
1000
0100
0010
0000
0001
0010
0100
0000
0000
0010
,
0000
0100
2001
0000
0001
0000
3002
0000
,
0010
0023
0100
0230
,
0300
0000
0000
0000
1000
0100
1000
0100
1000
0001
1000
0001
1000
0100
1000
0100
,
1000
0010
1000
0010
2000
0000
0000
0000
0000
0000
0000
0000
0000
0000
0000
0000
,
0000
0000
3000
0000
1000
0001
1000
0000
0100
0000
0010
0000
1000
0000
0001
0000
,
0100
0000
0001
0000
1000
0010
1000
0000
0100
0000
0010
0000
0100
0000
0010
0000
,
1000
0000
0001
0000
0100
0001
0100
0000
0010
0000
0100
0000
1000
0000
0001
0000
,
0100
0000
0010
0000
0100
0010
0100
0000
0010
0000
0100
0000
0001
0000
0100
0000
,
0010
0000
0100
0000
1000
0010
1000
0000
0100
0000
0010
0000
1000
0000
0001
0000
,
0100
0000
0010
0000
0100
0001
0100
0000
0010
0000
1000
0000
0010
0000
0100
0000
,
0010
0000
1000
0000
0100
1000
0100
0000
0010
0000
0001
0000
0100
0000
1000
0000
,
0010
0000
0100
0000
0001
0100
0001
0000
0010
0000
0100
0000
1000
0000
0010
0000
,
0100
0000
0001
0000
0100
0010
0100
0000
0001
0000
0100
0000
1000
0000
0001
0000
,
0100
0000
0001
0000
0100
0001
0100
0000
0010
0000
1000
0000
0010
0000
0100
0000
,
0001
0100
1010
0000
0220
0000
0330
0000
,
0202
0000
0000
0000
,
0303
0000
0000
0000
1000
0010
1000
0000
0100
0000
0010
0000
0100
0000
0001
0000
,
1000
0000
0010
0000
0100
0010
0100
0000
0001
0000
0100
0000
0001
0000
0100
0000
,
0010
0000
0001
0000
0100
0010
0100
0000
1000
0000
0010
0000
0100
0000
0010
0000
,
0100
0000
0001
0000
0100
0000
0110
0000
0000
0110
0000
0000
0110
0000
2020
0000
,
0000
3030
1010
1010
1100
1100
1001
0000
,
0000
0202
0000
0000
0000
0000
0000
0000
,
0000
0000
0303
0000
1000
0010
1000
0000
0100
0000
0010
0000
0100
0000
0001
0000
,
0100
0000
0010
0000
1000
0010
1000
0000
0100
0000
0010
0000
0100
0000
0001
0000
,
0100
0001
0101
1010
0101
1010
0101
0000
,
0000
2020
0000
0000
0000
0000
0000
0000
,
0000
0000
3030
0000
1000
0010
1000
0000
0010
0000
0100
0000
0010
0000
0001
0000
,
0100
0000
0010
0000
1000
0010
1000
0000
0100
0000
0001
0000
0100
0000
0010
0000
,
0100
0000
0001
0000
1000
0010
1000
0000
0100
0000
0010
0000
0100
0000
0001
0000
,
0100
0000
0010
0000
1000
0010
1000
0000
0100
0000
0001
0000
0100
0000
0010
0000
,
0100
0000
0001
0000
0010
0001
0010
0000
1000
0000
0010
0000
1000
0000
0100
0000
,
0010
0000
1000
0000
0001
1000
0001
0000
0100
0000
0010
0000
0100
0000
0001
0000
,
0100
0001
0010
0001
0010
0100
0010
1000
,
0001
0001
1001
0000
1000
0010
0001
0100
,
0010
1000
1001
0100
0001
0001
0101
0001
,
0100
0100
0220
0000
0000
0330
1000
0100
,
0010
0000
0001
0000
1000
0010
1000
0010
1000
0000
0100
0000
0010
0000
0001
0000
,
0100
0000
0001
0000
0100
0010
0100
0010
0100
0000
0001
0000
1000
0000
0001
0000
,
0100
0000
0010
0000
1000
0001
1000
0001
1000
0000
0010
0000
0100
0000
0001
0000
,
1000
0000
0001
0000
1000
0001
1000
0001
1000
0000
0010
0000
0100
0000
0010
0000
,
1000
0000
0010
0000
0100
0001
0100
0001
0100
0000
0010
0000
0001
0000
0100
0000
,
0010
0000
1000
0000
0010
1000
0010
1000
0010
0000
1000
0000
0001
0000
0100
0000
,
0001
0000
0100
0000
0010
1000
0010
1000
0010
0000
0100
0000
0010
0000
0001
0000
,
0100
0000
0010
0000
0001
0100
0001
0100
0001
0000
0010
0000
0001
0000
0100
0000
,
0010
0000
1000
0000
0100
1000
0100
1000
0100
0000
0010
0000
0001
0000
0100
0000
,
0010
0000
0001
0000
0100
0010
0100
0010
0100
0000
0010
0000
1000
0000
0010
0000
,
0100
0000
0001
0000
1001
0000
0000
1001
0000
0000
1010
0000
0000
1010
0000
0000
,
1010
0000
0000
0000
0000
0000
1000
0100
0010
0000
0001
0010
0100
0000
0010
0000
,
0000
0110
0000
0000
2100
0000
0000
0000
0100
0000
0000
0000
3200
0000
0000
0000
,
0001
0302
0100
0203
,
1000
2300
0001
3002
,
0010
2000
0000
0000
,
3003
0000
0000
0000
1000
0001
1000
0001
1000
0000
0010
0000
1000
0000
0001
0000
,
0100
0000
0010
0000
0100
0001
0100
0001
0100
0000
0010
0000
1000
0000
0010
0000
,
1000
0000
0000
0000
0100
0010
0100
0010
0100
0000
0001
0000
1000
0000
0001
0000
,
0100
0000
0001
0000
0100
0001
0100
0001
0100
0000
0000
0000
0000
0000
0000
0000
;

//---------------dance-single - Destrier75----------------
#NOTES:
     dance-single:
     Destrier75:
     Medium:
     12:
     0.598,0.714,0.262,0.254,0.119:
0000
0000
0000
0000
,
0000
0000
0000
0000
,
0000
0000
0000
0000
,
0000
0000
0000
0000
,
0000
0000
0000
0000
,
0000
0000
0000
0000
,
0000
0000
0000
0000
,
0000
0000
0000
0000
,
0000
0000
0000
0000
,
0000
0000
1000
0010
1000
0100
0010
0001
,
0010
0001
0010
0100
0001
1000
0010
1000
,
0100
0000
0010
0000
0100
0000
0000
0010
0000
0000
0100
0000
0110
0000
0000
0000
,
0220
0000
0000
0000
,
0330
2000
0010
0010
,
0010
3020
0001
0001
,
0001
0230
0010
0010
,
0010
0310
0000
0000
,
0000
0000
0000
0000
1000
0010
1000
0000
0100
0000
0010
0000
0100
0000
0001
0000
,
0100
0000
0001
0000
0100
0010
0100
0000
0010
0000
0100
0000
1000
0000
0010
0000
,
0100
0000
0010
0000
0100
0001
0100
0000
0010
0000
0100
0000
0001
0000
0100
0000
,
1000
0000
0010
0000
0100
0001
0100
0000
0010
0000
0100
0000
1000
0000
0010
0000
,
0100
0000
0001
0000
0100
0001
0100
0000
0001
0000
0010
0000
0100
0000
1000
0000
,
0010
0000
0100
0000
0001
0100
0001
0000
0010
0000
0100
0000
1000
0000
0001
0000
,
0100
0000
0010
0000
0100
0010
0100
0000
0010
0000
1000
0000
0001
0000
0100
0000
,
0010
0000
0100
0000
0010
0001
0010
0000
1000
0100
1000
0000
0010
0001
0010
0000
,
0001
1000
0001
0000
1000
0010
1000
0000
0100
0000
0001
0000
0100
0000
0010
0000
,
0100
0000
0001
0000
0100
0001
0100
0000
0010
0000
0100
0000
1000
0000
0001
0000
,
0100
0000
0010
0000
0001
0000
0000
0100
0000
0000
0001
0000
0100
0000
0000
0000
,
0202
0000
0000
0000
,
0303
2010
0010
0010
,
0010
3020
0001
0001
,
0001
0032
1000
1000
,
1000
2000
0000
0000
,
3003
0000
1000
0010
1000
0010
1000
0010
,
1000
0000
0001
0010
0001
0010
0001
0010
,
0001
0000
0100
0010
0100
0010
0100
0010
,
0100
0000
0100
1000
0100
1000
0100
1000
,
0100
0000
0100
0001
0100
0001
0100
0001
,
0100
0000
0100
0010
0100
0010
0100
0010
,
0100
0000
0100
0001
0100
0001
0100
0001
,
0100
0000
0100
1000
0100
1000
0100
1000
,
0100
0000
0100
0010
0100
0010
0100
0010
,
0100
0000
0100
0001
0100
0001
0100
0001
,
0100
0101
0202
0303
,
0202
0000
0000
0000
,
0303
0000
1000
0001
1000
0001
1000
0001
,
1000
0000
0100
0010
0100
0010
0100
0010
,
0100
0000
0001
0100
0001
0100
0001
0100
,
0001
0000
0000
0000
0000
0000
1001
0000
0000
1001
0000
0000
1001
0000
2002
0000
,
0000
3003
1010
1010
1010
1010
1010
0000
,
0000
2010
0000
0000
3020
0000
0230
0000
,
0302
0000
1003
0001
1000
0010
1000
0100
,
1000
0001
1000
0010
1000
0100
1000
0010
,
1000
0001
1001
1001
1001
1001
1001
0000
,
0000
2001
0000
0000
3200
0000
0302
0000
,
2003
0000
3010
0001
0010
0001
0010
1000
,
0010
1000
0010
0001
0010
0001
0010
1000
,
0010
1000
0010
0001
0010
0001
0010
0001
,
0010
0000
1000
0010
1000
0010
1000
0000
,
0010
0100
0010
0100
0010
0000
0001
0100
,
0001
0100
0001
0000
1000
0010
1000
0010
,
1000
0000
0001
1000
0001
1000
0001
1000
,
0001
1000
1001
0000
0100
0000
0010
0000
,
0001
0100
0110
0000
0000
0010
0110
0000
,
0000
0100
0110
0000
2002
0000
0000
0000
,
3003
0000
0000
0000
1000
0010
1000
0000
0100
0000
0010
0000
1000
0000
0001
0000
,
0100
0000
0001
0000
0100
0001
0100
0000
0010
0000
0100
0000
1000
0000
0010
0000
,
0100
0000
0001
0000
0100
0001
0100
0000
0010
0000
1000
0000
0100
0000
0010
0000
,
1000
0000
0001
0000
0100
0001
0100
0000
0010
0000
0100
0000
1000
0000
0010
0000
,
0100
0000
0001
0000
0100
0001
0100
0000
0010
0000
1000
0000
0010
0000
0100
0000
,
0010
0000
1000
0000
0010
1000
0010
0000
0100
0000
0010
0000
0100
0000
0001
0000
,
0100
0000
0010
0000
0100
0001
0100
0000
0010
0000
1000
0000
0001
0000
0100
0000
,
0010
0000
0100
0000
0001
0100
0001
0000
0010
0000
1000
0000
0100
0000
0010
0000
,
0100
0000
0001
0000
0100
0001
0100
0000
0010
0000
1000
0000
0100
0000
0010
0000
,
0100
0000
0001
0000
0100
0001
0100
0000
0010
0000
1000
0000
0010
0000
0100
0000
,
0001
0000
0100
0000
0101
0000
0000
0101
0000
0000
0101
0000
0101
0000
0000
0000
,
0202
0000
0000
0000
,
0303
2001
0001
0001
,
0001
3002
0100
0100
,
0100
0203
0010
0010
,
0010
0020
0000
0000
,
0330
0000
0000
0000
0001
1000
0001
0000
0100
0000
0010
0000
1000
0000
0010
0000
,
0100
0000
0001
0000
0100
0010
0100
0000
0001
0000
1000
0000
0010
0000
0100
0000
,
0001
0000
0100
0000
0010
0100
0010
0000
0100
0000
0001
0000
0100
0000
0010
0000
,
1000
0000
0010
0000
1000
0010
1000
0000
0000
0000
0000
0000
0000
0000
0000
0000
;

//---------------dance-single - Destrier75----------------
#NOTES:
     dance-single:
     Destrier75:
     Easy:
     8:
     0.375,0.454,0.200,0.154,0.000:
0000
0000
0000
0000
,
0000
0000
0000
0000
,
0000
0000
0000
0000
,
0000
0000
0000
0000
,
0000
0000
0000
0000
,
0000
0000
0000
0000
,
0000
0000
0000
0000
,
0000
0000
0000
0000
,
0000
0000
0000
0000
,
0000
0000
1000
0010
1000
0000
0100
0000
,
0010
0000
0001
0100
0001
0000
1000
0000
,
0001
1001
1001
1001
,
2002
0000
0000
0000
,
3003
0000
1000
0010
1000
0000
0100
0000
,
0010
0000
0001
0100
0001
0000
1000
0000
,
0100
0000
0010
0001
0010
0000
0001
0000
,
1000
2002
0000
0000
,
3003
0000
1000
0100
1000
0000
0100
0000
,
0010
0000
0001
0100
0001
0000
0010
0000
,
1000
0000
0100
0010
0100
0000
0001
0000
,
0100
0000
0010
0001
0010
0000
1000
0000
,
0100
0000
1000
0010
1000
0000
0100
0000
,
0001
0000
0100
0001
0100
0000
0010
0000
,
0100
0000
1000
0010
1000
0000
0001
0000
,
0100
0000
0001
0100
0001
0000
0010
0000
,
1000
0000
1000
0001
1000
0000
0100
0000
,
0010
0000
0100
0010
0100
0000
0001
0000
,
0100
0101
0101
0101
,
0202
0000
0000
0000
,
0303
2000
0000
0010
,
0000
3002
0000
1000
,
0000
2003
0000
0001
,
0000
0002
0000
0000
,
3003
1000
1000
0001
,
0001
0100
0100
0010
,
0010
0100
0100
1000
,
1000
0001
0001
0100
,
0100
0010
0010
1000
,
1000
0001
0001
0100
,
0100
0010
0010
1000
,
1000
0001
0001
1000
,
1000
0010
0010
0100
,
0100
0001
0001
0100
,
0100
0101
0101
0101
,
0202
0000
0000
0000
,
0303
1000
1000
0001
,
0001
0100
0100
0010
,
0010
1000
1000
0001
,
0001
2002
0000
0000
,
3003
1000
0010
1010
,
0000
1010
0000
0000
0001
0000
0100
0000
,
0001
0000
1000
0010
1000
0000
0100
0000
,
0010
0000
0001
0100
0001
0000
0010
0000
,
0100
1000
0010
1010
,
0000
1010
0000
0000
0100
0000
0001
0000
,
0100
0000
0010
0100
0010
0000
0001
0000
,
1000
0000
0001
1000
0001
0000
0100
0000
,
0001
0000
1000
0010
1000
0000
0100
0000
,
0001
0000
0100
0010
0100
0000
0010
0000
,
0001
0000
1000
0001
1000
0000
0001
0000
,
0100
0000
0001
0100
0001
0000
1000
0000
,
0010
2000
0000
0010
,
0000
3002
0000
0100
,
0000
0103
0000
0101
,
0000
0101
0000
0000
,
0000
0000
1000
0001
1000
0000
0010
0000
,
0100
0000
0001
0100
0001
0000
1000
0000
,
0010
0000
1000
0010
1000
0000
0100
0000
,
0010
0000
0100
0001
0100
0000
0010
0000
,
1000
0000
0100
0001
0100
0000
0010
0000
,
1000
0000
0010
0100
0010
0000
1000
0000
,
0001
0000
1000
0001
1000
0000
0100
0000
,
0010
0000
0100
0001
0100
0000
0010
0000
,
1000
0000
0100
0001
0100
0000
0001
0000
,
1000
0000
0001
0100
0001
0000
1000
0000
,
0010
1010
1010
1010
,
2020
0000
0000
0000
,
3030
0000
1000
0001
1000
0000
0100
0000
,
0010
0000
0001
0100
0001
0000
1000
0000
,
0010
0000
1000
0010
1000
0000
0001
0000
,
0100
0202
0000
0000
,
0303
0000
0001
1000
0001
0000
0100
0000
,
0010
0000
0100
0010
0100
0000
1000
0000
,
0010
0000
1000
0010
1000
0000
0001
0000
,
0100
0101
0000
0000
;

//---------------dance-single - Destrier75----------------
#NOTES:
     dance-single:
     Destrier75:
     Beginner:
     4:
     0.233,0.354,0.146,0.069,0.000: // measure 1
0000
0000
0000
0000
,  // measure 2
0000
0000
0000
0000
,  // measure 3
0000
0000
0000
0000
,  // measure 4
0000
0000
0000
0000
,  // measure 5
0000
0000
0000
0000
,  // measure 6
0000
0000
0000
0000
,  // measure 7
0000
0000
0000
0000
,  // measure 8
0000
0000
0000
0000
,  // measure 9
0000
0000
0000
0000
,  // measure 10
0000
0100
0100
0100
,  // measure 11
0000
0010
0010
0010
,  // measure 12
0000
0110
0110
0110
,  // measure 13
0110
0000
0000
0000
,  // measure 14
0000
2000
0000
0000
,  // measure 15
0000
3002
0000
0000
,  // measure 16
0000
2003
0000
0000
,  // measure 17
0000
3000
0000
0000
,  // measure 18
0000
0001
0001
0001
,  // measure 19
0000
0100
0100
0100
,  // measure 20
0000
0010
0010
0010
,  // measure 21
0000
1000
1000
1000
,  // measure 22
0000
0001
0001
0001
,  // measure 23
0000
1000
1000
1000
,  // measure 24
0000
0010
0010
0010
,  // measure 25
0000
0100
0100
0100
,  // measure 26
0000
0001
0001
0001
,  // measure 27
0000
1000
1000
1000
,  // measure 28
0000
1001
1001
1001
,  // measure 29
1001
0000
0000
0000
,  // measure 30
0000
0100
0100
0100
,  // measure 31
0000
0010
0010
0010
,  // measure 32
0000
0100
0100
0100
,  // measure 33
0000
0110
0000
0000
,  // measure 34
0000
1000
0001
1000
,  // measure 35
0000
0100
0010
0100
,  // measure 36
0000
0001
0100
0001
,  // measure 37
0000
1000
0010
1000
,  // measure 38
0000
0100
0001
0100
,  // measure 39
0000
0010
1000
0010
,  // measure 40
0000
0100
0001
0100
,  // measure 41
0000
0010
0100
0010
,  // measure 42
0000
1000
0010
1000
,  // measure 43
0000
0001
0100
0001
,  // measure 44
0000
0110
0110
0110
,  // measure 45
0110
0000
0000
0000
,  // measure 46
0000
0100
0001
0100
,  // measure 47
0000
1000
0010
1000
,  // measure 48
0000
0100
0010
0100
,  // measure 49
0000
0001
0001
0001
,  // measure 50
0000
0100
0100
0100
,  // measure 51
0000
0110
0000
0000
0000
0000
0000
0000
,  // measure 52
0000
1000
0001
1000
,  // measure 53
0000
0100
0001
0100
,  // measure 54
0000
1000
1000
1000
,  // measure 55
0000
1001
0000
0000
0000
0000
0000
0000
,  // measure 56
0000
1000
0001
1000
,  // measure 57
0000
0010
0100
0010
,  // measure 58
0000
1000
0001
1000
,  // measure 59
0000
0001
0100
0001
,  // measure 60
0000
1000
0010
1000
,  // measure 61
0000
0001
0100
0001
,  // measure 62
0000
0200
0000
0000
,  // measure 63
0000
0320
0000
0000
,  // measure 64
0000
0230
0000
0000
,  // measure 65
0000
0300
0000
0000
,  // measure 66
0000
1000
1000
1000
,  // measure 67
0000
0001
0001
0001
,  // measure 68
0000
0100
0100
0100
,  // measure 69
0000
0010
0010
0010
,  // measure 70
0000
1000
1000
1000
,  // measure 71
0000
0001
0001
0001
,  // measure 72
0000
1000
1000
1000
,  // measure 73
0000
0001
0001
0001
,  // measure 74
0000
0100
0100
0100
,  // measure 75
0000
0010
0010
0010
,  // measure 76
0000
0110
0110
0110
,  // measure 77
0110
0000
0000
0000
,  // measure 78
0000
0200
0000
0000
,  // measure 79
0000
0320
0000
0000
,  // measure 80
0000
0230
0000
0000
,  // measure 81
0000
0300
0000
0000
,  // measure 82
0000
0100
0100
0100
,  // measure 83
0000
0001
0001
0001
,  // measure 84
0000
1000
1000
1000
;
