#TITLE:Aurora Borealis;
#SUBTITLE:;
#ARTIST:Electronic Boutique;
#TITLETRANSLIT:;
#SUBTITLETRANSLIT:;
#ARTISTTRANSLIT:;
#CREDIT:;
#BANNER:Aurora Borealis.png;
#BACKGROUND:Aurora Borealis-bg.png;
#LYRICSPATH:;
#CDTITLE:;
#MUSIC:Aurora Borealis.ogg;
#OFFSET:0.260;
#SAMPLESTART:26.800;
#SAMPLELENGTH:15.000;
#SELECTABLE:YES;
#BPMS:0.000=153.000;
#STOPS:;
#BGCHANGES:0.667=Aurora Borealis.avi=1.000=1=1=0,
99999=-nosongbg-=1.000=0=0=0 // don't automatically add -songbackground-
;

//---------------dance-single - Destrier75----------------
#NOTES:
     dance-single:
     Destrier75:
     Challenge:
     16:
     0.760,0.830,0.043,0.093,0.701:
0000
0000
0000
0000
,
0000
0000
0000
0000
,
0000
0000
0000
0000
,
0000
0000
0000
0000
,
0000
0000
1000
0010
1000
0001
1000
0100
,
0010
0001
1000
0010
1000
0100
1000
0001
,
1000
0001
1000
0010
1000
0010
1000
0001
,
0100
0001
0100
0001
1000
0010
1000
0001
,
1000
0001
1001
1000
0010
0100
0001
0100
,
0001
0100
0001
0000
1000
0000
0010
0000
0100
0000
0010
0000
1000
0000
0001
0000
,
0100
0001
0100
0000
0010
0000
1000
0000
0010
0000
0100
0000
0001
0000
0100
0000
,
0001
0100
0001
0000
0010
0000
1000
0000
0010
0000
0100
0000
0001
0000
0100
0000
,
0010
1000
0010
0000
0100
0000
0010
0000
0100
0000
0001
0000
0100
0000
0001
0000
,
1000
0010
1000
0000
0100
0000
0010
0000
1000
0000
0001
0000
0100
0000
0001
0000
,
0100
0001
0100
0000
0010
0000
1000
0000
0010
0000
0100
0000
0010
0000
0100
0000
,
0001
0100
0001
0000
0010
0000
1000
0000
0010
0000
0100
0000
0010
0000
0100
0000
,
0001
0100
0001
0000
0202
0000
0000
0000
0000
0000
0000
0000
0000
0000
0000
0000
,
0303
0000
0000
0000
1000
0000
0001
0000
1000
0000
1000
0001
0000
1000
0010
0000
,
1000
0010
1000
0010
1000
0000
0001
0000
0100
0000
0001
0100
0000
0001
1000
0000
,
0001
0000
0100
0000
1000
0000
0001
0000
0100
0000
0001
0100
0000
0001
0100
0000
,
0010
0100
0010
0100
0010
0000
0100
0000
0010
0000
1000
0010
0000
1000
0010
0000
,
1000
0000
0010
0000
1000
0000
0100
0000
0010
0000
0001
1000
0000
0001
1000
0000
,
1000
0001
1000
0001
1000
0000
0001
0000
0100
0000
0010
0100
0000
0010
0100
0000
,
0010
0000
0100
0000
0010
0000
1000
0000
0010
0000
1000
0010
0000
1000
0010
0000
,
0100
0001
0100
0001
0100
0000
1000
0000
0001
0000
0001
0000
1000
0001
1000
0001
,
1000
0001
1000
0001
1000
0000
0010
0000
1000
0000
0001
1000
0000
0001
1000
0000
,
1000
0001
1000
0001
1000
0000
0010
0000
0100
0000
0001
0100
0000
0001
0100
0000
,
0010
0000
0100
0000
0010
0000
0001
0000
1000
0000
0001
1000
0000
0001
1000
0000
,
0010
0100
0010
0100
0010
0000
0100
0000
0010
0000
0010
0100
0000
0010
0100
0000
,
0001
0000
1000
0000
0010
0000
0100
0000
0001
0000
0100
0001
0000
0100
0001
0000
,
1000
0001
1000
0001
1000
0000
1000
0000
0010
0000
0100
0010
0000
0100
0010
0000
,
0001
0000
0100
0000
0001
0000
1000
0000
0100
0000
0001
0100
0000
0001
0100
0000
,
0001
1000
0001
1000
0001
0000
1000
0000
1000
0000
0001
0000
0001
1000
0001
1000
,
0001
1000
0001
1000
0002
0000
0000
0000
0000
0000
0000
0000
0000
0000
0000
0000
,
0000
0000
0013
0100
1000
0010
0100
0001
,
1000
0010
1000
0000
0100
0000
0010
0000
0001
1000
0001
0000
0100
0000
0010
0000
,
1000
0010
1000
0000
0100
0000
0010
0000
0001
1000
0001
0000
0100
0000
0010
0000
,
1000
0010
1000
0000
0100
0000
0010
0000
0100
0001
0100
0000
0001
0000
1000
0000
,
0100
0001
0100
0000
0010
0000
0100
0000
1000
0010
1000
0000
0100
0000
0001
0000
,
0100
0001
0100
0000
0001
0000
1000
0000
0001
0100
0001
0000
1000
0000
0010
0000
,
1000
0010
1000
0000
0100
0000
0010
0000
0100
0001
0100
0000
0001
0000
1000
0000
,
0001
0100
0001
0000
0010
0000
1000
0000
1000
0001
1000
0001
1000
0000
0010
0000
,
0100
0000
1000
0000
0100
0000
0010
0000
0100
0001
0100
0001
0100
0000
0001
0000
,
1000
0000
0010
0000
0001
0000
0100
0000
0001
1000
0001
1000
0001
0000
0010
0000
,
1000
0000
0001
0000
0100
0000
0001
0000
0100
0001
0100
0001
0100
0000
1000
0000
,
0001
0000
0010
0000
1000
0000
0010
0000
1000
0010
1000
0010
1000
0000
0100
0000
,
0010
0000
0001
0000
1000
0000
0001
0000
1000
0001
1000
0001
1000
0000
0010
0000
,
1000
0000
0001
0000
0100
0000
0001
0000
0100
0001
0100
0001
0100
0000
0010
0000
,
0001
0000
1000
0000
0010
0000
1000
0000
0010
1000
0010
1000
0010
0000
0100
0000
,
0001
1000
2002
0000
0000
0000
0000
0000
,
0000
0000
0000
0000
,
0000
0000
0000
0000
,
3003
0000
0000
0000
1000
0000
0010
0000
1000
0000
0010
0000
1000
0001
1000
0001
,
1000
0010
2010
0000
0001
0000
0010
0000
,
0001
3020
0001
0100
,
0001
0230
1000
0001
,
1000
0001
1000
0001
,
1000
0302
1000
0010
,
1000
2003
0100
0001
,
0100
3020
0100
0001
,
0130
0000
0000
0000
1000
0010
1000
0010
1000
0100
1000
0100
1000
0001
1000
0001
,
1000
0001
1000
0001
1000
0000
0001
1000
0000
1000
0001
0000
0010
0000
1000
0010
,
0000
1000
0010
0000
1000
0000
0010
1000
0000
0010
1000
0000
0010
0000
0001
0010
,
0000
0001
0010
0000
1000
0000
0010
1000
0000
0010
1000
0000
0100
0000
0001
0100
,
0000
0001
0100
0000
0001
0000
0100
0001
0000
0100
0001
0000
0010
0000
1000
0010
,
0000
1000
0010
0000
1000
0000
0010
1000
0000
0010
1000
0000
0100
0000
0001
0100
,
0000
0001
0100
0000
0001
0000
0100
0001
0000
0100
0001
0000
0100
0000
1000
0100
,
0000
1000
0100
0000
0001
0000
1000
0001
0000
1000
0001
0000
0100
0000
0001
0100
,
0000
0001
0100
0000
1000
0010
1000
0010
1000
0001
1000
0001
1000
0010
1000
0010
,
1000
0010
1000
0010
1000
0000
0010
1000
0000
1000
0010
0000
0100
0000
0010
0100
,
0000
0100
0010
0000
1000
0000
0001
1000
0000
1000
0001
0000
1000
0000
0010
1000
,
0000
1000
0010
0000
0100
0000
0001
0100
0000
0001
0100
0000
0010
0000
0100
0010
,
0000
0010
0100
0000
1000
0000
0010
1000
0000
0010
1000
0000
0100
0000
0001
0100
,
0000
0001
0100
0000
0001
0000
1000
0001
0000
1000
0001
0000
0100
0000
0010
0100
,
0000
0010
0100
0000
1000
0000
0010
1000
0000
0010
1000
0000
0100
0000
0001
0100
,
0000
0001
0100
0000
0010
0000
1000
0010
0000
1000
0010
0000
1000
0000
0001
1000
,
0000
0001
1000
0000
0001
0000
1000
0000
1000
0000
0001
0000
0001
1000
0001
1000
,
0001
1000
0001
1000
0010
0000
1000
0010
0000
1000
0010
0000
0100
0000
0010
0001
,
0000
0010
0001
0000
0010
0000
0100
1000
0000
0100
1000
0000
0100
0000
0001
0100
,
0000
0001
0100
0000
0010
0000
0001
0010
0000
0001
0010
0000
1000
0000
0100
1000
,
0000
0100
1000
0000
0010
0000
0100
0001
0000
0100
0001
0000
0010
0000
1000
0010
,
0000
1000
0010
0000
0100
0000
0001
0100
0000
0001
0100
0000
0010
0000
1000
0010
,
0000
1000
0010
0000
1000
0000
0001
1000
0000
0001
1000
0000
0100
0000
0010
0001
,
0000
0010
0001
0000
1000
0000
0100
1000
0000
0100
1000
0000
0010
0000
0100
0001
,
0000
0100
0001
0000
1000
0000
0010
0000
1000
0000
0010
1000
0010
0000
1000
0000
,
0010
1010
2002
0000
0000
0000
0000
0000
,
0000
0000
0000
0000
,
0000
0000
0000
0000
,
0000
0000
0000
0000
,
0000
3003
0000
0000
;

//---------------dance-single - Destrier75----------------
#NOTES:
     dance-single:
     Destrier75:
     Hard:
     13:
     0.677,0.639,0.086,0.157,0.311:
0000
0000
0000
0000
,
0000
0000
0000
0000
,
0000
0000
0000
0000
,
0000
0000
0000
0000
,
0000
0000
1000
0010
1000
0010
1000
0100
,
1000
0010
0001
0100
0001
0010
0001
0100
,
0001
0010
1000
0010
1000
0100
1000
0001
,
1000
0010
1000
0001
1000
0001
0100
0001
,
0010
0100
1001
1000
0001
1000
0001
0010
,
0100
0010
0100
0000
1000
0000
0001
0000
1000
0000
0010
0000
0001
0000
1000
0000
,
0100
0001
0100
0000
0100
0000
0010
0000
1000
0000
0100
0000
0010
0000
0001
0000
,
1000
0001
1000
0000
0100
0000
1000
0000
0010
0000
0001
0000
0100
0000
0001
0000
,
0100
0001
0100
0000
0010
0000
1000
0000
0010
0000
0100
0000
0001
0000
0010
0000
,
0100
0010
0100
0000
0010
0000
1000
0000
0001
0000
0100
0000
0010
0000
0001
0000
,
1000
0001
1000
0000
0100
0000
0010
0000
0100
0000
0001
0000
1000
0000
0100
0000
,
1000
0001
1000
0000
0001
0000
1000
0000
0001
0000
0100
0000
0010
0000
0100
0000
,
0001
0100
0001
0000
0202
0000
0000
0000
0000
0000
0000
0000
0000
0000
0000
0000
,
0303
0000
0000
0000
1000
0000
0010
0000
1000
0010
1000
0000
0100
0000
0010
0000
,
0001
0000
0100
0000
0001
0000
0100
0000
0001
0100
0001
0000
0010
0000
1000
0000
,
0100
0000
0010
0000
0001
0000
0100
0000
1000
0010
1000
0000
0100
0000
0010
0000
,
1000
0000
0001
0000
0100
0000
0010
0000
1000
0001
1000
0000
0100
0000
0010
0000
,
1000
0000
0001
0000
0100
0000
0010
0000
0100
0010
0100
0000
1000
0000
0010
0000
,
0001
0000
0010
0000
1000
0000
0010
0000
0001
0100
0001
0000
0100
0000
0001
0000
,
1000
0000
0010
0000
0100
0000
0010
0000
1000
0010
1000
0000
0100
0000
0010
0000
,
1000
0000
0001
0000
0100
0000
0010
0000
1000
0001
1000
0000
0100
0000
0010
0000
,
1000
0000
0001
0000
1000
0000
0010
0000
1000
0001
1000
0000
0100
0000
0010
0000
,
0100
0000
0001
0000
1000
0000
0001
0000
1000
0010
1000
0000
0100
0000
0001
0000
,
0100
0000
0010
0000
1000
0000
0100
0000
0001
0100
0001
0000
1000
0000
0010
0000
,
0100
0000
0001
0000
1000
0000
0010
0000
1000
0001
1000
0000
0100
0000
0010
0000
,
0100
0000
0001
0000
0100
0000
0001
0000
1000
0001
1000
0000
0010
0000
1000
0000
,
0001
0000
0100
0000
0010
0000
0100
0000
0001
1000
0001
0000
0100
0000
0010
0000
,
1000
0000
0010
0000
1000
0000
0001
0000
1000
0100
1000
0000
0010
0000
0100
0000
,
0001
0000
0010
0000
0100
0000
0001
0000
0100
0010
0100
0000
0010
0000
1000
0000
,
0001
1000
2002
0000
0000
0000
0000
0000
,
0000
3003
1000
0100
0010
0001
1000
0001
,
1000
0000
0010
0000
1000
0000
0010
0000
1000
0100
1000
0000
0010
0000
0100
0000
,
0001
0000
0100
0000
0010
0000
0001
0000
0100
0010
0100
0000
1000
0000
0001
0000
,
1000
0000
0001
0000
0100
0000
0010
0000
0100
0010
0100
0000
0001
0000
1000
0000
,
0001
0000
1000
0000
0010
0000
1000
0000
0100
0010
0100
0000
0001
0000
1000
0000
,
0001
0000
0100
0000
0010
0000
0001
0000
1000
0010
1000
0000
0100
0000
0010
0000
,
0100
0000
0001
0000
0100
0000
0010
0000
1000
0010
1000
0000
0100
0000
0010
0000
,
0100
0000
0100
0000
1000
0000
0010
0000
1000
0010
1000
0000
0100
0000
0010
0000
,
0100
0000
0001
0000
1000
0001
1000
0000
0001
0000
0100
0000
0001
0000
0100
0000
,
1000
0000
0001
0000
1000
0010
1000
0000
0100
0000
0010
0000
1000
0000
0001
0000
,
0100
0000
0010
0000
0001
0010
0001
0000
1000
0000
0010
0000
1000
0000
0100
0000
,
0010
0000
0100
0000
0001
0100
0001
0000
0010
0000
1000
0000
0001
0000
0100
0000
,
0010
0000
0100
0000
0001
0010
0001
0000
1000
0000
0010
0000
1000
0000
0100
0000
,
0010
0000
0001
0000
1000
0001
1000
0000
0100
0000
0010
0000
1000
0000
0001
0000
,
0100
0000
0001
0000
0100
0001
0100
0000
0010
0000
1000
0000
0100
0000
0010
0000
,
0100
0010
0220
0000
0000
0000
0000
0000
,
0000
0000
0000
0000
,
0000
0000
0000
0000
,
0330
0000
1000
0001
1000
0001
1000
0001
,
1000
2002
0000
0000
,
3003
2020
0000
0000
,
3030
0202
0000
0000
,
0303
2020
0000
0000
,
3030
0202
0000
0000
,
0303
0220
0000
0000
,
0330
2002
0000
0000
,
3003
0000
0000
0000
1000
0001
1000
0000
0001
0100
0001
0000
1000
0010
1000
0000
,
0100
0001
0100
0000
1000
0000
0010
1000
0000
0010
1000
0000
0100
0000
0010
0000
,
1000
0000
0001
0000
0100
0000
0001
0100
0000
0001
0100
0000
0010
0000
1000
0000
,
0001
0000
0100
0000
1000
0000
0010
1000
0000
0010
1000
0000
0100
0000
0001
0000
,
0100
0000
0010
0000
0100
0000
0001
0100
0000
0001
0100
0000
0010
0000
1000
0000
,
0010
0000
0100
0000
1000
0000
0100
1000
0000
0100
1000
0000
0100
0000
0001
0000
,
0100
0000
0010
0000
1000
0000
0001
1000
0000
0001
1000
0000
0100
0000
0001
0000
,
0100
0000
0010
0000
1000
0000
0010
1000
0000
0010
1000
0000
0010
0000
0100
0000
,
0001
0000
0100
0000
0010
0000
1000
0000
1000
0000
0010
0000
0010
0000
1000
0010
,
1000
0000
0100
0000
1000
0000
0010
1000
0000
0010
1000
0000
0100
0000
0010
0000
,
0100
0000
0001
0000
0010
0000
0100
0010
0000
0100
0010
0000
1000
0000
0010
0000
,
0100
0000
0001
0000
0100
0000
0001
0100
0000
0001
0100
0000
0001
0000
1000
0000
,
0001
0000
0100
0000
0010
0000
1000
0010
0000
1000
0010
0000
0100
0000
0001
0000
,
1000
0000
0001
0000
0100
0000
0001
0100
0000
0001
0100
0000
0010
0000
0100
0000
,
1000
0000
0001
0000
0100
0000
0010
0100
0000
0010
0100
0000
1000
0000
0010
0000
,
1000
0000
0001
0000
1000
0000
0001
1000
0000
0001
1000
0000
0010
0000
0001
0000
,
0100
0000
0010
0000
1000
0000
0001
0000
0001
0000
1000
0000
1000
0000
0001
1000
,
0001
0000
0010
0000
1000
0000
0001
1000
0000
0001
1000
0000
0100
0000
0010
0000
,
1000
0000
0001
0000
0100
0000
0001
0100
0000
0001
0100
0000
0010
0000
1000
0000
,
0100
0000
0010
0000
1000
0000
0010
1000
0000
0010
1000
0000
0100
0000
0001
0000
,
0100
0000
0010
0000
0001
0000
0100
0001
0000
0100
0001
0000
1000
0000
0010
0000
,
1000
0000
0001
0000
0100
0000
0001
0100
0000
0001
0100
0000
0010
0000
1000
0000
,
0010
0000
0100
0000
0010
0000
0100
0010
0000
0100
0010
0000
1000
0000
0001
0000
,
1000
0000
0010
0000
0100
0000
0001
0100
0000
0001
0100
0000
0001
0000
1000
0000
,
0010
0000
0100
0000
0001
0000
1000
0000
1000
0000
0010
0000
0010
0000
1000
0010
,
1000
0100
2002
0000
0000
0000
0000
0000
,
0000
0000
0000
0000
,
0000
0000
0000
0000
,
0000
0000
0000
0000
,
0000
3003
0000
0000
;

//---------------dance-single - Destrier75----------------
#NOTES:
     dance-single:
     Destrier75:
     Medium:
     9:
     0.504,0.479,0.072,0.143,0.075:
0000
0000
0000
0000
,
0000
0000
0000
0000
,
0000
0000
0000
0000
,
0000
0000
0000
0000
,
0000
0000
1000
0010
1000
0010
1000
0000
,
0100
0000
0010
0001
0010
0001
0010
0000
,
0001
0000
1000
0010
1000
0000
0100
0010
,
0100
0000
0001
1000
0001
1000
0001
0000
,
0100
0000
0010
0001
0010
0001
0010
0000
,
0100
0000
1000
0100
1000
0100
1000
0000
,
0010
0000
0100
0010
0100
0000
0001
1000
,
0001
0000
0100
0010
0100
0010
0100
0000
,
0010
0000
1000
0010
1000
0010
1000
0000
,
0100
0000
0010
0001
0010
0001
0010
0000
,
0001
0000
1000
0010
1000
0000
0100
0001
,
0100
0000
0010
0100
0010
0100
0010
0000
,
0100
0220
0000
0000
,
0330
0000
1000
0010
1000
0010
1000
0001
,
1000
0000
1000
0100
0010
0001
1000
0010
,
1000
0000
0001
1000
0010
0100
0010
0001
,
0100
0000
1000
0010
1000
0100
0010
0001
,
1000
0000
0001
1000
0001
0100
0010
1000
,
0010
0000
1000
0010
1000
0001
0100
0010
,
1000
0000
0001
1000
0001
1000
0100
0010
,
0001
0000
1000
0100
1000
0010
1000
0001
,
1000
0000
1000
0010
1000
0001
1000
0010
,
1000
0000
0100
0010
0100
0010
0100
0001
,
0100
0000
1000
0010
1000
0010
1000
0001
,
1000
0000
0100
0010
0100
0001
0100
1000
,
0100
0000
0001
0100
0001
0100
0001
0010
,
0100
0000
1000
0010
1000
0010
1000
0100
,
0010
0000
1000
0001
1000
0001
1000
0001
,
1000
0000
0100
0010
0001
0010
0100
1000
,
0100
2002
0000
0000
,
0000
0000
0000
0000
,
3003
0000
1000
0010
1000
0000
0100
0001
,
0100
0000
0010
0100
0010
0000
1000
0010
,
1000
0000
0100
0001
0100
0000
0010
1000
,
0010
0000
0100
0010
0100
0000
0001
1000
,
0001
0000
1000
0010
1000
0000
0100
0010
,
0100
0000
0100
0001
0100
0000
0010
1000
,
0010
0000
1000
0010
1000
0010
1000
0000
,
0100
0000
0001
0100
0001
0100
0001
0000
,
0010
0000
1000
0100
1000
0100
1000
0000
,
0010
0000
0100
0001
0100
0001
0100
0000
,
0010
0000
0100
0010
0100
0010
0100
0000
,
0001
0000
1000
0001
1000
0001
1000
0000
,
0100
0000
0001
0100
0001
0100
0001
0000
,
0010
0000
1000
0010
1000
0010
1000
0000
,
0001
2002
0000
0000
,
0000
0000
0000
0000
,
0000
0000
0000
0000
,
3003
0000
1000
0010
1000
0000
0100
0001
,
0100
2002
0000
0000
,
3003
0220
0000
0000
,
0330
2020
0000
0000
,
0000
0000
0000
0000
,
3030
0202
0000
0000
,
0303
2020
0000
0000
,
3030
0220
0000
0000
,
0330
0000
1000
0001
1000
0001
1000
0001
,
1000
0000
0001
0000
1000
0000
0010
0000
1000
0000
0010
0000
1000
0000
0000
1000
,
0000
0000
1000
0000
0001
0000
1000
0000
0001
0000
1000
0000
0001
0000
0000
0001
,
0000
0000
0001
0000
1000
0000
0010
0000
1000
0000
0010
0000
1000
0000
0000
1000
,
0000
0000
1000
0000
0100
0000
0010
0000
0100
0000
0010
0000
0100
0000
0000
0100
,
0000
0000
0100
0000
0010
0000
0001
0000
0010
0000
0001
0000
0010
0000
0000
0010
,
0000
0000
0010
0000
1000
0000
0010
0000
1000
0000
0010
0000
1000
0000
0000
1000
,
0000
0000
1000
0000
0001
0000
0100
0000
0001
0000
0100
0000
0001
0000
0000
0001
,
0000
0001
1000
0010
1000
0010
1000
0010
,
1000
0000
0010
0000
1000
0000
0100
0000
0010
0000
1000
0000
0010
0000
0000
0100
,
0000
0000
0010
0000
1000
0000
0001
0000
1000
0000
0100
0000
0010
0000
0000
0001
,
0000
0000
0010
0000
1000
0000
0100
0000
1000
0000
0001
0000
1000
0000
0000
0010
,
0000
0000
1000
0000
0100
0000
0010
0000
0100
0000
0001
0000
1000
0000
0000
0010
,
0000
0000
1000
0000
0100
0000
0010
0000
0100
0000
0001
0000
0100
0000
0000
0010
,
0000
0000
0100
0000
0001
0000
1000
0000
0001
0000
1000
0000
0001
0000
0000
0100
,
0000
0000
0010
0000
1000
0000
0010
0000
0100
0000
0001
0000
0100
0000
0000
0010
,
0000
1000
0010
0100
0010
0100
0010
0100
,
0010
0000
0100
0000
0001
0000
0010
0000
0100
0000
1000
0000
0100
0000
0000
0010
,
0000
0000
0001
0000
0010
0000
0100
0000
1000
0000
0100
0000
0010
0000
0000
0100
,
0000
0000
1000
0000
0001
0000
0010
0000
0100
0000
1000
0000
0100
0000
0000
0010
,
0000
0000
0001
0000
1000
0000
0100
0000
0010
0000
0001
0000
1000
0000
0000
0001
,
0000
0000
1000
0000
0010
0000
0100
0000
0001
0000
0100
0000
0010
0000
0000
0100
,
0000
0000
0010
0000
1000
0000
0001
0000
1000
0000
0010
0000
1000
0000
0000
0100
,
0000
0000
0010
0000
0001
0000
1000
0000
0001
0000
0100
0000
0010
0000
0000
0001
,
0000
0100
0010
0100
0010
0100
0010
0100
,
0010
0100
0220
0000
0000
0000
0000
0000
,
0000
0000
0000
0000
,
0000
0000
0000
0000
,
0000
0000
0000
0000
,
0000
0330
0000
0000
;

//---------------dance-single - Destrier75----------------
#NOTES:
     dance-single:
     Destrier75:
     Easy:
     6:
     0.301,0.287,0.029,0.107,0.000:
0000
0000
0000
0000
,
0000
0000
0000
0000
,
0000
0000
0000
0000
,
0000
0000
0000
0000
,
0000
1000
0010
1000
,
0000
0100
0001
0100
,
0000
0010
1000
0010
,
0000
0100
0010
0100
,
0000
1000
0010
1000
,
0010
0100
0001
0100
,
0001
0010
0100
0010
,
0100
1000
0100
1000
,
0100
0001
0100
0001
,
0100
0001
1000
0001
,
1000
0100
0001
0100
,
0001
1000
0010
1000
,
0010
2020
0000
0000
,
3030
1000
1000
0001
,
0001
0100
0100
0010
,
0010
1000
1000
0001
,
0001
1000
1000
0100
,
0100
0010
0010
0001
,
0001
1000
1000
0010
,
0010
0100
0100
0001
,
0001
1000
1000
0010
,
0010
0100
0100
0010
,
0010
1000
1000
0001
,
0001
0100
0100
0010
,
0010
1000
1000
0001
,
0001
0100
0100
0001
,
0001
1000
1000
0010
,
0010
0100
0100
0001
,
0001
1000
1000
0001
,
0001
2002
0000
0000
,
0000
0000
0000
0000
,
3003
1000
1000
1000
,
1000
0001
0001
0001
,
0001
0100
0100
0100
,
0100
0010
0010
0010
,
0010
1000
1000
1000
,
1000
0001
0001
0001
,
0001
1000
0001
1000
,
0001
1000
0010
1000
,
0010
0100
0001
0100
,
0001
0010
1000
0010
,
1000
0100
0010
0100
,
0010
1000
0001
1000
,
0001
0100
0001
0100
,
0001
0010
1000
0010
,
1000
2002
0000
0000
,
0000
0000
0000
0000
,
0000
0000
0000
0000
,
3003
0100
0010
0100
,
0010
0200
0000
0000
,
0000
0302
0000
0000
,
0000
2003
0000
0000
,
0000
0000
0000
0000
,
0000
3002
0000
0000
,
0000
0203
0000
0000
,
0000
0320
0000
0000
,
0000
0230
0000
0000
,
0000
0301
0001
1000
,
1000
0010
0010
0100
,
0100
1000
1000
0010
,
0010
0100
0100
0001
,
0001
1000
1000
0010
,
0010
1000
1000
0001
,
0001
1000
1000
0010
,
0010
0100
0100
0001
,
0001
1000
1000
0010
,
0010
0100
0100
0001
,
0001
1000
1000
0010
,
0010
0100
0100
0001
,
0001
1000
1000
0010
,
0010
0100
0100
0001
,
0001
0100
0100
0010
,
0010
1000
1000
0001
,
0001
1000
0010
1000
,
0010
0100
0001
0100
,
0001
0010
1000
0010
,
1000
0100
0010
0100
,
0010
0100
0001
0100
,
0001
0010
1000
0010
,
1000
0100
0001
0100
,
0001
1000
0010
1000
,
0010
2002
0000
0000
,
0000
0000
0000
0000
,
0000
0000
0000
0000
,
0000
0000
0000
0000
,
0000
3003
0000
0000
;

//---------------dance-single - Destrier75----------------
#NOTES:
     dance-single:
     Destrier75:
     Beginner:
     3:
     0.216,0.192,0.007,0.079,0.000: // measure 1
0000
0000
0000
0000
,  // measure 2
0000
0000
0000
0000
,  // measure 3
0000
0000
0000
0000
,  // measure 4
0000
0000
0000
0000
,  // measure 5
0000
0100
0000
0100
,  // measure 6
0000
0010
0000
0010
,  // measure 7
0000
0100
0000
0100
,  // measure 8
0000
0010
0000
0010
,  // measure 9
0000
1000
1000
1000
,  // measure 10
0000
0001
0000
0001
,  // measure 11
0000
0100
0100
0100
,  // measure 12
0000
0010
0000
0010
,  // measure 13
0000
1000
1000
1000
,  // measure 14
0000
0001
0000
0001
,  // measure 15
0000
0100
0100
0100
,  // measure 16
0000
0010
0000
0010
,  // measure 17
0000
0020
0000
0000
,  // measure 18
0030
1000
1000
1000
,  // measure 19
0000
0001
0000
0001
,  // measure 20
0000
0100
0100
0100
,  // measure 21
0000
0010
0000
0010
,  // measure 22
0000
1000
1000
1000
,  // measure 23
0000
0010
0000
0010
,  // measure 24
0000
0001
0001
0001
,  // measure 25
0000
0100
0100
0100
,  // measure 26
0000
0010
0010
0010
,  // measure 27
0000
1000
0000
1000
,  // measure 28
0000
0001
0001
0001
,  // measure 29
0000
0100
0000
0100
,  // measure 30
0000
0010
0010
0010
,  // measure 31
0000
1000
0000
1000
,  // measure 32
0000
0001
0001
0001
,  // measure 33
0000
0100
0100
0100
,  // measure 34
0000
0020
0000
0000
,  // measure 35
0000
0000
0000
0000
,  // measure 36
0030
1000
1000
1000
,  // measure 37
0000
0001
0001
0001
,  // measure 38
0000
1000
1000
1000
,  // measure 39
0000
0001
0001
0001
,  // measure 40
0000
1000
1000
1000
,  // measure 41
0000
0001
0001
0001
,  // measure 42
0000
0100
0100
0100
,  // measure 43
0000
0010
0010
0010
,  // measure 44
0000
0100
0100
0100
,  // measure 45
0000
0010
0010
0010
,  // measure 46
0000
0100
0100
0100
,  // measure 47
0000
0010
0010
0010
,  // measure 48
0000
0100
0100
0100
,  // measure 49
0000
0010
0010
0010
,  // measure 50
0000
0020
0000
0000
,  // measure 51
0000
0000
0000
0000
,  // measure 52
0000
0000
0000
0030
,  // measure 53
0000
1000
0000
1000
,  // measure 54
0000
2000
0000
0000
,  // measure 55
0000
3002
0000
0000
,  // measure 56
0000
2003
0000
0000
,  // measure 57
0000
0000
0000
0000
,  // measure 58
0000
3002
0000
0000
,  // measure 59
0000
2003
0000
0000
,  // measure 60
0000
3002
0000
0000
,  // measure 61
0003
0010
0010
0010
,  // measure 62
0000
0100
0100
0100
,  // measure 63
0000
0001
0001
0001
,  // measure 64
0000
1000
1000
1000
,  // measure 65
0000
0001
0001
0001
,  // measure 66
0000
1000
1000
1000
,  // measure 67
0000
0010
0010
0010
,  // measure 68
0000
1000
1000
1000
,  // measure 69
0000
0001
0001
0001
,  // measure 70
0000
0100
0100
0100
,  // measure 71
0000
0010
0010
0010
,  // measure 72
0000
1000
1000
1000
,  // measure 73
0000
0001
0001
0001
,  // measure 74
0000
1000
1000
1000
,  // measure 75
0000
0010
0010
0010
,  // measure 76
0000
0100
0100
0100
,  // measure 77
0000
0001
0001
0001
,  // measure 78
0000
1000
1000
1000
,  // measure 79
0000
0010
0010
0010
,  // measure 80
0000
1000
1000
1000
,  // measure 81
0000
0001
0001
0001
,  // measure 82
0000
0100
0100
0100
,  // measure 83
0000
0010
0010
0010
,  // measure 84
0000
1000
1000
1000
,  // measure 85
0000
0001
0001
0001
,  // measure 86
0000
2002
0000
0000
,  // measure 87
0000
0000
0000
0000
,  // measure 88
0000
0000
0000
0000
,  // measure 89
0000
0000
0000
0000
,  // measure 90
0000
3003
0000
0000
;
